<?xml version="1.0" encoding="UTF-8" standalone="no"?> <svg xmlns="http://www.w3.org/2000/svg" xmlns:xlink="http://www.w3.org/1999/xlink" version="1.1"><metadata> Created by FontForge 20190801 at Thu May 24 21:11:28 2018 By Jimmy Wärting Copyright (c) 2015, 2018 by Jakob Runge, under exclusive license to TypeMates. All rights reserved. </metadata><defs><font id="CeraPro-Black"><glyph glyph-name="fi" unicode="fi" d="M258 542v-42h101v-144h-101v-356h-172v356h-70v144h70v59q0 99 55 151t155 52q49 0 83 -12v-144q-8 0 -17 0.5t-14 1t-8 0.5q-44 0 -63 -15.5t-19 -50.5zM439 0v500h172v-500h-172zM419 677q0 43 30.5 72.5t74.5 29.5t75 -29.5t31 -72.5q0 -42 -31 -71.5t-75 -29.5 t-74.5 29t-30.5 72z"></glyph><glyph glyph-name="fl" unicode="fl" d="M258 542v-42h101v-144h-101v-356h-172v356h-70v144h70v59q0 99 55 151t155 52q49 0 83 -12v-144q-8 0 -17 0.5t-14 1t-8 0.5q-44 0 -63 -15.5t-19 -50.5zM439 0v750h172v-750h-172z"></glyph><glyph glyph-name=".notdef" d="M66 660h585v-660h-585v660zM536 94v462h-357z"></glyph><glyph glyph-name=".null"></glyph><glyph glyph-name="nonmarkingreturn"></glyph><glyph glyph-name="space" unicode=" "></glyph><glyph glyph-name="exclam" unicode="!" d="M117 264l-33 396h205l-32 -396h-140zM75 100q0 48 32 80t82 32q48 0 79.5 -32t31.5 -80t-31.5 -80t-79.5 -32q-50 0 -82 32t-32 80z"></glyph><glyph glyph-name="quotedbl" unicode="&quot;" d="M76 368v292h195l-65 -292h-130zM348 368v292h195l-65 -292h-130z"></glyph><glyph glyph-name="numbersign" unicode="#" d="M628 378h-96l-12 -96h88v-144h-108l-18 -138h-139l18 138h-120l-18 -138h-139l18 138h-76v144h96l12 96h-88v144h108l18 138h139l-18 -138h120l18 138h139l-18 -138h76v-144zM259 272h120l16 116h-120z"></glyph><glyph glyph-name="dollar" unicode="$" d="M340 26v-125h-144v128q-114 29 -169 133l114 87q52 -79 135 -79q62 0 62 36q0 15 -13 24.5t-47 21.5l-67 22q-75 26 -115 73t-40 109t38 107t102 63v122h144v-120q97 -24 146 -118l-114 -87q-42 62 -101 62q-47 0 -47 -30q0 -24 50 -41l75 -23q157 -54 157 -182 q0 -71 -45 -119t-121 -64z"></glyph><glyph glyph-name="percent" unicode="%" d="M50 506q0 71 51 118.5t124 47.5t124 -47.5t51 -118.5q0 -70 -51.5 -118.5t-123.5 -48.5t-123.5 48.5t-51.5 118.5zM179 0l381 660h135l-382 -660h-134zM270 506q0 22 -12.5 36t-31.5 14q-21 0 -33.5 -13.5t-12.5 -36.5t12 -36.5t34 -13.5q19 0 31.5 13.5t12.5 36.5z M473 156q0 71 51 118.5t124 47.5t124 -47.5t51 -118.5q0 -70 -51.5 -118.5t-123.5 -48.5t-123.5 48.5t-51.5 118.5zM693 156q0 22 -12.5 36t-31.5 14q-21 0 -33.5 -13.5t-12.5 -36.5t12 -36.5t34 -13.5q19 0 31.5 13.5t12.5 36.5z"></glyph><glyph glyph-name="ampersand" unicode="&amp;" d="M553 138l113 -138h-199l-29 35q-77 -47 -168 -47q-101 0 -163.5 52.5t-62.5 138.5q0 52 26 95t95 99q-49 67 -49 133q0 75 51 120.5t136 45.5q79 0 129 -42t50 -109q0 -47 -23 -86.5t-78 -85.5l-1 -1l69 -83q16 21 61 85l29 41l131 -96q-76 -107 -117 -157zM267 502 q0 -16 24 -45l5 -6l9 7q26 23 26 44q0 28 -31 28q-14 0 -23.5 -8t-9.5 -20zM342 154l-87 108q-43 -36 -43 -67q0 -26 19 -42.5t50 -16.5t61 18z"></glyph><glyph glyph-name="quotesingle" unicode="'" d="M76 368v292h195l-65 -292h-130z"></glyph><glyph glyph-name="parenleft" unicode="(" d="M62 305q0 171 65 281q65 111 168 156l67 -98q-156 -104 -156 -339t156 -339l-67 -98q-103 45 -168 155q-65 112 -65 282z"></glyph><glyph glyph-name="parenright" unicode=")" d="M91 -132l-67 98q156 104 156 339t-156 339l67 98q103 -45 168 -156q65 -110 65 -281q0 -170 -65 -282q-65 -110 -168 -155z"></glyph><glyph glyph-name="asterisk" unicode="*" d="M469 596l-90 -70l90 -70l-48 -83l-106 43l-15 -113h-96l-15 113l-106 -43l-48 83l90 70l-90 70l48 83l106 -43l15 113h96l15 -113l106 43z"></glyph><glyph glyph-name="plus" unicode="+" d="M200 84v168h-163v144h163v168h162v-168h162v-144h-162v-168h-162z"></glyph><glyph glyph-name="comma" unicode="," d="M48 -177v322h195l-60 -322h-135z"></glyph><glyph glyph-name="hyphen" unicode="-" d="M40 253v144h260v-144h-260z"></glyph><glyph glyph-name="period" unicode="." d="M28 100q0 48 32 80t82 32q48 0 79.5 -32t31.5 -80t-31.5 -80t-79.5 -32q-50 0 -82 32t-32 80z"></glyph><glyph glyph-name="slash" unicode="/" d="M0 -121l523 901h177l-523 -901h-177z"></glyph><glyph glyph-name="zero" unicode="0" d="M50 335q0 151 71.5 244t202.5 93t202.5 -93t71.5 -244q0 -153 -72 -250t-202 -97t-202 97t-72 250zM422 334q0 93 -24 136.5t-74 43.5t-74 -43.5t-24 -136.5q0 -188 98 -188t98 188z"></glyph><glyph glyph-name="one" unicode="1" d="M280 660h55v-660h-172v456l-112 -37l-41 152z"></glyph><glyph glyph-name="two" unicode="2" d="M344 144h204v-144l-505 -1v35l237 259q79 86 79 146q0 35 -19 55t-50 20t-49.5 -21t-18.5 -58q0 -21 4 -44h-173q-7 27 -7 56q-2 88 69.5 157.5t177.5 67.5q103 0 172.5 -62t69.5 -155q0 -65 -34 -123.5t-110 -138.5z"></glyph><glyph glyph-name="three" unicode="3" d="M517 220q0 -99 -74.5 -165.5t-183.5 -66.5q-85 0 -151 42t-100 116l119 84q30 -45 58.5 -64.5t66.5 -19.5q40 0 64.5 19.5t24.5 53.5q0 68 -114 68h-94v44l117 174h-188v155h445v-45l-131 -195q63 -24 102 -77t39 -123z"></glyph><glyph glyph-name="four" unicode="4" d="M587 242v-144h-77v-98h-172v98h-326v45l197 517h177l-161 -418h113v162h172v-162h77z"></glyph><glyph glyph-name="five" unicode="5" d="M530 222q0 -101 -76 -167.5t-188 -66.5q-87 0 -154.5 42t-101.5 116l119 84q30 -45 59.5 -64.5t70.5 -19.5q43 0 69 19.5t26 54.5q0 67 -114 67h-157v373h409v-155h-246v-77q35 7 63 7q86 2 154.5 -59t66.5 -154z"></glyph><glyph glyph-name="six" unicode="6" d="M539 232q2 -102 -76 -174t-178 -70q-103 0 -178.5 70.5t-75.5 175.5q0 54 21 98q23 45 69 107l165 221h203l-147 -199q80 -11 138.5 -74.5t58.5 -154.5zM369 233q0 37 -24.5 61t-59.5 24t-59.5 -24t-24.5 -61t24.5 -62t59.5 -25t59.5 25t24.5 62z"></glyph><glyph glyph-name="seven" unicode="7" d="M40 660h478v-45l-281 -615h-187l240 505h-250v155z"></glyph><glyph glyph-name="eight" unicode="8" d="M555 181q0 -89 -72 -141t-185 -52q-114 0 -186 52t-72 141q0 109 114 160q-85 58 -85 150q0 85 64 133q65 48 165 48t164 -48t64 -133q0 -92 -85 -150q114 -51 114 -160zM226 483q0 -21 17 -37t55 -35q38 18 54.5 35t16.5 38q0 24 -20 38.5t-51 14.5t-51.5 -15t-20.5 -39 zM385 188q0 51 -88 82q-87 -32 -87 -82q0 -29 22.5 -46t65.5 -17q42 0 64.5 17t22.5 46z"></glyph><glyph glyph-name="nine" unicode="9" d="M539 426q0 -55 -22 -98q-21 -43 -68 -107l-165 -221h-203l147 199q-80 11 -138.5 74.5t-58.5 154.5q-2 102 76 174t178 70q103 0 178.5 -70.5t75.5 -175.5zM369 427q0 37 -24.5 62t-59.5 25t-59.5 -25t-24.5 -62t24.5 -61t59.5 -24q36 0 60 24.5t24 60.5z"></glyph><glyph glyph-name="colon" unicode=":" d="M28 400q0 48 32 80t82 32q48 0 79.5 -32t31.5 -80t-31.5 -80t-79.5 -32q-50 0 -82 32t-32 80zM28 100q0 48 32 80t82 32q48 0 79.5 -32t31.5 -80t-31.5 -80t-79.5 -32q-50 0 -82 32t-32 80z"></glyph><glyph glyph-name="semicolon" unicode=";" d="M28 400q0 48 32 80t82 32q48 0 79.5 -32t31.5 -80t-31.5 -80t-79.5 -32q-50 0 -82 32t-32 80zM48 -177v322h195l-60 -322h-135z"></glyph><glyph glyph-name="less" unicode="&lt;" d="M509 564v-147l-216 -92l216 -93v-147l-481 217v45z"></glyph><glyph glyph-name="equal" unicode="=" d="M47 362v144h467v-144h-467zM47 142v144h467v-144h-467z"></glyph><glyph glyph-name="greater" unicode="&gt;" d="M51 564l481 -217v-45l-481 -217v147l216 93l-216 92v147z"></glyph><glyph glyph-name="question" unicode="?" d="M129 314q0 49 78 106q28 21 37 32.5t9 26.5t-11.5 25t-28.5 10q-20 0 -34 -15t-29 -48l-140 62q21 79 75.5 119t133.5 40q90 0 150 -50t60 -130q0 -40 -17 -70t-58 -65l-19 -16q-50 -40 -50 -64v-13h-144q-12 28 -12 50zM103 100q0 48 32 80t82 32q48 0 79.5 -32 t31.5 -80t-31.5 -80t-79.5 -32q-50 0 -82 32t-32 80z"></glyph><glyph glyph-name="at" unicode="@" d="M941 280q0 -130 -83 -192t-223 -62h-66v40q-42 -51 -119 -51q-88 0 -145 62.5t-57 158.5t57 158.5t145 62.5q77 0 119 -51v41h139v-292q51 3 75.5 32t24.5 92q0 120 -82 192.5t-221 72.5q-151 0 -245.5 -85.5t-94.5 -223.5q0 -137 88.5 -221.5t233.5 -84.5q37 0 112 14 l26 -117q-67 -24 -156 -24q-118 -2 -219 54t-160.5 156t-57.5 220q-2 124 61.5 226.5t172 159t235.5 54.5q186 3 314.5 -114t125.5 -278zM559 236q0 39 -21.5 61t-54.5 22q-34 0 -57 -22.5t-23 -60.5t22.5 -60t56.5 -22t55.5 22t21.5 60z"></glyph><glyph glyph-name="A" unicode="A" d="M472 0l-24 55h-237l-24 -55h-185l300 672h55l300 -672h-185zM387 193l-57 153l-58 -153h115z"></glyph><glyph glyph-name="B" unicode="B" d="M597 196q0 -85 -63.5 -140.5t-159.5 -55.5h-308v660h238q96 0 159.5 -54.5t63.5 -140.5q0 -67 -40 -111q110 -45 110 -158zM293 515h-62v-116h62q31 0 48.5 16t17.5 42t-17.5 42t-48.5 16zM429 203q0 58 -66 58h-132v-116h132q66 0 66 58z"></glyph><glyph glyph-name="C" unicode="C" d="M32 330q-2 142 104 243.5t253 98.5q99 0 178 -46.5t124 -130.5l-131 -89q-64 108 -172 108q-79 0 -129.5 -51t-50.5 -134q0 -81 50 -133q52 -50 130 -50q108 0 172 108l131 -89q-45 -84 -124 -130.5t-179 -46.5q-146 -2 -252.5 99t-103.5 243z"></glyph><glyph glyph-name="D" unicode="D" d="M66 0v660h230q154 2 258 -90t102 -238q2 -145 -102.5 -239.5t-257.5 -92.5h-230zM238 155h57q82 0 133.5 48t51.5 129q0 82 -50.5 127t-134.5 45h-57v-349z"></glyph><glyph glyph-name="E" unicode="E" d="M66 0v660h458v-155h-286v-91h204v-144h-204v-115h298v-155h-470z"></glyph><glyph glyph-name="F" unicode="F" d="M66 0v660h448v-155h-276v-126h224v-155h-224v-224h-172z"></glyph><glyph glyph-name="G" unicode="G" d="M32 330q-2 142 104 243t255 99q185 0 284 -147l-120 -102q-65 91 -167 91q-83 0 -131.5 -50t-48.5 -134q0 -85 51.5 -137t138.5 -52q94 0 145 59v31h-154v148h326v-208q-46 -82 -132 -133q-86 -50 -192 -50q-149 -2 -255 98.5t-104 243.5z"></glyph><glyph glyph-name="H" unicode="H" d="M66 0v660h172v-241h241v241h172v-660h-172v264h-241v-264h-172z"></glyph><glyph glyph-name="I" unicode="I" d="M66 0v660h172v-660h-172z"></glyph><glyph glyph-name="J" unicode="J" d="M12 0v146l63 -2q47 0 66.5 15t19.5 51v450h172v-469q0 -101 -56 -152t-164 -51q-51 0 -101 12z"></glyph><glyph glyph-name="K" unicode="K" d="M693 0h-204l-251 329v-329h-172v660h172v-299l218 299h200l-227 -314z"></glyph><glyph glyph-name="L" unicode="L" d="M66 0v660h172v-505h273v-155h-445z"></glyph><glyph glyph-name="M" unicode="M" d="M683 672h55v-672h-172v277l-137 -160h-55l-136 159v-276h-172v672h55l281 -343z"></glyph><glyph glyph-name="N" unicode="N" d="M479 660h172v-672h-55l-358 347v-335h-172v672h55l358 -342v330z"></glyph><glyph glyph-name="O" unicode="O" d="M32 330q-3 141 103.5 243t251.5 99q145 3 252.5 -99t104.5 -243q3 -142 -104.5 -243t-252.5 -99q-146 -2 -252 99t-103 243zM568 330q0 81 -51.5 132.5t-128.5 51.5q-80 0 -130 -51t-50 -133t50 -134q50 -50 130 -50q78 0 129 51t51 133z"></glyph><glyph glyph-name="P" unicode="P" d="M66 0v660h259q111 0 183 -62.5t72 -164.5q0 -100 -73 -164t-182 -64h-87v-205h-172zM238 355h88q36 0 57.5 21.5t21.5 56.5t-21.5 56t-57.5 21h-88v-155z"></glyph><glyph glyph-name="Q" unicode="Q" d="M1067 -83v-135q-54 -14 -124 -14q-141 0 -259.5 59t-198.5 174q-43 -13 -98 -13q-146 -2 -252 99t-103 243q-3 141 103.5 243t251.5 99q145 3 252.5 -99t104.5 -243q0 -153 -116 -255q66 -84 149 -122.5t201 -38.5q34 0 89 3zM388 146q78 0 129 51t51 133 q0 81 -51.5 132.5t-128.5 51.5q-80 0 -130 -51t-50 -133t50 -134q50 -50 130 -50z"></glyph><glyph glyph-name="R" unicode="R" d="M650 0h-192l-149 205h-71v-205h-172v660h259q111 0 183 -62.5t72 -164.5q0 -124 -104 -188zM238 510v-155h88q36 0 57.5 21.5t21.5 56.5t-21.5 56t-57.5 21h-88z"></glyph><glyph glyph-name="S" unicode="S" d="M23 136l116 88q32 -42 66 -63.5t81 -21.5q68 0 68 48q0 21 -13 32t-54 29l-68 30q-167 74 -167 199q0 87 64.5 141t166.5 54q160 0 226 -133l-115 -88q-25 37 -50 53.5t-59 16.5q-59 0 -59 -42q0 -18 12.5 -29.5t44.5 -24.5l76 -32q88 -37 128.5 -83.5t40.5 -115.5 q0 -94 -68.5 -150t-173.5 -56q-88 0 -157.5 39.5t-105.5 108.5z"></glyph><glyph glyph-name="T" unicode="T" d="M208 0v505h-198v155h568v-155h-198v-505h-172z"></glyph><glyph glyph-name="U" unicode="U" d="M62 280v380h172v-393q0 -56 33 -88.5t87 -32.5t87 32.5t33 88.5v393h172v-380q0 -129 -83 -210.5t-209 -81.5q-128 0 -210 80.5t-82 211.5z"></glyph><glyph glyph-name="V" unicode="V" d="M462 660h195l-300 -672h-55l-300 672h195l133 -324z"></glyph><glyph glyph-name="W" unicode="W" d="M811 660h192l-272 -672h-55l-168 345l-169 -345h-55l-272 672h192l124 -317l152 329h55l152 -329z"></glyph><glyph glyph-name="X" unicode="X" d="M621 0h-194l-116 185l-115 -185h-194l215 335l-203 325h194l103 -176l103 176h194l-200 -325z"></glyph><glyph glyph-name="Y" unicode="Y" d="M627 660l-226 -407v-253h-172v251l-227 409h190l123 -230l123 230h189z"></glyph><glyph glyph-name="Z" unicode="Z" d="M273 155h291v-155h-552v45l289 460h-246v155h508v-45z"></glyph><glyph glyph-name="bracketleft" unicode="[" d="M82 -130v860h255v-134h-113v-592h113v-134h-255z"></glyph><glyph glyph-name="backslash" unicode="\" d="M523 -121l-523 901h177l523 -901h-177z"></glyph><glyph glyph-name="bracketright" unicode="]" d="M30 -130v134h113v592h-113v134h255v-860h-255z"></glyph><glyph glyph-name="asciicircum" unicode="^" d="M509 270h-161l-72 146l-73 -146h-161l206 400h55z"></glyph><glyph glyph-name="underscore" unicode="_" d="M30 -192v134h440v-134h-440z"></glyph><glyph glyph-name="grave" unicode="`" d="M311 574l-147 176v30h207l64 -206h-124z"></glyph><glyph glyph-name="a" unicode="a" d="M503 290v-290h-157v41q-56 -53 -144 -53q-79 0 -125.5 44.5t-46.5 110.5q0 70 52.5 109.5t143.5 39.5h105v8q0 64 -76 64q-33 0 -60.5 -14t-64.5 -47l-80 109q99 100 226 100q106 0 166.5 -57.5t60.5 -164.5zM331 183v4h-81q-46 0 -46 -38q0 -18 13.5 -28.5t37.5 -10.5 q34 0 55 20t21 53z"></glyph><glyph glyph-name="b" unicode="b" d="M596 249q0 -114 -67.5 -187.5t-172.5 -73.5q-97 0 -143 64v-52h-157v750h172v-284q49 46 128 46q104 0 172 -74.5t68 -188.5zM420 250q0 49 -28.5 77.5t-69.5 28.5t-69 -29t-28 -78t27.5 -77t69.5 -28q43 0 70.5 28.5t27.5 77.5z"></glyph><glyph glyph-name="c" unicode="c" d="M31 250q-2 108 79.5 186t193.5 76q76 0 134.5 -35.5t89.5 -98.5l-119 -91q-42 67 -103 67q-45 0 -72 -29t-27 -75t27 -75t72 -29q60 0 103 66l119 -90q-31 -63 -89.5 -98.5t-134.5 -35.5q-112 -2 -193.5 76t-79.5 186z"></glyph><glyph glyph-name="d" unicode="d" d="M399 750h172v-750h-157v52q-46 -64 -143 -64q-105 0 -172.5 73.5t-67.5 187.5t68 188.5t172 74.5q79 0 128 -46v284zM402 249q0 49 -28 78t-69 29t-69.5 -28.5t-28.5 -77.5t27.5 -77.5t70.5 -28.5q42 0 69.5 28t27.5 77z"></glyph><glyph glyph-name="e" unicode="e" d="M526 190h-320q28 -57 112 -57q66 0 131 39l62 -117q-88 -67 -199 -67q-122 0 -201.5 75t-79.5 187q0 110 77.5 186t189.5 76q106 0 172.5 -69t66.5 -168q0 -43 -11 -85zM200 302h174q-1 33 -25 54t-58 21q-33 0 -57 -19.5t-34 -55.5z"></glyph><glyph glyph-name="f" unicode="f" d="M258 542v-42h101v-144h-101v-356h-172v356h-70v144h70v59q0 99 55 151t155 52q49 0 83 -12v-144q-8 0 -17 0.5t-14 1t-8 0.5q-44 0 -63 -15.5t-19 -50.5z"></glyph><glyph glyph-name="g" unicode="g" d="M414 500h157v-439q0 -125 -71 -189t-197 -64q-145 0 -252 90l87 121q75 -57 147 -57q51 0 82.5 22.5t31.5 65.5v18q-46 -46 -131 -46q-104 0 -170.5 67.5t-66.5 178.5t67 177.5t170 66.5q100 0 146 -63v51zM402 271q0 48 -27.5 73.5t-69.5 25.5q-43 0 -70.5 -26.5 t-27.5 -73.5t28.5 -76.5t69.5 -29.5t69 29t28 78z"></glyph><glyph glyph-name="h" unicode="h" d="M545 308v-308h-172v283q0 33 -20.5 53.5t-52.5 20.5t-52 -20.5t-20 -53.5v-283h-172v750h172v-285q53 47 130 47q83 0 135 -56.5t52 -147.5z"></glyph><glyph glyph-name="i" unicode="i" d="M56 0v500h172v-500h-172zM36 677q0 43 30.5 72.5t74.5 29.5t75 -29.5t31 -72.5q0 -42 -31 -71.5t-75 -29.5t-74.5 29t-30.5 72z"></glyph><glyph glyph-name="j" unicode="j" d="M-65 -180v144q8 0 17 -0.5t14 -1t8 -0.5q44 0 63 15.5t19 50.5v472h172v-489q0 -99 -55 -151t-155 -52q-49 0 -83 12zM36 677q0 43 30.5 72.5t74.5 29.5t75 -29.5t31 -72.5q0 -42 -31 -71.5t-75 -29.5t-74.5 29t-30.5 72z"></glyph><glyph glyph-name="k" unicode="k" d="M595 0h-189l-178 264v-264h-172v750h172v-452l156 202h199l-172 -223z"></glyph><glyph glyph-name="l" unicode="l" d="M56 0v750h172v-750h-172z"></glyph><glyph glyph-name="m" unicode="m" d="M852 308v-308h-172v283q0 35 -19 54.5t-52 19.5q-31 0 -50 -19.5t-19 -54.5v-283h-172v283q0 35 -19 54.5t-52 19.5q-31 0 -50 -19.5t-19 -54.5v-283h-172v500h157v-39q54 51 137 51q93 0 145 -64q64 64 164 64q89 0 141 -55.5t52 -148.5z"></glyph><glyph glyph-name="n" unicode="n" d="M545 308v-308h-172v283q0 33 -20.5 53.5t-52.5 20.5t-52 -20.5t-20 -53.5v-283h-172v500h157v-41q56 53 141 53q87 0 139 -55.5t52 -148.5z"></glyph><glyph glyph-name="o" unicode="o" d="M31 250q-2 107 79 185.5t193 76.5q112 2 193.5 -76.5t79.5 -185.5q2 -107 -79.5 -185.5t-193.5 -76.5q-112 -2 -193 76.5t-79 185.5zM400 250q0 45 -27.5 74.5t-68.5 29.5q-43 0 -70 -29t-27 -75q0 -47 27 -75.5t70 -28.5q42 0 69 29.5t27 74.5z"></glyph><glyph glyph-name="p" unicode="p" d="M596 251q0 -114 -68 -188.5t-172 -74.5q-79 0 -128 46v-214h-172v680h157v-52q46 64 143 64q105 0 172.5 -73.5t67.5 -187.5zM420 250q0 49 -27.5 77.5t-70.5 28.5q-42 0 -69.5 -28t-27.5 -77t28 -78t69 -29t69.5 28.5t28.5 77.5z"></glyph><glyph glyph-name="q" unicode="q" d="M414 500h157v-680h-172v214q-49 -46 -128 -46q-104 0 -172 74.5t-68 188.5t67.5 187.5t172.5 73.5q97 0 143 -64v52zM402 251q0 49 -27.5 77t-69.5 28q-43 0 -70.5 -28.5t-27.5 -77.5t28.5 -77.5t69.5 -28.5t69 29t28 78z"></glyph><glyph glyph-name="r" unicode="r" d="M388 500v-152h-41q-60 0 -89.5 -29t-29.5 -91v-228h-172v500h157v-53q48 61 126 61q25 0 49 -8z"></glyph><glyph glyph-name="s" unicode="s" d="M11 84l80 102q65 -62 138 -62q44 0 44 22q0 13 -29 25l-56 23q-77 31 -111 67t-34 94q0 73 52.5 115t141.5 42q118 0 188 -73l-81 -105q-50 43 -106 43q-35 0 -35 -19q0 -14 34 -27l50 -20q79 -31 112.5 -65.5t33.5 -91.5q0 -77 -58 -122q-59 -44 -149 -44 q-67 0 -123.5 25t-91.5 71z"></glyph><glyph glyph-name="t" unicode="t" d="M344 142l63 2v-144q-49 -12 -101 -12q-107 0 -163.5 51.5t-56.5 151.5v165h-76v144h76v120h172v-120h134v-144h-134v-148q0 -36 19.5 -51t66.5 -15z"></glyph><glyph glyph-name="u" unicode="u" d="M52 233v267h172v-281q0 -32 20.5 -52.5t52.5 -20.5q31 0 51.5 20.5t20.5 52.5v281h172v-267q0 -109 -68.5 -177t-175.5 -68t-176 68t-69 177z"></glyph><glyph glyph-name="v" unicode="v" d="M387 500h182l-256 -512h-55l-256 512h182l102 -225z"></glyph><glyph glyph-name="w" unicode="w" d="M677 500h182l-246 -512h-55l-127 239l-128 -239h-55l-246 512h182l103 -233l116 245h55l119 -238z"></glyph><glyph glyph-name="x" unicode="x" d="M553 0h-191l-86 131l-85 -131h-191l181 257l-171 243h191l75 -118l76 118h191l-171 -243z"></glyph><glyph glyph-name="y" unicode="y" d="M388 500h182l-235 -527q-39 -86 -90.5 -125.5t-127.5 -39.5q-47 0 -96 12v144q13 0 27 -0.5t21 -1t10 -0.5q38 0 60.5 12.5t37.5 46.5l8 17l-183 462h183l96 -281z"></glyph><glyph glyph-name="z" unicode="z" d="M260 144h208v-144h-458v45l210 311h-187v144h434v-45z"></glyph><glyph glyph-name="braceleft" unicode="{" d="M278 543q0 -19 9 -68l6 -37q5 -33 5 -51q0 -38 -18.5 -59t-58.5 -29q77 -13 77 -86q0 -18 -5 -51l-6 -37q-9 -49 -9 -68q0 -53 53 -53h62v-134h-92q-165 0 -165 146q0 26 11 97q9 45 9 66q0 26 -12 37.5t-39 11.5h-65v144h65q27 0 39 11.5t12 37.5q0 21 -9 66 q-11 71 -11 97q0 146 165 146h92v-134h-62q-53 0 -53 -53z"></glyph><glyph glyph-name="bar" unicode="|" d="M95 -121v901h142v-901h-142z"></glyph><glyph glyph-name="braceright" unicode="}" d="M318 372h65v-144h-65q-27 0 -39 -11.5t-12 -37.5q0 -21 9 -66q11 -71 11 -97q0 -146 -165 -146h-92v134h62q53 0 53 53q0 19 -9 68l-6 37q-5 33 -5 51q0 73 77 86q-40 8 -58.5 29t-18.5 59q0 18 5 51l6 37q9 49 9 68q0 53 -53 53h-62v134h92q165 0 165 -146 q0 -26 -11 -97q-9 -45 -9 -66q0 -26 12 -37.5t39 -11.5z"></glyph><glyph glyph-name="asciitilde" unicode="~" d="M318 224l-84 51q-35 21 -51 21q-15 0 -23 -10t-8 -25v-14h-128q-3 19 -3 38q0 72 40.5 119t96.5 47q44 0 85 -26l84 -51q35 -21 51 -21q15 0 23 10t8 25v14h128q3 -20 3 -38q0 -72 -40.5 -119t-96.5 -47q-44 0 -85 26z"></glyph><glyph glyph-name="uni00A0" unicode=" "></glyph><glyph glyph-name="exclamdown" unicode="¡" d="M75 400q0 48 32 80t82 32q48 0 79.5 -32t31.5 -80t-31.5 -80t-79.5 -32q-50 0 -82 32t-32 80zM85 -180l33 416h140l32 -416h-205z"></glyph><glyph glyph-name="cent" unicode="¢" d="M409 287l119 -90q-56 -111 -176 -130v-166h-144v178q-78 27 -128 93q-49 67 -49 153q0 87 49 152q49 67 128 94v177h144v-165q120 -19 176 -130l-119 -91q-42 67 -103 67q-45 0 -72 -29t-27 -75t27 -75t72 -29q60 0 103 66z"></glyph><glyph glyph-name="sterling" unicode="£" d="M316 144h236v-144h-520v35q70 54 100.5 94.5t31.5 86.5h-122v144h68q-28 59 -28 109q0 91 67 147t168 56q92 0 156.5 -49t88.5 -143l-141 -51q-27 85 -92 85q-34 0 -53.5 -20.5t-19.5 -54.5q0 -33 27 -79h163v-144h-111q-1 -37 -19 -72z"></glyph><glyph glyph-name="currency" unicode="¤" d="M549 210l107 -111l-102 -102l-113 118q-51 -24 -112 -24q-59 0 -110 22l-106 -116l-102 102l99 108q-34 55 -34 123q0 63 34 118l-99 103l102 102l104 -109q51 25 111 25q62 0 116 -26l110 110l102 -102l-105 -104q31 -52 31 -117q0 -64 -33 -120zM406 330 q0 36 -21.5 58.5t-55.5 22.5q-36 0 -56.5 -22.5t-20.5 -58.5q0 -37 21 -59t57 -22q33 0 54.5 22.5t21.5 58.5z"></glyph><glyph glyph-name="yen" unicode="¥" d="M627 660l-189 -276h134v-134h-171v-44h171v-134h-171v-72h-172v72h-171v134h171v44h-171v134h133l-189 276h190l123 -182l123 182h189z"></glyph><glyph glyph-name="brokenbar" unicode="¦" d="M95 480v300h142v-300h-142zM95 -121v300h142v-300h-142z"></glyph><glyph glyph-name="section" unicode="§" d="M481 65q3 -17 3 -35q0 -78 -56 -125q-56 -48 -147 -48q-74 0 -132 32.5t-83 87.5l103 84q39 -63 110 -63q48 0 48 34q0 15 -11.5 25.5t-50.5 31.5l-80 44q-86 46 -123 88.5t-37 100.5q0 53 29.5 92.5t80.5 60.5q-3 17 -3 35q0 78 56 125q56 48 147 48q74 0 132 -32.5 t83 -87.5l-103 -84q-37 63 -110 63q-48 0 -48 -34q0 -15 11.5 -25.5t50.5 -31.5l80 -44q85 -47 122.5 -89t37.5 -100q0 -53 -29.5 -92.5t-80.5 -60.5zM260 252l80 -44q45 -25 70 -44q24 21 24 46q0 19 -17 36.5t-61 41.5l-93 51q-40 24 -58 36q-23 -20 -23 -45 q0 -19 17 -36.5t61 -41.5z"></glyph><glyph glyph-name="dieresis" unicode="¨" d="M75 678q0 38 29 65.5t70 27.5q39 0 67.5 -27.5t28.5 -65.5q0 -39 -28.5 -66.5t-67.5 -27.5q-41 0 -70 27.5t-29 66.5zM330 678q0 38 29 65.5t70 27.5q39 0 67.5 -27.5t28.5 -65.5q0 -39 -28.5 -66.5t-67.5 -27.5q-41 0 -70 27.5t-29 66.5z"></glyph><glyph glyph-name="copyright" unicode="©" d="M32 329q-3 141 105.5 243t250.5 100q141 3 250 -99.5t106 -242.5q3 -140 -105.5 -242.5t-251.5 -99.5q-92 -1 -175 44t-132.5 125t-47.5 172zM639 329q2 109 -75 179t-178 68q-100 2 -175.5 -68t-73.5 -179q0 -111 73.5 -178t175.5 -67q103 0 178 67.5t75 177.5zM206 330 q0 77 53.5 129.5t132.5 52.5q93 0 152 -80l-84 -72q-30 40 -66 40q-29 0 -47 -19.5t-18 -50.5t18 -50t48 -19q35 0 65 39l84 -72q-58 -79 -153 -79q-78 0 -131.5 52t-53.5 129z"></glyph><glyph glyph-name="ordfeminine" unicode="ª" d="M334 425v-181h-115v21q-35 -29 -87 -29q-51 0 -80 29t-29 73q0 45 34 69.5t94 24.5h56v5q0 28 -40 28q-33 0 -81 -30l-47 83q60 51 143 51q72 0 112 -37t40 -107zM207 357v8h-33q-23 0 -23 -21q0 -22 23 -22q33 0 33 35z"></glyph><glyph glyph-name="guillemotleft" unicode="«" d="M229 29l-206 222v45l206 223l109 -95l-130 -150l130 -150zM524 29l-206 222v45l206 223l109 -95l-130 -150l130 -150z"></glyph><glyph glyph-name="logicalnot" unicode="¬" d="M334 108v144h-299v144h457v-288h-158z"></glyph><glyph glyph-name="uni00AD" unicode="­" d="M40 253v144h260v-144h-260z"></glyph><glyph glyph-name="registered" unicode="®" d="M550 436q2 -106 -76.5 -185t-184.5 -77q-106 -2 -185 77t-77 185q-2 106 77 184.5t185 76.5q106 2 184.5 -76.5t76.5 -184.5zM475 436q0 81 -54 136t-132 55t-132.5 -55t-54.5 -136t54.5 -136.5t132.5 -55.5t132 55.5t54 136.5zM360 399l65 -89h-85l-54 69h-23v-69h-77 v251h106q46 0 76 -24.5t30 -65.5q0 -47 -38 -72zM263 494v-48h29q27 0 27 24t-27 24h-29z"></glyph><glyph glyph-name="overscore" unicode="¯" d="M140 610v134h320v-134h-320z"></glyph><glyph glyph-name="degree" unicode="°" d="M19 514q0 64 47.5 111t114.5 47t114.5 -46.5t47.5 -111.5t-47.5 -112t-114.5 -47t-114.5 47t-47.5 112zM237 513q0 25 -15 40.5t-41 15.5q-25 0 -40.5 -15.5t-15.5 -40.5q0 -23 16 -39t40 -16q26 0 41 15.5t15 39.5z"></glyph><glyph glyph-name="plusminus" unicode="±" d="M200 189v130h-153v134h153v119h162v-119h152v-134h-152v-130h-162zM47 0v134h467v-134h-467z"></glyph><glyph glyph-name="uni00B2" unicode="²" d="M253 474h104v-110l-325 -1v25l149 164q45 50 45 85q0 39 -35 39q-34 0 -34 -41q0 -1 0.5 -4t1 -9.5t0.5 -13.5h-122q-4 15 -4 35q0 58 45 101.5t115 43.5q68 0 112 -40q46 -39 46 -100q0 -73 -91 -167z"></glyph><glyph glyph-name="uni00B3" unicode="³" d="M334 504q0 -62 -48 -105t-118 -43q-56 0 -98.5 27.5t-63.5 75.5l84 59q32 -50 73 -50q46 0 46 36q0 33 -64 33h-53v30l66 103h-117v110h288v-32l-77 -119q37 -16 59.5 -49t22.5 -76z"></glyph><glyph glyph-name="acute" unicode="´" d="M164 574l64 206h207v-30l-147 -176h-124z"></glyph><glyph glyph-name="uni00B5" unicode="µ" d="M584 142l27 1v-143q-39 -12 -86 -12q-78 0 -113 50q-38 -50 -98 -50q-52 0 -86 37v-205h-172v680h172v-281q0 -34 20 -55t52 -21q33 0 53 21t20 55v281h172v-304q0 -54 39 -54z"></glyph><glyph glyph-name="paragraph" unicode="¶" d="M27 434q0 101 72 163.5t183 62.5h57v-455h-57q-110 0 -182.5 64t-72.5 165zM258 -180v146l63 -2q47 0 66.5 15t19.5 51v630h172v-649q0 -101 -56 -152t-164 -51q-51 0 -101 12z"></glyph><glyph glyph-name="middot" unicode="·" d="M28 324q0 48 32 80t82 32q48 0 79.5 -32t31.5 -80t-31.5 -80t-79.5 -32q-50 0 -82 32t-32 80z"></glyph><glyph glyph-name="cedilla" unicode="¸" d="M176 -183v112q18 -1 63 -1q24 0 37.5 13.5t13.5 37.5v48l66 28q68 -38 68 -112q0 -59 -47 -97t-124 -38q-39 0 -77 9z"></glyph><glyph glyph-name="uni00B9" unicode="¹" d="M39 364v110h102v196h-91v110h213v-306h83v-110h-307z"></glyph><glyph glyph-name="ordmasculine" unicode="º" d="M23 403q0 71 51 118.5t124 47.5t124 -47.5t51 -118.5q0 -70 -51.5 -118.5t-123.5 -48.5t-123.5 48.5t-51.5 118.5zM245 403q0 23 -12.5 36.5t-34.5 13.5t-34.5 -13.5t-12.5 -36.5t12.5 -36.5t34.5 -13.5t34.5 13.5t12.5 36.5z"></glyph><glyph glyph-name="guillemotright" unicode="»" d="M134 29l-109 95l130 150l-130 150l109 95l206 -223v-45zM429 29l-109 95l130 150l-130 150l109 95l206 -223v-45z"></glyph><glyph glyph-name="onequarter" unicode="¼" d="M39 244v110h102v196h-91v110h213v-306h83v-110h-307zM254 0l381 660h135l-382 -660h-134zM963 158v-100h-45v-58h-112v58h-215v32l121 326h126l-97 -258h66l2 95h109v-95h45z"></glyph><glyph glyph-name="onehalf" unicode="½" d="M39 244v110h102v196h-91v110h213v-306h83v-110h-307zM254 0l381 660h135l-382 -660h-134zM860 110h104v-110l-325 -1v25l149 164q45 50 45 85q0 39 -35 39q-34 0 -34 -41q0 -1 0.5 -4t1 -9.5t0.5 -13.5h-122q-4 15 -4 35q0 58 45 101.5t115 43.5q68 0 112 -40 q46 -39 46 -100q0 -73 -91 -167z"></glyph><glyph glyph-name="threequarters" unicode="¾" d="M334 384q0 -62 -48 -105t-118 -43q-56 0 -98.5 27.5t-63.5 75.5l84 59q32 -50 73 -50q46 0 46 36q0 33 -64 33h-53v30l66 103h-117v110h288v-32l-77 -119q37 -16 59.5 -49t22.5 -76zM201 0l381 660h135l-382 -660h-134zM910 158v-100h-45v-58h-112v58h-215v32l121 326 h126l-97 -258h66l2 95h109v-95h45z"></glyph><glyph glyph-name="questiondown" unicode="¿" d="M128 400q0 48 31.5 80t79.5 32q50 0 82 -32t32 -80t-32 -80t-82 -32q-48 0 -79.5 32t-31.5 80zM27 -4q0 46 18 76.5t57 64.5q41 35 55 52t14 34v13h144q12 -29 12 -50q0 -13 -5.5 -27.5t-13.5 -25.5t-18 -22.5t-18.5 -18t-15.5 -12.5l-7 -6q-46 -38 -46 -66 q0 -18 12 -29.5t30 -11.5q19 0 33 14.5t28 47.5l140 -62q-21 -78 -75.5 -118.5t-131.5 -40.5q-91 0 -151.5 52.5t-60.5 135.5z"></glyph><glyph glyph-name="Agrave" unicode="À" d="M472 0l-24 55h-237l-24 -55h-185l300 672h55l300 -672h-185zM387 193l-57 153l-58 -153h115zM267 724l-147 156v30h207l64 -186h-124z"></glyph><glyph glyph-name="Aacute" unicode="Á" d="M472 0l-24 55h-237l-24 -55h-185l300 672h55l300 -672h-185zM387 193l-57 153l-58 -153h115zM262 724l64 186h207v-30l-147 -156h-124z"></glyph><glyph glyph-name="Acircumflex" unicode="Â" d="M472 0l-24 55h-237l-24 -55h-185l300 672h55l300 -672h-185zM387 193l-57 153l-58 -153h115zM536 724h-130l-77 64l-77 -64h-129l149 186h115z"></glyph><glyph glyph-name="Atilde" unicode="Ã" d="M472 0l-24 55h-237l-24 -55h-185l300 672h55l300 -672h-185zM387 193l-57 153l-58 -153h115zM339 735l-28 14q-30 15 -45 15q-27 0 -27 -31v-8h-128q-3 19 -3 38q0 70 40 113t95 43q35 0 77 -20l28 -14q30 -15 45 -15q27 0 27 31v8h128q3 -20 3 -38q0 -70 -40 -113 t-95 -43q-35 0 -77 20z"></glyph><glyph glyph-name="Adieresis" unicode="Ä" d="M472 0l-24 55h-237l-24 -55h-185l300 672h55l300 -672h-185zM387 193l-57 153l-58 -153h115zM95 817q0 39 29 66q29 28 68 28q41 0 69.5 -27t28.5 -67q0 -37 -29 -65t-69 -28q-38 0 -67 28q-30 28 -30 65zM370 816q0 39 29 66q29 28 68 28q41 0 69.5 -27t28.5 -67 q0 -37 -29 -65t-69 -28q-38 0 -67 28q-30 29 -30 65z"></glyph><glyph glyph-name="Aring" unicode="Å" d="M472 0l-24 55h-237l-24 -55h-185l300 672h55l300 -672h-185zM387 193l-57 153l-58 -153h115zM193 792q0 55 38 93q40 38 98 38q60 0 98.5 -37t38.5 -94q0 -56 -39 -94q-38 -38 -98 -38q-58 0 -98 38q-38 38 -38 94zM365 792q0 15 -10 25t-25 10q-16 0 -25.5 -10t-9.5 -25 q0 -16 10 -26t25 -10q14 0 24.5 10.5t10.5 25.5z"></glyph><glyph glyph-name="AE" unicode="Æ" d="M590 155h242v-155h-381l-10 55h-228l-28 -55h-185l334 660h486v-155h-287l15 -91h190v-144h-167zM383 415l-103 -222h137z"></glyph><glyph glyph-name="Ccedilla" unicode="Ç" d="M32 330q-2 142 104 243.5t253 98.5q99 0 178 -46.5t124 -130.5l-131 -89q-64 108 -172 108q-79 0 -129.5 -51t-50.5 -134q0 -81 50 -133q52 -50 130 -50q108 0 172 108l131 -89q-45 -84 -124 -130.5t-179 -46.5q-146 -2 -252.5 99t-103.5 243zM243 -183v112q18 -1 63 -1 q24 0 37.5 13.5t13.5 37.5v48l66 28q68 -38 68 -112q0 -59 -47 -97t-124 -38q-40 0 -77 9z"></glyph><glyph glyph-name="Egrave" unicode="È" d="M66 0v660h458v-155h-286v-91h204v-144h-204v-115h298v-155h-470zM226 724l-147 156v30h207l64 -186h-124z"></glyph><glyph glyph-name="Eacute" unicode="É" d="M66 0v660h458v-155h-286v-91h204v-144h-204v-115h298v-155h-470zM221 724l64 186h207v-30l-147 -156h-124z"></glyph><glyph glyph-name="Ecircumflex" unicode="Ê" d="M66 0v660h458v-155h-286v-91h204v-144h-204v-115h298v-155h-470zM495 724h-130l-77 64l-77 -64h-129l149 186h115z"></glyph><glyph glyph-name="Edieresis" unicode="Ë" d="M66 0v660h458v-155h-286v-91h204v-144h-204v-115h298v-155h-470zM54 817q0 39 29 66q29 28 68 28q41 0 69.5 -27t28.5 -67q0 -37 -29 -65t-69 -28q-38 0 -67 28q-30 28 -30 65zM329 816q0 39 29 66q29 28 68 28q41 0 69.5 -27t28.5 -67q0 -37 -29 -65t-69 -28 q-38 0 -67 28q-30 29 -30 65z"></glyph><glyph glyph-name="Igrave" unicode="Ì" d="M66 0v660h172v-660h-172zM89 724l-147 156v30h207l64 -186h-124z"></glyph><glyph glyph-name="Iacute" unicode="Í" d="M66 0v660h172v-660h-172zM84 724l64 186h207v-30l-147 -156h-124z"></glyph><glyph glyph-name="Icircumflex" unicode="Î" d="M66 0v660h172v-660h-172zM358 724h-130l-77 64l-77 -64h-129l149 186h115z"></glyph><glyph glyph-name="Idieresis" unicode="Ï" d="M66 0v660h172v-660h-172zM-83 817q0 39 30 66q28 28 67 28q41 0 69.5 -27t28.5 -67q0 -37 -29 -65t-69 -28q-38 0 -67 28q-30 28 -30 65zM192 816q0 39 29 66q29 28 68 28q41 0 69.5 -27t28.5 -67q0 -37 -29 -65t-69 -28q-38 0 -67 28q-30 29 -30 65z"></glyph><glyph glyph-name="Eth" unicode="Ð" d="M656 332q2 -145 -102.5 -239.5t-257.5 -92.5h-230v246h-76v144h76v270h230q154 2 258 -90t102 -238zM480 332q0 82 -50.5 127t-134.5 45h-57v-114h93v-144h-93v-91h57q82 0 133.5 48t51.5 129z"></glyph><glyph glyph-name="Ntilde" unicode="Ñ" d="M479 660h172v-672h-55l-358 347v-335h-172v672h55l358 -342v330zM368 735l-28 14q-30 15 -45 15q-27 0 -27 -31v-8h-128q-3 19 -3 38q0 70 40 113t95 43q35 0 77 -20l28 -14q30 -15 45 -15q27 0 27 31v8h128q3 -20 3 -38q0 -70 -40 -113t-95 -43q-35 0 -77 20z"></glyph><glyph glyph-name="Ograve" unicode="Ò" d="M32 330q-3 141 103.5 243t251.5 99q145 3 252.5 -99t104.5 -243q3 -142 -104.5 -243t-252.5 -99q-146 -2 -252 99t-103 243zM568 330q0 81 -51.5 132.5t-128.5 51.5q-80 0 -130 -51t-50 -133t50 -134q50 -50 130 -50q78 0 129 51t51 133zM325 724l-147 156v30h207 l64 -186h-124z"></glyph><glyph glyph-name="Oacute" unicode="Ó" d="M32 330q-3 141 103.5 243t251.5 99q145 3 252.5 -99t104.5 -243q3 -142 -104.5 -243t-252.5 -99q-146 -2 -252 99t-103 243zM568 330q0 81 -51.5 132.5t-128.5 51.5q-80 0 -130 -51t-50 -133t50 -134q50 -50 130 -50q78 0 129 51t51 133zM320 724l64 186h207v-30 l-147 -156h-124z"></glyph><glyph glyph-name="Ocircumflex" unicode="Ô" d="M32 330q-3 141 103.5 243t251.5 99q145 3 252.5 -99t104.5 -243q3 -142 -104.5 -243t-252.5 -99q-146 -2 -252 99t-103 243zM568 330q0 81 -51.5 132.5t-128.5 51.5q-80 0 -130 -51t-50 -133t50 -134q50 -50 130 -50q78 0 129 51t51 133zM594 724h-130l-77 64l-77 -64 h-129l149 186h115z"></glyph><glyph glyph-name="Otilde" unicode="Õ" d="M32 330q-3 141 103.5 243t251.5 99q145 3 252.5 -99t104.5 -243q3 -142 -104.5 -243t-252.5 -99q-146 -2 -252 99t-103 243zM568 330q0 81 -51.5 132.5t-128.5 51.5q-80 0 -130 -51t-50 -133t50 -134q50 -50 130 -50q78 0 129 51t51 133zM397 735l-28 14q-30 15 -45 15 q-27 0 -27 -31v-8h-128q-3 19 -3 38q0 70 40 113t95 43q35 0 77 -20l28 -14q30 -15 45 -15q27 0 27 31v8h128q3 -20 3 -38q0 -70 -40 -113t-95 -43q-35 0 -77 20z"></glyph><glyph glyph-name="Odieresis" unicode="Ö" d="M32 330q-3 141 103.5 243t251.5 99q145 3 252.5 -99t104.5 -243q3 -142 -104.5 -243t-252.5 -99q-146 -2 -252 99t-103 243zM568 330q0 81 -51.5 132.5t-128.5 51.5q-80 0 -130 -51t-50 -133t50 -134q50 -50 130 -50q78 0 129 51t51 133zM153 817q0 39 29 66q29 28 68 28 q41 0 69.5 -27t28.5 -67q0 -37 -29 -65t-69 -28q-38 0 -67 28q-30 28 -30 65zM428 816q0 39 29 66q29 28 68 28q41 0 69.5 -27t28.5 -67q0 -37 -29 -65t-69 -28q-38 0 -67 28q-30 29 -30 65z"></glyph><glyph glyph-name="multiply" unicode="×" d="M138 85l-102 102l141 141l-141 141l102 102l142 -141l141 141l102 -102l-142 -141l142 -141l-102 -102l-142 141z"></glyph><glyph glyph-name="Oslash" unicode="Ø" d="M752 593l-69 -69q61 -88 61 -194q3 -142 -104.5 -243t-252.5 -99q-103 0 -188 50l-73 -73l-102 102l68 69q-60 86 -60 194q-3 141 103.5 243t251.5 99q103 0 189 -51l74 74zM200 330q0 -41 12 -74l251 251q-33 15 -75 15q-82 0 -135 -53.5t-53 -138.5zM576 330 q0 43 -13 73l-251 -251q37 -14 76 -14q81 0 134.5 53.5t53.5 138.5z"></glyph><glyph glyph-name="Ugrave" unicode="Ù" d="M62 280v380h172v-393q0 -56 33 -88.5t87 -32.5t87 32.5t33 88.5v393h172v-380q0 -129 -83 -210.5t-209 -81.5q-128 0 -210 80.5t-82 211.5zM291 724l-147 156v30h207l64 -186h-124z"></glyph><glyph glyph-name="Uacute" unicode="Ú" d="M62 280v380h172v-393q0 -56 33 -88.5t87 -32.5t87 32.5t33 88.5v393h172v-380q0 -129 -83 -210.5t-209 -81.5q-128 0 -210 80.5t-82 211.5zM286 724l64 186h207v-30l-147 -156h-124z"></glyph><glyph glyph-name="Ucircumflex" unicode="Û" d="M62 280v380h172v-393q0 -56 33 -88.5t87 -32.5t87 32.5t33 88.5v393h172v-380q0 -129 -83 -210.5t-209 -81.5q-128 0 -210 80.5t-82 211.5zM560 724h-130l-77 64l-77 -64h-129l149 186h115z"></glyph><glyph glyph-name="Udieresis" unicode="Ü" d="M62 280v380h172v-393q0 -56 33 -88.5t87 -32.5t87 32.5t33 88.5v393h172v-380q0 -129 -83 -210.5t-209 -81.5q-128 0 -210 80.5t-82 211.5zM119 817q0 39 29 66q29 28 68 28q41 0 69.5 -27t28.5 -67q0 -37 -29 -65t-69 -28q-38 0 -67 28q-30 28 -30 65zM394 816 q0 39 29 66q29 28 68 28q41 0 69.5 -27t28.5 -67q0 -37 -29 -65t-69 -28q-38 0 -67 28q-30 29 -30 65z"></glyph><glyph glyph-name="Yacute" unicode="Ý" d="M627 660l-226 -407v-253h-172v251l-227 409h190l123 -230l123 230h189zM247 724l64 186h207v-30l-147 -156h-124z"></glyph><glyph glyph-name="Thorn" unicode="Þ" d="M66 0v660h172v-91h87q111 0 183 -62.5t72 -164.5q0 -100 -73 -164t-182 -64h-87v-114h-172zM238 264h88q36 0 57.5 21.5t21.5 56.5t-21.5 56t-57.5 21h-88v-155z"></glyph><glyph glyph-name="germandbls" unicode="ß" d="M270 44l56 121q74 -36 122 -36q39 0 39 30q0 11 -12 22q-11 9 -59 39q-53 32 -76 58.5t-23 60.5q0 27 18 70l29 67q13 29 13 63q0 68 -67 68q-84 0 -84 -105v-502h-170v510q0 120 68.5 186t192.5 66q106 0 169 -47.5t63 -124.5q0 -42 -19 -86l-32 -75q-14 -33 -14 -47 q-2 -17 13.5 -33t38.5 -30t26 -16q48 -31 69.5 -63t21.5 -81q0 -78 -53.5 -124.5t-146.5 -46.5q-106 0 -183 56z"></glyph><glyph glyph-name="agrave" unicode="à" d="M503 290v-290h-157v41q-56 -53 -144 -53q-79 0 -125.5 44.5t-46.5 110.5q0 70 52.5 109.5t143.5 39.5h105v8q0 64 -76 64q-33 0 -60.5 -14t-64.5 -47l-80 109q99 100 226 100q106 0 166.5 -57.5t60.5 -164.5zM331 183v4h-81q-46 0 -46 -38q0 -18 13.5 -28.5t37.5 -10.5 q34 0 55 20t21 53zM217 574l-147 176v30h207l64 -206h-124z"></glyph><glyph glyph-name="aacute" unicode="á" d="M503 290v-290h-157v41q-56 -53 -144 -53q-79 0 -125.5 44.5t-46.5 110.5q0 70 52.5 109.5t143.5 39.5h105v8q0 64 -76 64q-33 0 -60.5 -14t-64.5 -47l-80 109q99 100 226 100q106 0 166.5 -57.5t60.5 -164.5zM331 183v4h-81q-46 0 -46 -38q0 -18 13.5 -28.5t37.5 -10.5 q34 0 55 20t21 53zM215 574l64 206h207v-30l-147 -176h-124z"></glyph><glyph glyph-name="acircumflex" unicode="â" d="M503 290v-290h-157v41q-56 -53 -144 -53q-79 0 -125.5 44.5t-46.5 110.5q0 70 52.5 109.5t143.5 39.5h105v8q0 64 -76 64q-33 0 -60.5 -14t-64.5 -47l-80 109q99 100 226 100q106 0 166.5 -57.5t60.5 -164.5zM331 183v4h-81q-46 0 -46 -38q0 -18 13.5 -28.5t37.5 -10.5 q34 0 55 20t21 53zM469 574h-124l-67 72l-67 -72h-124l134 206h115z"></glyph><glyph glyph-name="atilde" unicode="ã" d="M503 290v-290h-157v41q-56 -53 -144 -53q-79 0 -125.5 44.5t-46.5 110.5q0 70 52.5 109.5t143.5 39.5h105v8q0 64 -76 64q-33 0 -60.5 -14t-64.5 -47l-80 109q99 100 226 100q106 0 166.5 -57.5t60.5 -164.5zM331 183v4h-81q-46 0 -46 -38q0 -18 13.5 -28.5t37.5 -10.5 q34 0 55 20t21 53zM288 587l-29 15q-26 15 -39 15q-28 0 -28 -31v-8h-128q-3 20 -3 38q0 71 38.5 113.5t93.5 42.5q37 0 74 -19l29 -15q26 -15 39 -15q28 0 28 31v8h128q3 -19 3 -38q0 -71 -38.5 -113.5t-93.5 -42.5q-37 0 -74 19z"></glyph><glyph glyph-name="adieresis" unicode="ä" d="M503 290v-290h-157v41q-56 -53 -144 -53q-79 0 -125.5 44.5t-46.5 110.5q0 70 52.5 109.5t143.5 39.5h105v8q0 64 -76 64q-33 0 -60.5 -14t-64.5 -47l-80 109q99 100 226 100q106 0 166.5 -57.5t60.5 -164.5zM331 183v4h-81q-46 0 -46 -38q0 -18 13.5 -28.5t37.5 -10.5 q34 0 55 20t21 53zM53 678q0 38 29 65.5t70 27.5q39 0 67.5 -27.5t28.5 -65.5q0 -39 -28.5 -66.5t-67.5 -27.5q-41 0 -70 27.5t-29 66.5zM308 678q0 38 29 65.5t70 27.5q39 0 67.5 -27.5t28.5 -65.5q0 -39 -28.5 -66.5t-67.5 -27.5q-41 0 -70 27.5t-29 66.5z"></glyph><glyph glyph-name="aring" unicode="å" d="M503 290v-290h-157v41q-56 -53 -144 -53q-79 0 -125.5 44.5t-46.5 110.5q0 70 52.5 109.5t143.5 39.5h105v8q0 64 -76 64q-33 0 -60.5 -14t-64.5 -47l-80 109q99 100 226 100q106 0 166.5 -57.5t60.5 -164.5zM331 183v4h-81q-46 0 -46 -38q0 -18 13.5 -28.5t37.5 -10.5 q34 0 55 20t21 53zM141 673q0 55 39 93q40 38 97 38q58 0 98 -38q39 -38 39 -93q0 -57 -39 -95q-38 -37 -98 -37q-59 0 -97.5 37.5t-38.5 94.5zM313 673q0 15 -10 25t-25 10t-25 -9.5t-10 -25.5t10 -26t25 -10t25 10.5t10 25.5z"></glyph><glyph glyph-name="ae" unicode="æ" d="M826 189h-319q29 -56 110 -56q67 0 131 39l62 -117q-88 -67 -198 -67q-129 0 -203 88q-61 -88 -191 -88q-91 0 -139.5 42.5t-48.5 111.5q0 71 52.5 111.5t143.5 40.5h105v6q0 64 -75 64q-32 0 -60 -14t-66 -47l-80 109q99 100 226 100q103 0 164 -55q64 55 158 55 q106 0 172.5 -69t66.5 -168q0 -44 -11 -86zM498 294h176q-1 38 -23.5 60.5t-58.5 22.5q-34 0 -59 -22t-35 -61zM331 183v6h-81q-46 0 -46 -39q0 -40 50 -40q34 0 55.5 20t21.5 53z"></glyph><glyph glyph-name="ccedilla" unicode="ç" d="M31 250q-2 108 79.5 186t193.5 76q76 0 134.5 -35.5t89.5 -98.5l-119 -91q-42 67 -103 67q-45 0 -72 -29t-27 -75t27 -75t72 -29q60 0 103 66l119 -90q-31 -63 -89.5 -98.5t-134.5 -35.5q-112 -2 -193.5 76t-79.5 186zM155 -183v112q18 -1 63 -1q24 0 37.5 13.5 t13.5 37.5v48l66 28q68 -38 68 -112q0 -59 -47 -97t-124 -38q-40 0 -77 9z"></glyph><glyph glyph-name="egrave" unicode="è" d="M526 190h-320q28 -57 112 -57q66 0 131 39l62 -117q-88 -67 -199 -67q-122 0 -201.5 75t-79.5 187q0 110 77.5 186t189.5 76q106 0 172.5 -69t66.5 -168q0 -43 -11 -85zM200 302h174q-1 33 -25 54t-58 21q-33 0 -57 -19.5t-34 -55.5zM237 574l-147 176v30h207l64 -206 h-124z"></glyph><glyph glyph-name="eacute" unicode="é" d="M526 190h-320q28 -57 112 -57q66 0 131 39l62 -117q-88 -67 -199 -67q-122 0 -201.5 75t-79.5 187q0 110 77.5 186t189.5 76q106 0 172.5 -69t66.5 -168q0 -43 -11 -85zM200 302h174q-1 33 -25 54t-58 21q-33 0 -57 -19.5t-34 -55.5zM235 574l64 206h207v-30l-147 -176 h-124z"></glyph><glyph glyph-name="ecircumflex" unicode="ê" d="M526 190h-320q28 -57 112 -57q66 0 131 39l62 -117q-88 -67 -199 -67q-122 0 -201.5 75t-79.5 187q0 110 77.5 186t189.5 76q106 0 172.5 -69t66.5 -168q0 -43 -11 -85zM200 302h174q-1 33 -25 54t-58 21q-33 0 -57 -19.5t-34 -55.5zM489 574h-124l-67 72l-67 -72h-124 l134 206h115z"></glyph><glyph glyph-name="edieresis" unicode="ë" d="M526 190h-320q28 -57 112 -57q66 0 131 39l62 -117q-88 -67 -199 -67q-122 0 -201.5 75t-79.5 187q0 110 77.5 186t189.5 76q106 0 172.5 -69t66.5 -168q0 -43 -11 -85zM200 302h174q-1 33 -25 54t-58 21q-33 0 -57 -19.5t-34 -55.5zM73 678q0 38 29 65.5t70 27.5 q39 0 67.5 -27.5t28.5 -65.5q0 -39 -28.5 -66.5t-67.5 -27.5q-41 0 -70 27.5t-29 66.5zM328 678q0 38 29 65.5t70 27.5q39 0 67.5 -27.5t28.5 -65.5q0 -39 -28.5 -66.5t-67.5 -27.5q-41 0 -70 27.5t-29 66.5z"></glyph><glyph glyph-name="igrave" unicode="ì" d="M56 0v500h172v-500h-172zM83 574l-117 176v30h207l34 -206h-124z"></glyph><glyph glyph-name="iacute" unicode="í" d="M56 0v500h172v-500h-172zM79 574l34 206h207v-30l-117 -176h-124z"></glyph><glyph glyph-name="icircumflex" unicode="î" d="M56 0v500h172v-500h-172zM333 574h-124l-67 72l-67 -72h-124l134 206h115z"></glyph><glyph glyph-name="idieresis" unicode="ï" d="M56 0v500h172v-500h-172zM-78 677q0 39 30 66q28 28 67 28q41 0 69.5 -27t28.5 -67q0 -37 -29 -65t-69 -28q-38 0 -67 28q-30 28 -30 65zM167 677q0 39 29 66q29 28 68 28q41 0 69.5 -27t28.5 -67q0 -37 -29 -65t-69 -28q-38 0 -67 28q-30 28 -30 65z"></glyph><glyph glyph-name="eth" unicode="ð" d="M544 230q0 -105 -73 -173.5t-181 -68.5q-113 0 -186 67t-73 167q0 92 63 155t155 69l-38 53l-128 -65l-60 121l107 54l-44 59l129 94l61 -79l157 79l60 -121l-133 -67l60 -78q65 -84 94.5 -143t29.5 -123zM371 223q0 38 -23 61t-61 23q-37 0 -60 -23t-23 -61t23 -61 t60 -23q38 0 61 23.5t23 60.5z"></glyph><glyph glyph-name="ntilde" unicode="ñ" d="M545 308v-308h-172v283q0 33 -20.5 53.5t-52.5 20.5t-52 -20.5t-20 -53.5v-283h-172v500h157v-41q56 53 141 53q87 0 139 -55.5t52 -148.5zM289 587l-29 15q-26 15 -39 15q-28 0 -28 -31v-8h-128q-3 20 -3 38q0 71 38.5 113.5t93.5 42.5q37 0 74 -19l29 -15 q26 -15 39 -15q28 0 28 31v8h128q3 -19 3 -38q0 -71 -38.5 -113.5t-93.5 -42.5q-37 0 -74 19z"></glyph><glyph glyph-name="ograve" unicode="ò" d="M31 250q-2 107 79 185.5t193 76.5q112 2 193.5 -76.5t79.5 -185.5q2 -107 -79.5 -185.5t-193.5 -76.5q-112 -2 -193 76.5t-79 185.5zM400 250q0 45 -27.5 74.5t-68.5 29.5q-43 0 -70 -29t-27 -75q0 -47 27 -75.5t70 -28.5q42 0 69 29.5t27 74.5zM243 574l-147 176v30h207 l64 -206h-124z"></glyph><glyph glyph-name="oacute" unicode="ó" d="M31 250q-2 107 79 185.5t193 76.5q112 2 193.5 -76.5t79.5 -185.5q2 -107 -79.5 -185.5t-193.5 -76.5q-112 -2 -193 76.5t-79 185.5zM400 250q0 45 -27.5 74.5t-68.5 29.5q-43 0 -70 -29t-27 -75q0 -47 27 -75.5t70 -28.5q42 0 69 29.5t27 74.5zM241 574l64 206h207v-30 l-147 -176h-124z"></glyph><glyph glyph-name="ocircumflex" unicode="ô" d="M31 250q-2 107 79 185.5t193 76.5q112 2 193.5 -76.5t79.5 -185.5q2 -107 -79.5 -185.5t-193.5 -76.5q-112 -2 -193 76.5t-79 185.5zM400 250q0 45 -27.5 74.5t-68.5 29.5q-43 0 -70 -29t-27 -75q0 -47 27 -75.5t70 -28.5q42 0 69 29.5t27 74.5zM495 574h-124l-67 72 l-67 -72h-124l134 206h115z"></glyph><glyph glyph-name="otilde" unicode="õ" d="M31 250q-2 107 79 185.5t193 76.5q112 2 193.5 -76.5t79.5 -185.5q2 -107 -79.5 -185.5t-193.5 -76.5q-112 -2 -193 76.5t-79 185.5zM400 250q0 45 -27.5 74.5t-68.5 29.5q-43 0 -70 -29t-27 -75q0 -47 27 -75.5t70 -28.5q42 0 69 29.5t27 74.5zM314 587l-29 15 q-26 15 -39 15q-28 0 -28 -31v-8h-128q-3 20 -3 38q0 71 38.5 113.5t93.5 42.5q37 0 74 -19l29 -15q26 -15 39 -15q28 0 28 31v8h128q3 -19 3 -38q0 -71 -38.5 -113.5t-93.5 -42.5q-37 0 -74 19z"></glyph><glyph glyph-name="odieresis" unicode="ö" d="M31 250q-2 107 79 185.5t193 76.5q112 2 193.5 -76.5t79.5 -185.5q2 -107 -79.5 -185.5t-193.5 -76.5q-112 -2 -193 76.5t-79 185.5zM400 250q0 45 -27.5 74.5t-68.5 29.5q-43 0 -70 -29t-27 -75q0 -47 27 -75.5t70 -28.5q42 0 69 29.5t27 74.5zM79 678q0 38 29 65.5 t70 27.5q39 0 67.5 -27.5t28.5 -65.5q0 -39 -28.5 -66.5t-67.5 -27.5q-41 0 -70 27.5t-29 66.5zM334 678q0 38 29 65.5t70 27.5q39 0 67.5 -27.5t28.5 -65.5q0 -39 -28.5 -66.5t-67.5 -27.5q-41 0 -70 27.5t-29 66.5z"></glyph><glyph glyph-name="divide" unicode="÷" d="M181 518q0 39 28.5 65.5t69.5 26.5t70 -26.5t29 -65.5t-29 -66t-70 -27t-69.5 27t-28.5 66zM36 252v144h487v-144h-487zM181 130q0 39 28.5 66t69.5 27t70 -27t29 -66t-29 -65.5t-70 -26.5t-69.5 26.5t-28.5 65.5z"></glyph><glyph glyph-name="oslash" unicode="ø" d="M588 433l-49 -49q37 -62 37 -134q2 -108 -80.5 -186t-192.5 -76q-71 0 -129 31l-54 -54l-102 102l50 50q-37 58 -37 133q0 110 79.5 186t192.5 76q71 0 129 -31l54 54zM192 250q0 -16 3 -30l142 142q-18 5 -34 5q-50 0 -80.5 -32t-30.5 -85zM415 250q0 16 -3 31 l-144 -144q20 -4 35 -4q51 0 81.5 31.5t30.5 85.5z"></glyph><glyph glyph-name="ugrave" unicode="ù" d="M52 233v267h172v-281q0 -32 20.5 -52.5t52.5 -20.5q31 0 51.5 20.5t20.5 52.5v281h172v-267q0 -109 -68.5 -177t-175.5 -68t-176 68t-69 177zM236 574l-147 176v30h207l64 -206h-124z"></glyph><glyph glyph-name="uacute" unicode="ú" d="M52 233v267h172v-281q0 -32 20.5 -52.5t52.5 -20.5q31 0 51.5 20.5t20.5 52.5v281h172v-267q0 -109 -68.5 -177t-175.5 -68t-176 68t-69 177zM234 574l64 206h207v-30l-147 -176h-124z"></glyph><glyph glyph-name="ucircumflex" unicode="û" d="M52 233v267h172v-281q0 -32 20.5 -52.5t52.5 -20.5q31 0 51.5 20.5t20.5 52.5v281h172v-267q0 -109 -68.5 -177t-175.5 -68t-176 68t-69 177zM488 574h-124l-67 72l-67 -72h-124l134 206h115z"></glyph><glyph glyph-name="udieresis" unicode="ü" d="M52 233v267h172v-281q0 -32 20.5 -52.5t52.5 -20.5q31 0 51.5 20.5t20.5 52.5v281h172v-267q0 -109 -68.5 -177t-175.5 -68t-176 68t-69 177zM72 678q0 38 29 65.5t70 27.5q39 0 67.5 -27.5t28.5 -65.5q0 -39 -28.5 -66.5t-67.5 -27.5q-41 0 -70 27.5t-29 66.5zM327 678 q0 38 29 65.5t70 27.5q39 0 67.5 -27.5t28.5 -65.5q0 -39 -28.5 -66.5t-67.5 -27.5q-41 0 -70 27.5t-29 66.5z"></glyph><glyph glyph-name="yacute" unicode="ý" d="M388 500h182l-235 -527q-39 -86 -90.5 -125.5t-127.5 -39.5q-47 0 -96 12v144q13 0 27 -0.5t21 -1t10 -0.5q38 0 60.5 12.5t37.5 46.5l8 17l-183 462h183l96 -281zM224 574l64 206h207v-30l-147 -176h-124z"></glyph><glyph glyph-name="thorn" unicode="þ" d="M596 251q0 -114 -68 -188.5t-172 -74.5q-79 0 -128 46v-214h-172v930h172v-284q47 46 128 46q105 0 172.5 -73.5t67.5 -187.5zM420 250q0 49 -27.5 77.5t-70.5 28.5q-42 0 -69.5 -28t-27.5 -77t28 -78t69 -29t69.5 28.5t28.5 77.5z"></glyph><glyph glyph-name="ydieresis" unicode="ÿ" d="M388 500h182l-235 -527q-39 -86 -90.5 -125.5t-127.5 -39.5q-47 0 -96 12v144q13 0 27 -0.5t21 -1t10 -0.5q38 0 60.5 12.5t37.5 46.5l8 17l-183 462h183l96 -281zM62 678q0 38 29 65.5t70 27.5q39 0 67.5 -27.5t28.5 -65.5q0 -39 -28.5 -66.5t-67.5 -27.5 q-41 0 -70 27.5t-29 66.5zM317 678q0 38 29 65.5t70 27.5q39 0 67.5 -27.5t28.5 -65.5q0 -39 -28.5 -66.5t-67.5 -27.5q-41 0 -70 27.5t-29 66.5z"></glyph><glyph glyph-name="Amacron" unicode="Ā" d="M472 0l-24 55h-237l-24 -55h-185l300 672h55l300 -672h-185zM387 193l-57 153l-58 -153h115zM160 745v134h340v-134h-340z"></glyph><glyph glyph-name="amacron" unicode="ā" d="M503 290v-290h-157v41q-56 -53 -144 -53q-79 0 -125.5 44.5t-46.5 110.5q0 70 52.5 109.5t143.5 39.5h105v8q0 64 -76 64q-33 0 -60.5 -14t-64.5 -47l-80 109q99 100 226 100q106 0 166.5 -57.5t60.5 -164.5zM331 183v4h-81q-46 0 -46 -38q0 -18 13.5 -28.5t37.5 -10.5 q34 0 55 20t21 53zM118 610v134h320v-134h-320z"></glyph><glyph glyph-name="Abreve" unicode="Ă" d="M472 0l-24 55h-237l-24 -55h-185l300 672h55l300 -672h-185zM387 193l-57 153l-58 -153h115zM144 901v9h133v-9q0 -28 14 -44t39 -16t39 16t14 44v9h133v-9q0 -82 -52 -134t-134 -52t-134 52t-52 134z"></glyph><glyph glyph-name="abreve" unicode="ă" d="M503 290v-290h-157v41q-56 -53 -144 -53q-79 0 -125.5 44.5t-46.5 110.5q0 70 52.5 109.5t143.5 39.5h105v8q0 64 -76 64q-33 0 -60.5 -14t-64.5 -47l-80 109q99 100 226 100q106 0 166.5 -57.5t60.5 -164.5zM331 183v4h-81q-46 0 -46 -38q0 -18 13.5 -28.5t37.5 -10.5 q34 0 55 20t21 53zM92 755v25h133v-25q0 -28 14 -44t39 -16t39 16t14 44v25h133v-25q0 -82 -52 -134t-134 -52t-134 52t-52 134z"></glyph><glyph glyph-name="Aogonek" unicode="Ą" d="M472 0l-24 55h-237l-24 -55h-185l300 672h55l300 -672h-185zM387 193l-57 153l-58 -153h115zM432 -84q0 47 37.5 83.5t115.5 66.5l72 -66l-34 -19q-30 -18 -30 -31q0 -22 29 -22q7 0 35 5v-108q-51 -17 -96 -17q-60 0 -94.5 30t-34.5 78z"></glyph><glyph glyph-name="aogonek" unicode="ą" d="M503 290v-290h-157v41q-56 -53 -144 -53q-79 0 -125.5 44.5t-46.5 110.5q0 70 52.5 109.5t143.5 39.5h105v8q0 64 -76 64q-33 0 -60.5 -14t-64.5 -47l-80 109q99 100 226 100q106 0 166.5 -57.5t60.5 -164.5zM331 183v4h-81q-46 0 -46 -38q0 -18 13.5 -28.5t37.5 -10.5 q34 0 55 20t21 53zM278 -84q0 47 37.5 83.5t115.5 66.5l72 -66l-34 -19q-30 -18 -30 -31q0 -22 29 -22q7 0 35 5v-108q-51 -17 -96 -17q-60 0 -94.5 30t-34.5 78z"></glyph><glyph glyph-name="Cacute" unicode="Ć" d="M32 330q-2 142 104 243.5t253 98.5q99 0 178 -46.5t124 -130.5l-131 -89q-64 108 -172 108q-79 0 -129.5 -51t-50.5 -134q0 -81 50 -133q52 -50 130 -50q108 0 172 108l131 -89q-45 -84 -124 -130.5t-179 -46.5q-146 -2 -252.5 99t-103.5 243zM322 724l64 186h207v-30 l-147 -156h-124z"></glyph><glyph glyph-name="cacute" unicode="ć" d="M31 250q-2 108 79.5 186t193.5 76q76 0 134.5 -35.5t89.5 -98.5l-119 -91q-42 67 -103 67q-45 0 -72 -29t-27 -75t27 -75t72 -29q60 0 103 66l119 -90q-31 -63 -89.5 -98.5t-134.5 -35.5q-112 -2 -193.5 76t-79.5 186zM239 574l64 206h207v-30l-147 -176h-124z"></glyph><glyph glyph-name="Ccircumflex" unicode="Ĉ" d="M32 330q-2 142 104 243.5t253 98.5q99 0 178 -46.5t124 -130.5l-131 -89q-64 108 -172 108q-79 0 -129.5 -51t-50.5 -134q0 -81 50 -133q52 -50 130 -50q108 0 172 108l131 -89q-45 -84 -124 -130.5t-179 -46.5q-146 -2 -252.5 99t-103.5 243zM596 724h-130l-77 64 l-77 -64h-129l149 186h115z"></glyph><glyph glyph-name="ccircumflex" unicode="ĉ" d="M31 250q-2 108 79.5 186t193.5 76q76 0 134.5 -35.5t89.5 -98.5l-119 -91q-42 67 -103 67q-45 0 -72 -29t-27 -75t27 -75t72 -29q60 0 103 66l119 -90q-31 -63 -89.5 -98.5t-134.5 -35.5q-112 -2 -193.5 76t-79.5 186zM493 574h-124l-67 72l-67 -72h-124l134 206h115z "></glyph><glyph glyph-name="Cdotaccent" unicode="Ċ" d="M32 330q-2 142 104 243.5t253 98.5q99 0 178 -46.5t124 -130.5l-131 -89q-64 108 -172 108q-79 0 -129.5 -51t-50.5 -134q0 -81 50 -133q52 -50 130 -50q108 0 172 108l131 -89q-45 -84 -124 -130.5t-179 -46.5q-146 -2 -252.5 99t-103.5 243zM284 818q0 43 30.5 72.5 t74.5 29.5t75 -29.5t31 -72.5q0 -42 -31 -71.5t-75 -29.5t-74.5 29t-30.5 72z"></glyph><glyph glyph-name="cdotaccent" unicode="ċ" d="M31 250q-2 108 79.5 186t193.5 76q76 0 134.5 -35.5t89.5 -98.5l-119 -91q-42 67 -103 67q-45 0 -72 -29t-27 -75t27 -75t72 -29q60 0 103 66l119 -90q-31 -63 -89.5 -98.5t-134.5 -35.5q-112 -2 -193.5 76t-79.5 186zM196 677q0 43 30.5 72.5t74.5 29.5t75 -29.5 t31 -72.5q0 -42 -31 -71.5t-75 -29.5t-74.5 29t-30.5 72z"></glyph><glyph glyph-name="Ccaron" unicode="Č" d="M32 330q-2 142 104 243.5t253 98.5q99 0 178 -46.5t124 -130.5l-131 -89q-64 108 -172 108q-79 0 -129.5 -51t-50.5 -134q0 -81 50 -133q52 -50 130 -50q108 0 172 108l131 -89q-45 -84 -124 -130.5t-179 -46.5q-146 -2 -252.5 99t-103.5 243zM466 910h130l-149 -186 h-115l-149 186h129l77 -64z"></glyph><glyph glyph-name="ccaron" unicode="č" d="M31 250q-2 108 79.5 186t193.5 76q76 0 134.5 -35.5t89.5 -98.5l-119 -91q-42 67 -103 67q-45 0 -72 -29t-27 -75t27 -75t72 -29q60 0 103 66l119 -90q-31 -63 -89.5 -98.5t-134.5 -35.5q-112 -2 -193.5 76t-79.5 186zM369 780h124l-133 -206h-115l-134 206h124l67 -72z "></glyph><glyph glyph-name="Dcaron" unicode="Ď" d="M66 0v660h230q154 2 258 -90t102 -238q2 -145 -102.5 -239.5t-257.5 -92.5h-230zM238 155h57q82 0 133.5 48t51.5 129q0 82 -50.5 127t-134.5 45h-57v-349zM352 910h130l-149 -186h-115l-149 186h129l77 -64z"></glyph><glyph glyph-name="dcaron" unicode="ď" d="M399 750h172v-750h-157v52q-46 -64 -143 -64q-105 0 -172.5 73.5t-67.5 187.5t68 188.5t172 74.5q79 0 128 -46v284zM402 249q0 49 -28 78t-69 29t-69.5 -28.5t-28.5 -77.5t27.5 -77.5t70.5 -28.5q42 0 69.5 28t27.5 77zM651 548v202h175l-55 -202h-120z"></glyph><glyph glyph-name="Dcroat" unicode="Đ" d="M656 332q2 -145 -102.5 -239.5t-257.5 -92.5h-230v246h-76v144h76v270h230q154 2 258 -90t102 -238zM480 332q0 82 -50.5 127t-134.5 45h-57v-114h93v-144h-93v-91h57q82 0 133.5 48t51.5 129z"></glyph><glyph glyph-name="dslash" unicode="đ" d="M647 672v-138h-76v-534h-157v52q-49 -64 -147 -64q-101 0 -168.5 67t-67.5 174t67.5 175t167.5 68q83 0 133 -50v112h-194v138h194v78h172v-78h76zM402 228q0 46 -28 73.5t-69 27.5t-69.5 -27t-28.5 -73q0 -45 28 -71.5t70 -26.5t69.5 25.5t27.5 71.5z"></glyph><glyph glyph-name="Emacron" unicode="Ē" d="M66 0v660h458v-155h-286v-91h204v-144h-204v-115h298v-155h-470zM119 745v134h340v-134h-340z"></glyph><glyph glyph-name="emacron" unicode="ē" d="M526 190h-320q28 -57 112 -57q66 0 131 39l62 -117q-88 -67 -199 -67q-122 0 -201.5 75t-79.5 187q0 110 77.5 186t189.5 76q106 0 172.5 -69t66.5 -168q0 -43 -11 -85zM200 302h174q-1 33 -25 54t-58 21q-33 0 -57 -19.5t-34 -55.5zM138 610v134h320v-134h-320z"></glyph><glyph glyph-name="Ebreve" unicode="Ĕ" d="M66 0v660h458v-155h-286v-91h204v-144h-204v-115h298v-155h-470zM103 901v9h133v-9q0 -28 14 -44t39 -16t39 16t14 44v9h133v-9q0 -82 -52 -134t-134 -52t-134 52t-52 134z"></glyph><glyph glyph-name="ebreve" unicode="ĕ" d="M526 190h-320q28 -57 112 -57q66 0 131 39l62 -117q-88 -67 -199 -67q-122 0 -201.5 75t-79.5 187q0 110 77.5 186t189.5 76q106 0 172.5 -69t66.5 -168q0 -43 -11 -85zM200 302h174q-1 33 -25 54t-58 21q-33 0 -57 -19.5t-34 -55.5zM112 755v25h133v-25q0 -28 14 -44 t39 -16t39 16t14 44v25h133v-25q0 -82 -52 -134t-134 -52t-134 52t-52 134z"></glyph><glyph glyph-name="Edotaccent" unicode="Ė" d="M66 0v660h458v-155h-286v-91h204v-144h-204v-115h298v-155h-470zM183 818q0 43 30.5 72.5t74.5 29.5t75 -29.5t31 -72.5q0 -42 -31 -71.5t-75 -29.5t-74.5 29t-30.5 72z"></glyph><glyph glyph-name="edotaccent" unicode="ė" d="M526 190h-320q28 -57 112 -57q66 0 131 39l62 -117q-88 -67 -199 -67q-122 0 -201.5 75t-79.5 187q0 110 77.5 186t189.5 76q106 0 172.5 -69t66.5 -168q0 -43 -11 -85zM200 302h174q-1 33 -25 54t-58 21q-33 0 -57 -19.5t-34 -55.5zM192 677q0 43 30.5 72.5t74.5 29.5 t75 -29.5t31 -72.5q0 -42 -31 -71.5t-75 -29.5t-74.5 29t-30.5 72z"></glyph><glyph glyph-name="Eogonek" unicode="Ę" d="M66 0v660h458v-155h-286v-91h204v-144h-204v-115h298v-155h-470zM311 -84q0 47 37.5 83.5t115.5 66.5l72 -66l-34 -19q-30 -18 -30 -31q0 -22 29 -22q7 0 35 5v-108q-51 -17 -96 -17q-60 0 -94.5 30t-34.5 78z"></glyph><glyph glyph-name="eogonek" unicode="ę" d="M526 190h-320q28 -57 112 -57q66 0 131 39l62 -117q-88 -67 -199 -67q-122 0 -201.5 75t-79.5 187q0 110 77.5 186t189.5 76q106 0 172.5 -69t66.5 -168q0 -43 -11 -85zM200 302h174q-1 33 -25 54t-58 21q-33 0 -57 -19.5t-34 -55.5zM255 -84q0 35 20 61t86 78h150 l-76 -74q-19 -19 -19 -31q0 -22 29 -22q3 0 35 5v-108q-46 -17 -96 -17q-59 0 -94 29.5t-35 78.5z"></glyph><glyph glyph-name="Ecaron" unicode="Ě" d="M66 0v660h458v-155h-286v-91h204v-144h-204v-115h298v-155h-470zM365 910h130l-149 -186h-115l-149 186h129l77 -64z"></glyph><glyph glyph-name="ecaron" unicode="ě" d="M526 190h-320q28 -57 112 -57q66 0 131 39l62 -117q-88 -67 -199 -67q-122 0 -201.5 75t-79.5 187q0 110 77.5 186t189.5 76q106 0 172.5 -69t66.5 -168q0 -43 -11 -85zM200 302h174q-1 33 -25 54t-58 21q-33 0 -57 -19.5t-34 -55.5zM365 780h124l-133 -206h-115 l-134 206h124l67 -72z"></glyph><glyph glyph-name="Gcircumflex" unicode="Ĝ" d="M32 330q-2 142 104 243t255 99q185 0 284 -147l-120 -102q-65 91 -167 91q-83 0 -131.5 -50t-48.5 -134q0 -85 51.5 -137t138.5 -52q94 0 145 59v31h-154v148h326v-208q-46 -82 -132 -133q-86 -50 -192 -50q-149 -2 -255 98.5t-104 243.5zM597 724h-130l-77 64l-77 -64 h-129l149 186h115z"></glyph><glyph glyph-name="gcircumflex" unicode="ĝ" d="M414 500h157v-439q0 -125 -71 -189t-197 -64q-145 0 -252 90l87 121q75 -57 147 -57q51 0 82.5 22.5t31.5 65.5v18q-46 -46 -131 -46q-104 0 -170.5 67.5t-66.5 178.5t67 177.5t170 66.5q100 0 146 -63v51zM402 271q0 48 -27.5 73.5t-69.5 25.5q-43 0 -70.5 -26.5 t-27.5 -73.5t28.5 -76.5t69.5 -29.5t69 29t28 78zM505 574h-124l-67 72l-67 -72h-124l134 206h115z"></glyph><glyph glyph-name="Gbreve" unicode="Ğ" d="M32 330q-2 142 104 243t255 99q185 0 284 -147l-120 -102q-65 91 -167 91q-83 0 -131.5 -50t-48.5 -134q0 -85 51.5 -137t138.5 -52q94 0 145 59v31h-154v148h326v-208q-46 -82 -132 -133q-86 -50 -192 -50q-149 -2 -255 98.5t-104 243.5zM205 901v9h133v-9q0 -28 14 -44 t39 -16t39 16t14 44v9h133v-9q0 -82 -52 -134t-134 -52t-134 52t-52 134z"></glyph><glyph glyph-name="gbreve" unicode="ğ" d="M414 500h157v-439q0 -125 -71 -189t-197 -64q-145 0 -252 90l87 121q75 -57 147 -57q51 0 82.5 22.5t31.5 65.5v18q-46 -46 -131 -46q-104 0 -170.5 67.5t-66.5 178.5t67 177.5t170 66.5q100 0 146 -63v51zM402 271q0 48 -27.5 73.5t-69.5 25.5q-43 0 -70.5 -26.5 t-27.5 -73.5t28.5 -76.5t69.5 -29.5t69 29t28 78zM128 755v25h133v-25q0 -28 14 -44t39 -16t39 16t14 44v25h133v-25q0 -82 -52 -134t-134 -52t-134 52t-52 134z"></glyph><glyph glyph-name="Gdotaccent" unicode="Ġ" d="M32 330q-2 142 104 243t255 99q185 0 284 -147l-120 -102q-65 91 -167 91q-83 0 -131.5 -50t-48.5 -134q0 -85 51.5 -137t138.5 -52q94 0 145 59v31h-154v148h326v-208q-46 -82 -132 -133q-86 -50 -192 -50q-149 -2 -255 98.5t-104 243.5zM285 818q0 43 30.5 72.5 t74.5 29.5t75 -29.5t31 -72.5q0 -42 -31 -71.5t-75 -29.5t-74.5 29t-30.5 72z"></glyph><glyph glyph-name="gdotaccent" unicode="ġ" d="M414 500h157v-439q0 -125 -71 -189t-197 -64q-145 0 -252 90l87 121q75 -57 147 -57q51 0 82.5 22.5t31.5 65.5v18q-46 -46 -131 -46q-104 0 -170.5 67.5t-66.5 178.5t67 177.5t170 66.5q100 0 146 -63v51zM402 271q0 48 -27.5 73.5t-69.5 25.5q-43 0 -70.5 -26.5 t-27.5 -73.5t28.5 -76.5t69.5 -29.5t69 29t28 78zM208 677q0 43 30.5 72.5t74.5 29.5t75 -29.5t31 -72.5q0 -42 -31 -71.5t-75 -29.5t-74.5 29t-30.5 72z"></glyph><glyph glyph-name="uni0122" unicode="Ģ" d="M32 330q-2 142 104 243t255 99q185 0 284 -147l-120 -102q-65 91 -167 91q-83 0 -131.5 -50t-48.5 -134q0 -85 51.5 -137t138.5 -52q94 0 145 59v31h-154v148h326v-208q-46 -82 -132 -133q-86 -50 -192 -50q-149 -2 -255 98.5t-104 243.5zM315 -220v176h156l-26 -176 h-130z"></glyph><glyph glyph-name="uni0123" unicode="ģ" d="M414 500h157v-439q0 -125 -71 -189t-197 -64q-145 0 -252 90l87 121q75 -57 147 -57q51 0 82.5 22.5t31.5 65.5v18q-46 -46 -131 -46q-104 0 -170.5 67.5t-66.5 178.5t67 177.5t170 66.5q100 0 146 -63v51zM402 271q0 48 -27.5 73.5t-69.5 25.5q-43 0 -70.5 -26.5 t-27.5 -73.5t28.5 -76.5t69.5 -29.5t69 29t28 78zM228 574l36 206h124v-206h-160z"></glyph><glyph glyph-name="Hcircumflex" unicode="Ĥ" d="M66 0v660h172v-241h241v241h172v-660h-172v264h-241v-264h-172zM565 724h-130l-77 64l-77 -64h-129l149 186h115z"></glyph><glyph glyph-name="hcircumflex" unicode="ĥ" d="M545 308v-308h-172v283q0 33 -20.5 53.5t-52.5 20.5t-52 -20.5t-20 -53.5v-283h-172v750h172v-285q53 47 130 47q83 0 135 -56.5t52 -147.5zM434 814h-130l-77 64l-77 -64h-129l149 186h115z"></glyph><glyph glyph-name="Hbar" unicode="Ħ" d="M78 0v420h-88v144h88v96h172v-96h241v96h172v-96h88v-144h-88v-420h-172v189h-241v-189h-172zM250 334h241v86h-241v-86z"></glyph><glyph glyph-name="hbar" unicode="ħ" d="M555 268v-268h-172v243q0 33 -20.5 53.5t-52.5 20.5t-52 -20.5t-20 -53.5v-243h-172v533h-76v139h76v78h172v-78h184v-139h-184v-108q53 47 130 47q83 0 135 -56.5t52 -147.5z"></glyph><glyph glyph-name="Itilde" unicode="Ĩ" d="M66 0v660h172v-660h-172zM161 735l-28 14q-30 15 -45 15q-27 0 -27 -31v-8h-128q-3 19 -3 38q0 70 40 113t95 43q35 0 77 -20l28 -14q30 -15 45 -15q27 0 27 31v8h128q3 -19 3 -38q0 -70 -40 -113t-95 -43q-35 0 -77 20z"></glyph><glyph glyph-name="itilde" unicode="ĩ" d="M56 0v500h172v-500h-172zM146 592l-20 13q-19 12 -29 12q-26 0 -26 -31v-8h-128q-3 20 -3 39q0 71 36.5 113t92.5 42q34 0 70 -24l20 -13q19 -12 29 -12q25 0 25 31v8h128q3 -20 3 -39q0 -71 -36 -113t-92 -42q-34 0 -70 24z"></glyph><glyph glyph-name="Imacron" unicode="Ī" d="M66 0v660h172v-660h-172zM-18 745v134h340v-134h-340z"></glyph><glyph glyph-name="imacron" unicode="ī" d="M56 0v500h172v-500h-172zM2 610v134h280v-134h-280z"></glyph><glyph glyph-name="Ibreve" unicode="Ĭ" d="M66 0v660h172v-660h-172zM-34 901v9h133v-9q0 -28 14 -44t39 -16t39 16t14 44v9h133v-9q0 -82 -52 -134t-134 -52t-134 52t-52 134z"></glyph><glyph glyph-name="ibreve" unicode="ĭ" d="M56 0v500h172v-500h-172zM-44 755v25h133v-25q0 -28 14 -44t39 -16t39 16t14 44v25h133v-25q0 -82 -52 -134t-134 -52t-134 52t-52 134z"></glyph><glyph glyph-name="Iogonek" unicode="Į" d="M66 0v660h172v-660h-172zM13 -84q0 47 37.5 83.5t115.5 66.5l72 -66l-34 -19q-30 -18 -30 -31q0 -22 29 -22q7 0 35 5v-108q-51 -17 -96 -17q-60 0 -94.5 30t-34.5 78z"></glyph><glyph glyph-name="iogonek" unicode="į" d="M56 0v500h172v-500h-172zM36 677q0 43 30.5 72.5t74.5 29.5t75 -29.5t31 -72.5q0 -42 -31 -71.5t-75 -29.5t-74.5 29t-30.5 72zM3 -84q0 47 37.5 83.5t115.5 66.5l72 -66l-34 -19q-30 -18 -30 -31q0 -22 29 -22q7 0 35 5v-108q-51 -17 -96 -17q-60 0 -94.5 30t-34.5 78z "></glyph><glyph glyph-name="Idot" unicode="İ" d="M66 0v660h172v-660h-172zM46 818q0 43 30.5 72.5t74.5 29.5t75 -29.5t31 -72.5q0 -42 -31 -71.5t-75 -29.5t-74.5 29t-30.5 72z"></glyph><glyph glyph-name="dotlessi" unicode="ı" d="M56 0v500h172v-500h-172z"></glyph><glyph glyph-name="IJ" unicode="Ĳ" d="M66 0v660h172v-660h-172zM316 0v146l63 -2q47 0 66.5 15t19.5 51v450h172v-469q0 -101 -56 -152t-164 -51q-51 0 -101 12z"></glyph><glyph glyph-name="ij" unicode="ĳ" d="M56 0v500h172v-500h-172zM36 677q0 43 30.5 72.5t74.5 29.5t75 -29.5t31 -72.5q0 -42 -31 -71.5t-75 -29.5t-74.5 29t-30.5 72zM219 -180v144q8 0 17 -0.5t14 -1t8 -0.5q44 0 63 15.5t19 50.5v472h172v-489q0 -99 -55 -151t-155 -52q-48 0 -83 12zM320 677 q0 43 30.5 72.5t74.5 29.5t75 -29.5t31 -72.5q0 -42 -31 -71.5t-75 -29.5t-74.5 29t-30.5 72z"></glyph><glyph glyph-name="Jcircumflex" unicode="Ĵ" d="M12 0v146l63 -2q47 0 66.5 15t19.5 51v450h172v-469q0 -101 -56 -152t-164 -51q-51 0 -101 12zM429 724h-130l-77 64l-77 -64h-129l149 186h115z"></glyph><glyph glyph-name="jcircumflex" unicode="ĵ" d="M-65 -180v144q8 0 17 -0.5t14 -1t8 -0.5q44 0 63 15.5t19 50.5v472h172v-489q0 -99 -55 -151t-155 -52q-49 0 -83 12zM333 574h-124l-67 72l-67 -72h-124l134 206h115z"></glyph><glyph glyph-name="uni0136" unicode="Ķ" d="M693 0h-204l-251 329v-329h-172v660h172v-299l218 299h200l-227 -314zM254 -220v176h156l-26 -176h-130z"></glyph><glyph glyph-name="uni0137" unicode="ķ" d="M595 0h-189l-178 264v-264h-172v750h172v-452l156 202h199l-172 -223zM228 -220v176h156l-26 -176h-130z"></glyph><glyph glyph-name="Lacute" unicode="Ĺ" d="M66 0v660h172v-505h273v-155h-445zM84 724l64 186h207v-30l-147 -156h-124z"></glyph><glyph glyph-name="lacute" unicode="ĺ" d="M56 0v750h172v-750h-172zM74 814l64 186h207v-30l-147 -156h-124z"></glyph><glyph glyph-name="uni013B" unicode="Ļ" d="M66 0v660h172v-505h273v-155h-445zM209 -220v176h156l-26 -176h-130z"></glyph><glyph glyph-name="uni013C" unicode="ļ" d="M56 0v750h172v-750h-172zM66 -220v176h156l-26 -176h-130z"></glyph><glyph glyph-name="Lcaron" unicode="Ľ" d="M66 0v660h172v-505h273v-155h-445zM358 518v202h175l-55 -202h-120z"></glyph><glyph glyph-name="lcaron" unicode="ľ" d="M56 0v750h172v-750h-172zM308 548v202h175l-55 -202h-120z"></glyph><glyph glyph-name="Ldot" unicode="Ŀ" d="M66 0v660h172v-505h273v-155h-445zM311 384q0 48 32 80t82 32q48 0 79.5 -32t31.5 -80t-31.5 -80t-79.5 -32q-50 0 -82 32t-32 80z"></glyph><glyph glyph-name="ldot" unicode="ŀ" d="M56 0v750h172v-750h-172zM264 324q0 48 32 80t82 32q48 0 79.5 -32t31.5 -80t-31.5 -80t-79.5 -32q-50 0 -82 32t-32 80z"></glyph><glyph glyph-name="Lslash" unicode="Ł" d="M238 155h273v-155h-445v172l-68 -31v159l68 31v329h172v-260l185 84v-159l-185 -84v-86z"></glyph><glyph glyph-name="lslash" unicode="ł" d="M316 478v-159l-76 -35v-284h-172v216l-76 -35v159l76 35v375h172v-307z"></glyph><glyph glyph-name="Nacute" unicode="Ń" d="M479 660h172v-672h-55l-358 347v-335h-172v672h55l358 -342v330zM291 724l64 186h207v-30l-147 -156h-124z"></glyph><glyph glyph-name="nacute" unicode="ń" d="M545 308v-308h-172v283q0 33 -20.5 53.5t-52.5 20.5t-52 -20.5t-20 -53.5v-283h-172v500h157v-41q56 53 141 53q87 0 139 -55.5t52 -148.5zM216 574l64 206h207v-30l-147 -176h-124z"></glyph><glyph glyph-name="uni0145" unicode="Ņ" d="M479 660h172v-672h-55l-358 347v-335h-172v672h55l358 -342v330zM283 -220v176h156l-26 -176h-130z"></glyph><glyph glyph-name="uni0146" unicode="ņ" d="M545 308v-308h-172v283q0 33 -20.5 53.5t-52.5 20.5t-52 -20.5t-20 -53.5v-283h-172v500h157v-41q56 53 141 53q87 0 139 -55.5t52 -148.5zM229 -220v176h156l-26 -176h-130z"></glyph><glyph glyph-name="Ncaron" unicode="Ň" d="M479 660h172v-672h-55l-358 347v-335h-172v672h55l358 -342v330zM435 910h130l-149 -186h-115l-149 186h129l77 -64z"></glyph><glyph glyph-name="ncaron" unicode="ň" d="M545 308v-308h-172v283q0 33 -20.5 53.5t-52.5 20.5t-52 -20.5t-20 -53.5v-283h-172v500h157v-41q56 53 141 53q87 0 139 -55.5t52 -148.5zM346 780h124l-133 -206h-115l-134 206h124l67 -72z"></glyph><glyph glyph-name="Eng" unicode="Ŋ" d="M479 660h172v-649q0 -99 -55 -151t-155 -52q-49 0 -83 12v144q8 0 17 -0.5t14 -1t8 -0.5q44 0 63 15.5t19 50.5v1l-241 272v-301h-172v672h55l358 -397v385z"></glyph><glyph glyph-name="eng" unicode="ŋ" d="M545 308v-297q0 -99 -55 -151t-155 -52q-49 0 -83 12v144q8 0 17 -0.5t14 -1t8 -0.5q44 0 63 15.5t19 50.5v255q0 33 -20.5 53.5t-52.5 20.5t-52 -20.5t-20 -53.5v-283h-172v500h157v-41q56 53 141 53q87 0 139 -55.5t52 -148.5z"></glyph><glyph glyph-name="Omacron" unicode="Ō" d="M32 330q-3 141 103.5 243t251.5 99q145 3 252.5 -99t104.5 -243q3 -142 -104.5 -243t-252.5 -99q-146 -2 -252 99t-103 243zM568 330q0 81 -51.5 132.5t-128.5 51.5q-80 0 -130 -51t-50 -133t50 -134q50 -50 130 -50q78 0 129 51t51 133zM218 745v134h340v-134h-340z"></glyph><glyph glyph-name="omacron" unicode="ō" d="M31 250q-2 107 79 185.5t193 76.5q112 2 193.5 -76.5t79.5 -185.5q2 -107 -79.5 -185.5t-193.5 -76.5q-112 -2 -193 76.5t-79 185.5zM400 250q0 45 -27.5 74.5t-68.5 29.5q-43 0 -70 -29t-27 -75q0 -47 27 -75.5t70 -28.5q42 0 69 29.5t27 74.5zM144 610v134h320v-134 h-320z"></glyph><glyph glyph-name="Obreve" unicode="Ŏ" d="M32 330q-3 141 103.5 243t251.5 99q145 3 252.5 -99t104.5 -243q3 -142 -104.5 -243t-252.5 -99q-146 -2 -252 99t-103 243zM568 330q0 81 -51.5 132.5t-128.5 51.5q-80 0 -130 -51t-50 -133t50 -134q50 -50 130 -50q78 0 129 51t51 133zM202 901v9h133v-9q0 -28 14 -44 t39 -16t39 16t14 44v9h133v-9q0 -82 -52 -134t-134 -52t-134 52t-52 134z"></glyph><glyph glyph-name="obreve" unicode="ŏ" d="M31 250q-2 107 79 185.5t193 76.5q112 2 193.5 -76.5t79.5 -185.5q2 -107 -79.5 -185.5t-193.5 -76.5q-112 -2 -193 76.5t-79 185.5zM400 250q0 45 -27.5 74.5t-68.5 29.5q-43 0 -70 -29t-27 -75q0 -47 27 -75.5t70 -28.5q42 0 69 29.5t27 74.5zM118 755v25h133v-25 q0 -28 14 -44t39 -16t39 16t14 44v25h133v-25q0 -82 -52 -134t-134 -52t-134 52t-52 134z"></glyph><glyph glyph-name="Ohungarumlaut" unicode="Ő" d="M32 330q-3 141 103.5 243t251.5 99q145 3 252.5 -99t104.5 -243q3 -142 -104.5 -243t-252.5 -99q-146 -2 -252 99t-103 243zM568 330q0 81 -51.5 132.5t-128.5 51.5q-80 0 -130 -51t-50 -133t50 -134q50 -50 130 -50q78 0 129 51t51 133zM194 724l64 186h177v-30 l-127 -156h-114zM443 724l64 186h177v-30l-127 -156h-114z"></glyph><glyph glyph-name="ohungarumlaut" unicode="ő" d="M31 250q-2 107 79 185.5t193 76.5q112 2 193.5 -76.5t79.5 -185.5q2 -107 -79.5 -185.5t-193.5 -76.5q-112 -2 -193 76.5t-79 185.5zM400 250q0 45 -27.5 74.5t-68.5 29.5q-43 0 -70 -29t-27 -75q0 -47 27 -75.5t70 -28.5q42 0 69 29.5t27 74.5zM129 574l64 206h177v-30 l-127 -176h-114zM358 574l64 206h177v-30l-127 -176h-114z"></glyph><glyph glyph-name="OE" unicode="Œ" d="M740 155h298v-155h-470v41q-74 -53 -182 -53q-148 -2 -252.5 98.5t-101.5 243.5q-2 143 102 243.5t253 98.5q108 0 181 -53v41h458v-155h-286v-91h204v-144h-204v-115zM568 329q0 82 -51 133.5t-130 51.5t-129 -51t-50 -134q0 -82 50 -132.5t129 -50.5q78 0 129.5 51 t51.5 132z"></glyph><glyph glyph-name="oe" unicode="œ" d="M875 190h-316q25 -57 108 -57q67 0 131 39l62 -117q-88 -67 -198 -67q-119 0 -189 75q-64 -75 -173 -75q-108 -2 -189.5 76t-79.5 186q-2 108 79.5 186t189.5 76q107 0 172 -74q68 74 176 74q105 0 171.5 -69t66.5 -168q0 -43 -11 -85zM554 302h169q-1 33 -25 54t-58 21 q-67 0 -86 -75zM395 250q0 46 -25 75t-67 29t-69 -29t-27 -75t27 -75t69 -29t67 29t25 75z"></glyph><glyph glyph-name="Racute" unicode="Ŕ" d="M650 0h-192l-149 205h-71v-205h-172v660h259q111 0 183 -62.5t72 -164.5q0 -124 -104 -188zM238 510v-155h88q36 0 57.5 21.5t21.5 56.5t-21.5 56t-57.5 21h-88zM198 724l64 186h207v-30l-147 -156h-124z"></glyph><glyph glyph-name="racute" unicode="ŕ" d="M388 500v-152h-41q-60 0 -89.5 -29t-29.5 -91v-228h-172v500h157v-53q48 61 126 61q25 0 49 -8zM140 574l64 206h207v-30l-147 -176h-124z"></glyph><glyph glyph-name="uni0156" unicode="Ŗ" d="M650 0h-192l-149 205h-71v-205h-172v660h259q111 0 183 -62.5t72 -164.5q0 -124 -104 -188zM238 510v-155h88q36 0 57.5 21.5t21.5 56.5t-21.5 56t-57.5 21h-88zM260 -220v176h156l-26 -176h-130z"></glyph><glyph glyph-name="uni0157" unicode="ŗ" d="M388 500v-152h-41q-60 0 -89.5 -29t-29.5 -91v-228h-172v500h157v-53q48 61 126 61q25 0 49 -8zM66 -220v176h156l-26 -176h-130z"></glyph><glyph glyph-name="Rcaron" unicode="Ř" d="M650 0h-192l-149 205h-71v-205h-172v660h259q111 0 183 -62.5t72 -164.5q0 -124 -104 -188zM238 510v-155h88q36 0 57.5 21.5t21.5 56.5t-21.5 56t-57.5 21h-88zM342 910h130l-149 -186h-115l-149 186h129l77 -64z"></glyph><glyph glyph-name="rcaron" unicode="ř" d="M388 500v-152h-41q-60 0 -89.5 -29t-29.5 -91v-228h-172v500h157v-53q48 61 126 61q25 0 49 -8zM270 780h124l-133 -206h-115l-134 206h124l67 -72z"></glyph><glyph glyph-name="Sacute" unicode="Ś" d="M23 136l116 88q32 -42 66 -63.5t81 -21.5q68 0 68 48q0 21 -13 32t-54 29l-68 30q-167 74 -167 199q0 87 64.5 141t166.5 54q160 0 226 -133l-115 -88q-25 37 -50 53.5t-59 16.5q-59 0 -59 -42q0 -18 12.5 -29.5t44.5 -24.5l76 -32q88 -37 128.5 -83.5t40.5 -115.5 q0 -94 -68.5 -150t-173.5 -56q-88 0 -157.5 39.5t-105.5 108.5zM212 724l64 186h207v-30l-147 -156h-124z"></glyph><glyph glyph-name="sacute" unicode="ś" d="M11 84l80 102q65 -62 138 -62q44 0 44 22q0 13 -29 25l-56 23q-77 31 -111 67t-34 94q0 73 52.5 115t141.5 42q118 0 188 -73l-81 -105q-50 43 -106 43q-35 0 -35 -19q0 -14 34 -27l50 -20q79 -31 112.5 -65.5t33.5 -91.5q0 -77 -58 -122q-59 -44 -149 -44 q-67 0 -123.5 25t-91.5 71zM171 574l64 206h207v-30l-147 -176h-124z"></glyph><glyph glyph-name="Scircumflex" unicode="Ŝ" d="M23 136l116 88q32 -42 66 -63.5t81 -21.5q68 0 68 48q0 21 -13 32t-54 29l-68 30q-167 74 -167 199q0 87 64.5 141t166.5 54q160 0 226 -133l-115 -88q-25 37 -50 53.5t-59 16.5q-59 0 -59 -42q0 -18 12.5 -29.5t44.5 -24.5l76 -32q88 -37 128.5 -83.5t40.5 -115.5 q0 -94 -68.5 -150t-173.5 -56q-88 0 -157.5 39.5t-105.5 108.5zM486 724h-130l-77 64l-77 -64h-129l149 186h115z"></glyph><glyph glyph-name="scircumflex" unicode="ŝ" d="M11 84l80 102q65 -62 138 -62q44 0 44 22q0 13 -29 25l-56 23q-77 31 -111 67t-34 94q0 73 52.5 115t141.5 42q118 0 188 -73l-81 -105q-50 43 -106 43q-35 0 -35 -19q0 -14 34 -27l50 -20q79 -31 112.5 -65.5t33.5 -91.5q0 -77 -58 -122q-59 -44 -149 -44 q-67 0 -123.5 25t-91.5 71zM425 574h-124l-67 72l-67 -72h-124l134 206h115z"></glyph><glyph glyph-name="Scedilla" unicode="Ş" d="M23 136l116 88q32 -42 66 -63.5t81 -21.5q68 0 68 48q0 21 -13 32t-54 29l-68 30q-167 74 -167 199q0 87 64.5 141t166.5 54q160 0 226 -133l-115 -88q-25 37 -50 53.5t-59 16.5q-59 0 -59 -42q0 -18 12.5 -29.5t44.5 -24.5l76 -32q88 -37 128.5 -83.5t40.5 -115.5 q0 -94 -68.5 -150t-173.5 -56q-88 0 -157.5 39.5t-105.5 108.5zM133 -183v112q18 -1 63 -1q24 0 37.5 13.5t13.5 37.5v48l66 28q68 -38 68 -112q0 -59 -47 -97t-124 -38q-40 0 -77 9z"></glyph><glyph glyph-name="scedilla" unicode="ş" d="M11 84l80 102q65 -62 138 -62q44 0 44 22q0 13 -29 25l-56 23q-77 31 -111 67t-34 94q0 73 52.5 115t141.5 42q118 0 188 -73l-81 -105q-50 43 -106 43q-35 0 -35 -19q0 -14 34 -27l50 -20q79 -31 112.5 -65.5t33.5 -91.5q0 -77 -58 -122q-59 -44 -149 -44 q-67 0 -123.5 25t-91.5 71zM91 -183v112q18 -1 63 -1q24 0 37.5 13.5t13.5 37.5v48l66 28q68 -38 68 -112q0 -59 -47 -97t-124 -38q-40 0 -77 9z"></glyph><glyph glyph-name="Scaron" unicode="Š" d="M23 136l116 88q32 -42 66 -63.5t81 -21.5q68 0 68 48q0 21 -13 32t-54 29l-68 30q-167 74 -167 199q0 87 64.5 141t166.5 54q160 0 226 -133l-115 -88q-25 37 -50 53.5t-59 16.5q-59 0 -59 -42q0 -18 12.5 -29.5t44.5 -24.5l76 -32q88 -37 128.5 -83.5t40.5 -115.5 q0 -94 -68.5 -150t-173.5 -56q-88 0 -157.5 39.5t-105.5 108.5zM356 910h130l-149 -186h-115l-149 186h129l77 -64z"></glyph><glyph glyph-name="scaron" unicode="š" d="M11 84l80 102q65 -62 138 -62q44 0 44 22q0 13 -29 25l-56 23q-77 31 -111 67t-34 94q0 73 52.5 115t141.5 42q118 0 188 -73l-81 -105q-50 43 -106 43q-35 0 -35 -19q0 -14 34 -27l50 -20q79 -31 112.5 -65.5t33.5 -91.5q0 -77 -58 -122q-59 -44 -149 -44 q-67 0 -123.5 25t-91.5 71zM301 780h124l-133 -206h-115l-134 206h124l67 -72z"></glyph><glyph glyph-name="uni0162" unicode="Ţ" d="M208 0v505h-198v155h568v-155h-198v-505h-172zM147 -183v112q18 -1 63 -1q24 0 37.5 13.5t13.5 37.5v48l66 28q68 -38 68 -112q0 -59 -47 -97t-124 -38q-40 0 -77 9z"></glyph><glyph glyph-name="uni0163" unicode="ţ" d="M344 142l63 2v-144q-49 -12 -101 -12q-107 0 -163.5 51.5t-56.5 151.5v165h-76v144h76v120h172v-120h134v-144h-134v-148q0 -36 19.5 -51t66.5 -15zM87 -183v112q18 -1 63 -1q24 0 37.5 13.5t13.5 37.5v48l66 28q68 -38 68 -112q0 -59 -47 -97t-124 -38q-40 0 -77 9z"></glyph><glyph glyph-name="Tcaron" unicode="Ť" d="M208 0v505h-198v155h568v-155h-198v-505h-172zM370 910h130l-149 -186h-115l-149 186h129l77 -64z"></glyph><glyph glyph-name="tcaron" unicode="ť" d="M344 142l63 2v-144q-49 -12 -101 -12q-107 0 -163.5 51.5t-56.5 151.5v165h-76v144h76v120h172v-120h134v-144h-134v-148q0 -36 19.5 -51t66.5 -15zM338 548v202h175l-55 -202h-120z"></glyph><glyph glyph-name="Tbar" unicode="Ŧ" d="M208 0v206h-164v144h164v155h-198v155h568v-155h-198v-155h164v-144h-164v-206h-172z"></glyph><glyph glyph-name="tbar" unicode="ŧ" d="M354 142l63 2v-144q-49 -12 -101 -12q-105 0 -161.5 49.5t-58.5 145.5h-76v134h76v49h-76v134h76v120h172v-120h134v-134h-134v-49h134v-134h-131q11 -41 83 -41z"></glyph><glyph glyph-name="Utilde" unicode="Ũ" d="M62 280v380h172v-393q0 -56 33 -88.5t87 -32.5t87 32.5t33 88.5v393h172v-380q0 -129 -83 -210.5t-209 -81.5q-128 0 -210 80.5t-82 211.5zM363 735l-28 14q-30 15 -45 15q-27 0 -27 -31v-8h-128q-3 19 -3 38q0 70 40 113t95 43q35 0 77 -20l28 -14q30 -15 45 -15 q27 0 27 31v8h128q3 -20 3 -38q0 -70 -40 -113t-95 -43q-35 0 -77 20z"></glyph><glyph glyph-name="utilde" unicode="ũ" d="M52 233v267h172v-281q0 -32 20.5 -52.5t52.5 -20.5q31 0 51.5 20.5t20.5 52.5v281h172v-267q0 -109 -68.5 -177t-175.5 -68t-176 68t-69 177zM307 587l-29 15q-26 15 -39 15q-28 0 -28 -31v-8h-128q-3 20 -3 38q0 71 38.5 113.5t93.5 42.5q37 0 74 -19l29 -15 q26 -15 39 -15q28 0 28 31v8h128q3 -19 3 -38q0 -71 -38.5 -113.5t-93.5 -42.5q-37 0 -74 19z"></glyph><glyph glyph-name="Umacron" unicode="Ū" d="M62 280v380h172v-393q0 -56 33 -88.5t87 -32.5t87 32.5t33 88.5v393h172v-380q0 -129 -83 -210.5t-209 -81.5q-128 0 -210 80.5t-82 211.5zM184 745v134h340v-134h-340z"></glyph><glyph glyph-name="umacron" unicode="ū" d="M52 233v267h172v-281q0 -32 20.5 -52.5t52.5 -20.5q31 0 51.5 20.5t20.5 52.5v281h172v-267q0 -109 -68.5 -177t-175.5 -68t-176 68t-69 177zM137 610v134h320v-134h-320z"></glyph><glyph glyph-name="Ubreve" unicode="Ŭ" d="M62 280v380h172v-393q0 -56 33 -88.5t87 -32.5t87 32.5t33 88.5v393h172v-380q0 -129 -83 -210.5t-209 -81.5q-128 0 -210 80.5t-82 211.5zM168 901v9h133v-9q0 -28 14 -44t39 -16t39 16t14 44v9h133v-9q0 -82 -52 -134t-134 -52t-134 52t-52 134z"></glyph><glyph glyph-name="ubreve" unicode="ŭ" d="M52 233v267h172v-281q0 -32 20.5 -52.5t52.5 -20.5q31 0 51.5 20.5t20.5 52.5v281h172v-267q0 -109 -68.5 -177t-175.5 -68t-176 68t-69 177zM111 755v25h133v-25q0 -28 14 -44t39 -16t39 16t14 44v25h133v-25q0 -82 -52 -134t-134 -52t-134 52t-52 134z"></glyph><glyph glyph-name="Uring" unicode="Ů" d="M62 280v380h172v-393q0 -56 33 -88.5t87 -32.5t87 32.5t33 88.5v393h172v-380q0 -129 -83 -210.5t-209 -81.5q-128 0 -210 80.5t-82 211.5zM217 792q0 55 38 93q40 38 98 38q60 0 98.5 -37t38.5 -94q0 -56 -39 -94q-38 -38 -98 -38q-58 0 -98 38q-38 38 -38 94zM389 792 q0 15 -10 25t-25 10q-16 0 -25.5 -10t-9.5 -25q0 -16 10 -26t25 -10q14 0 24.5 10.5t10.5 25.5z"></glyph><glyph glyph-name="uring" unicode="ů" d="M52 233v267h172v-281q0 -32 20.5 -52.5t52.5 -20.5q31 0 51.5 20.5t20.5 52.5v281h172v-267q0 -109 -68.5 -177t-175.5 -68t-176 68t-69 177zM160 673q0 55 39 93q40 38 97 38q58 0 98 -38q39 -38 39 -93q0 -57 -39 -95q-38 -37 -98 -37q-59 0 -97.5 37.5t-38.5 94.5z M332 673q0 15 -10 25t-25 10t-25 -9.5t-10 -25.5t10 -26t25 -10t25 10.5t10 25.5z"></glyph><glyph glyph-name="Uhungarumlaut" unicode="Ű" d="M62 280v380h172v-393q0 -56 33 -88.5t87 -32.5t87 32.5t33 88.5v393h172v-380q0 -129 -83 -210.5t-209 -81.5q-128 0 -210 80.5t-82 211.5zM160 724l64 186h177v-30l-127 -156h-114zM409 724l64 186h177v-30l-127 -156h-114z"></glyph><glyph glyph-name="uhungarumlaut" unicode="ű" d="M52 233v267h172v-281q0 -32 20.5 -52.5t52.5 -20.5q31 0 51.5 20.5t20.5 52.5v281h172v-267q0 -109 -68.5 -177t-175.5 -68t-176 68t-69 177zM122 574l64 206h177v-30l-127 -176h-114zM351 574l64 206h177v-30l-127 -176h-114z"></glyph><glyph glyph-name="Uogonek" unicode="Ų" d="M62 280v380h172v-393q0 -56 33 -88.5t87 -32.5t87 32.5t33 88.5v393h172v-380q0 -129 -83 -210.5t-209 -81.5q-128 0 -210 80.5t-82 211.5zM292 -84q0 35 20 61t86 78h150l-76 -74q-19 -19 -19 -31q0 -22 29 -22q3 0 35 5v-108q-46 -17 -96 -17q-59 0 -94 29.5t-35 78.5z "></glyph><glyph glyph-name="uogonek" unicode="ų" d="M389 -44q0 -28 29 -28q7 0 35 5v-108q-51 -17 -99 -17q-60 0 -92.5 26t-32.5 73q0 48 35 83q-95 11 -154 76q-58 65 -58 167v267h172v-281q0 -32 20.5 -52.5t52.5 -20.5q31 0 51.5 20.5t20.5 52.5v281h172v-267q-3 -80 -26 -120.5t-104 -117.5q-22 -19 -22 -39z"></glyph><glyph glyph-name="Wcircumflex" unicode="Ŵ" d="M811 660h192l-272 -672h-55l-168 345l-169 -345h-55l-272 672h192l124 -317l152 329h55l152 -329zM714 724h-130l-77 64l-77 -64h-129l149 186h115z"></glyph><glyph glyph-name="wcircumflex" unicode="ŵ" d="M677 500h182l-246 -512h-55l-127 239l-128 -239h-55l-246 512h182l103 -233l116 245h55l119 -238zM622 574h-124l-67 72l-67 -72h-124l134 206h115z"></glyph><glyph glyph-name="Ycircumflex" unicode="Ŷ" d="M627 660l-226 -407v-253h-172v251l-227 409h190l123 -230l123 230h189zM521 724h-130l-77 64l-77 -64h-129l149 186h115z"></glyph><glyph glyph-name="ycircumflex" unicode="ŷ" d="M388 500h182l-235 -527q-39 -86 -90.5 -125.5t-127.5 -39.5q-47 0 -96 12v144q13 0 27 -0.5t21 -1t10 -0.5q38 0 60.5 12.5t37.5 46.5l8 17l-183 462h183l96 -281zM478 574h-124l-67 72l-67 -72h-124l134 206h115z"></glyph><glyph glyph-name="Ydieresis" unicode="Ÿ" d="M627 660l-226 -407v-253h-172v251l-227 409h190l123 -230l123 230h189zM80 817q0 39 29 66q29 28 68 28q41 0 69.5 -27t28.5 -67q0 -37 -29 -65t-69 -28q-38 0 -67 28q-30 28 -30 65zM355 816q0 39 29 66q29 28 68 28q41 0 69.5 -27t28.5 -67q0 -37 -29 -65t-69 -28 q-38 0 -67 28q-30 29 -30 65z"></glyph><glyph glyph-name="Zacute" unicode="Ź" d="M273 155h291v-155h-552v45l289 460h-246v155h508v-45zM231 724l64 186h207v-30l-147 -156h-124z"></glyph><glyph glyph-name="zacute" unicode="ź" d="M260 144h208v-144h-458v45l210 311h-187v144h434v-45zM176 574l64 206h207v-30l-147 -176h-124z"></glyph><glyph glyph-name="Zdotaccent" unicode="Ż" d="M273 155h291v-155h-552v45l289 460h-246v155h508v-45zM193 818q0 43 30.5 72.5t74.5 29.5t75 -29.5t31 -72.5q0 -42 -31 -71.5t-75 -29.5t-74.5 29t-30.5 72z"></glyph><glyph glyph-name="zdotaccent" unicode="ż" d="M260 144h208v-144h-458v45l210 311h-187v144h434v-45zM133 677q0 43 30.5 72.5t74.5 29.5t75 -29.5t31 -72.5q0 -42 -31 -71.5t-75 -29.5t-74.5 29t-30.5 72z"></glyph><glyph glyph-name="Zcaron" unicode="Ž" d="M273 155h291v-155h-552v45l289 460h-246v155h508v-45zM375 910h130l-149 -186h-115l-149 186h129l77 -64z"></glyph><glyph glyph-name="zcaron" unicode="ž" d="M260 144h208v-144h-458v45l210 311h-187v144h434v-45zM306 780h124l-133 -206h-115l-134 206h124l67 -72z"></glyph><glyph glyph-name="uni018F" unicode="Ə" d="M702 331q3 -142 -102.5 -243.5t-248.5 -99.5q-138 0 -228.5 87.5t-90.5 220.5q0 60 11 96h477q-15 58 -59 90.5t-108 32.5q-97 0 -168 -96l-116 100q105 153 283 153q148 2 250 -98t100 -243zM516 257h-318q5 -54 50 -83q46 -28 105 -28q58 0 101 29.5t62 81.5z"></glyph><glyph glyph-name="florin" unicode="ƒ" d="M464 660v-144l-46 2q-75 0 -82 -66l-5 -42h84v-144h-101l-24 -196q-12 -100 -67 -151.5t-149 -51.5q-48 0 -81 12l-1 144l46 -2q75 0 82 66l22 179h-80v144h97l7 59q12 100 67 151.5t149 51.5q49 0 82 -12z"></glyph><glyph glyph-name="uni01D4" unicode="ǔ" d="M52 233v267h172v-281q0 -32 20.5 -52.5t52.5 -20.5q31 0 51.5 20.5t20.5 52.5v281h172v-267q0 -109 -68.5 -177t-175.5 -68t-176 68t-69 177zM364 780h124l-133 -206h-115l-134 206h124l67 -72z"></glyph><glyph glyph-name="AEacute" unicode="Ǽ" d="M590 155h242v-155h-381l-10 55h-228l-28 -55h-185l334 660h486v-155h-287l15 -91h190v-144h-167zM383 415l-103 -222h137zM355 724l64 186h207v-30l-147 -156h-124z"></glyph><glyph glyph-name="aeacute" unicode="ǽ" d="M826 189h-319q29 -56 110 -56q67 0 131 39l62 -117q-88 -67 -198 -67q-129 0 -203 88q-61 -88 -191 -88q-91 0 -139.5 42.5t-48.5 111.5q0 71 52.5 111.5t143.5 40.5h105v6q0 64 -75 64q-32 0 -60 -14t-66 -47l-80 109q99 100 226 100q103 0 164 -55q64 55 158 55 q106 0 172.5 -69t66.5 -168q0 -44 -11 -86zM498 294h176q-1 38 -23.5 60.5t-58.5 22.5q-34 0 -59 -22t-35 -61zM331 183v6h-81q-46 0 -46 -39q0 -40 50 -40q34 0 55.5 20t21.5 53zM373 574l64 206h207v-30l-147 -176h-124z"></glyph><glyph glyph-name="Oslashacute" unicode="Ǿ" d="M752 593l-69 -69q61 -88 61 -194q3 -142 -104.5 -243t-252.5 -99q-103 0 -188 50l-73 -73l-102 102l68 69q-60 86 -60 194q-3 141 103.5 243t251.5 99q103 0 189 -51l74 74zM200 330q0 -41 12 -74l251 251q-33 15 -75 15q-82 0 -135 -53.5t-53 -138.5zM576 330 q0 43 -13 73l-251 -251q37 -14 76 -14q81 0 134.5 53.5t53.5 138.5zM320 724l64 186h207v-30l-147 -156h-124z"></glyph><glyph glyph-name="oslashacute" unicode="ǿ" d="M588 433l-49 -49q37 -62 37 -134q2 -108 -80.5 -186t-192.5 -76q-71 0 -129 31l-54 -54l-102 102l50 50q-37 58 -37 133q0 110 79.5 186t192.5 76q71 0 129 -31l54 54zM192 250q0 -16 3 -30l142 142q-18 5 -34 5q-50 0 -80.5 -32t-30.5 -85zM415 250q0 16 -3 31 l-144 -144q20 -4 35 -4q51 0 81.5 31.5t30.5 85.5zM241 574l64 206h207v-30l-147 -176h-124z"></glyph><glyph glyph-name="uni0218" unicode="Ș" d="M23 136l116 88q32 -42 66 -63.5t81 -21.5q68 0 68 48q0 21 -13 32t-54 29l-68 30q-167 74 -167 199q0 87 64.5 141t166.5 54q160 0 226 -133l-115 -88q-25 37 -50 53.5t-59 16.5q-59 0 -59 -42q0 -18 12.5 -29.5t44.5 -24.5l76 -32q88 -37 128.5 -83.5t40.5 -115.5 q0 -94 -68.5 -150t-173.5 -56q-88 0 -157.5 39.5t-105.5 108.5zM204 -220v176h156l-26 -176h-130z"></glyph><glyph glyph-name="uni0219" unicode="ș" d="M11 84l80 102q65 -62 138 -62q44 0 44 22q0 13 -29 25l-56 23q-77 31 -111 67t-34 94q0 73 52.5 115t141.5 42q118 0 188 -73l-81 -105q-50 43 -106 43q-35 0 -35 -19q0 -14 34 -27l50 -20q79 -31 112.5 -65.5t33.5 -91.5q0 -77 -58 -122q-59 -44 -149 -44 q-67 0 -123.5 25t-91.5 71zM162 -220v176h156l-26 -176h-130z"></glyph><glyph glyph-name="uni021A" unicode="Ț" d="M208 0v505h-198v155h568v-155h-198v-505h-172zM218 -220v176h156l-26 -176h-130z"></glyph><glyph glyph-name="uni021B" unicode="ț" d="M344 142l63 2v-144q-49 -12 -101 -12q-107 0 -163.5 51.5t-56.5 151.5v165h-76v144h76v120h172v-120h134v-144h-134v-148q0 -36 19.5 -51t66.5 -15zM158 -220v176h156l-26 -176h-130z"></glyph><glyph glyph-name="uni0237" unicode="ȷ" d="M-65 -180v144q8 0 17 -0.5t14 -1t8 -0.5q44 0 63 15.5t19 50.5v472h172v-489q0 -99 -55 -151t-155 -52q-49 0 -83 12z"></glyph><glyph glyph-name="uni0259" unicode="ə" d="M537 250q0 -110 -77.5 -186t-189.5 -76q-106 0 -172.5 69t-66.5 168q0 43 11 85h320q-28 57 -112 57q-66 0 -131 -39l-62 117q88 67 199 67q122 0 201.5 -75t79.5 -187zM368 198h-174q1 -33 25 -54t58 -21q33 0 57 19.5t34 55.5z"></glyph><glyph glyph-name="circumflex" unicode="ˆ" d="M491 574h-124l-67 72l-67 -72h-124l134 206h115z"></glyph><glyph glyph-name="caron" unicode="ˇ" d="M367 780h124l-133 -206h-115l-134 206h124l67 -72z"></glyph><glyph glyph-name="breve" unicode="˘" d="M114 755v25h133v-25q0 -28 14 -44t39 -16t39 16t14 44v25h133v-25q0 -82 -52 -134t-134 -52t-134 52t-52 134z"></glyph><glyph glyph-name="dotaccent" unicode="˙" d="M194 677q0 43 30.5 72.5t74.5 29.5t75 -29.5t31 -72.5q0 -42 -31 -71.5t-75 -29.5t-74.5 29t-30.5 72z"></glyph><glyph glyph-name="ring" unicode="˚" d="M163 673q0 55 39 93q40 38 97 38q58 0 98 -38q39 -38 39 -93q0 -57 -39 -95q-38 -37 -98 -37q-59 0 -97.5 37.5t-38.5 94.5zM335 673q0 15 -10 25t-25 10t-25 -9.5t-10 -25.5t10 -26t25 -10t25 10.5t10 25.5z"></glyph><glyph glyph-name="ogonek" unicode="˛" d="M187 -84q0 47 37.5 83.5t115.5 66.5l72 -66l-34 -19q-30 -18 -30 -31q0 -22 29 -22q7 0 35 5v-108q-51 -17 -96 -17q-60 0 -94.5 30t-34.5 78z"></glyph><glyph glyph-name="tilde" unicode="˜" d="M310 587l-29 15q-26 15 -39 15q-28 0 -28 -31v-8h-128q-3 20 -3 38q0 71 38.5 113.5t93.5 42.5q37 0 74 -19l29 -15q26 -15 39 -15q28 0 28 31v8h128q3 -19 3 -38q0 -71 -38.5 -113.5t-93.5 -42.5q-37 0 -74 19z"></glyph><glyph glyph-name="hungarumlaut" unicode="˝" d="M65 574l64 206h177v-30l-127 -176h-114zM294 574l64 206h177v-30l-127 -176h-114z"></glyph><glyph glyph-name="gravecomb" unicode="̀" d="M-239 574l-147 176v30h207l64 -206h-124z"></glyph><glyph glyph-name="acutecomb" unicode="́" d="M-386 574l64 206h207v-30l-147 -176h-124z"></glyph><glyph glyph-name="uni0302" unicode="̂" d="M-59 574h-124l-67 72l-67 -72h-124l134 206h115z"></glyph><glyph glyph-name="tildecomb" unicode="̃" d="M-240 587l-29 15q-26 15 -39 15q-28 0 -28 -31v-8h-128q-3 19 -3 38q0 71 38.5 113.5t93.5 42.5q37 0 74 -19l29 -15q26 -15 39 -15q28 0 28 31v8h128q3 -20 3 -38q0 -71 -38.5 -113.5t-93.5 -42.5q-37 0 -74 19z"></glyph><glyph glyph-name="uni0304" unicode="̄" d="M-410 610v134h320v-134h-320z"></glyph><glyph glyph-name="uni0306" unicode="̆" d="M-436 755v25h133v-25q0 -28 14 -44t39 -16t39 16t14 44v25h133v-25q0 -82 -52 -134t-134 -52t-134 52t-52 134z"></glyph><glyph glyph-name="uni0307" unicode="̇" d="M-356 677q0 43 30.5 72.5t74.5 29.5t75 -29.5t31 -72.5q0 -42 -31 -71.5t-75 -29.5t-74.5 29t-30.5 72z"></glyph><glyph glyph-name="uni0308" unicode="̈" d="M-475 678q0 38 29 65.5t70 27.5q39 0 67.5 -27.5t28.5 -65.5q0 -39 -28.5 -66.5t-67.5 -27.5q-41 0 -70 27.5t-29 66.5zM-220 678q0 38 29 65.5t70 27.5q39 0 67.5 -27.5t28.5 -65.5q0 -39 -28.5 -66.5t-67.5 -27.5q-41 0 -70 27.5t-29 66.5z"></glyph><glyph glyph-name="uni030A" unicode="̊" d="M-387 673q0 55 39 93q40 38 97 38q58 0 98 -38q39 -38 39 -93q0 -57 -39 -95q-38 -37 -98 -37q-59 0 -97.5 37.5t-38.5 94.5zM-215 673q0 15 -10 25t-25 10t-25 -9.5t-10 -25.5t10 -26t25 -10t25 10.5t10 25.5z"></glyph><glyph glyph-name="uni030B" unicode="̋" d="M-485 574l64 206h177v-30l-127 -176h-114zM-256 574l64 206h177v-30l-127 -176h-114z"></glyph><glyph glyph-name="uni030C" unicode="̌" d="M-183 780h124l-133 -206h-115l-134 206h124l67 -72z"></glyph><glyph glyph-name="uni0326" unicode="̦" d="M-328 -220v176h156l-26 -176h-130z"></glyph><glyph glyph-name="uni0327" unicode="̧" d="M-374 -183v112q18 -1 63 -1q24 0 37.5 13.5t13.5 37.5v48l66 28q68 -38 68 -112q0 -59 -47 -97t-124 -38q-39 0 -77 9z"></glyph><glyph glyph-name="uni0328" unicode="̨" d="M-363 -84q0 47 37.5 83.5t115.5 66.5l72 -66l-34 -19q-30 -18 -30 -31q0 -22 29 -22q7 0 35 5v-108q-51 -17 -96 -17q-60 0 -94.5 30t-34.5 78z"></glyph><glyph glyph-name="tonos" unicode="΄" d="M128 574l40 206h204v-30l-119 -176h-125z"></glyph><glyph glyph-name="dieresistonos" unicode="΅" d="M143 574l40 206h194v-30l-119 -176h-115zM-61 677q0 38 29 66t66 28q40 0 68 -27t28 -67q0 -37 -28.5 -65t-67.5 -28q-37 0 -65 28q-30 28 -30 65zM370 677q0 38 29 66t66 28q40 0 68 -27t28 -67q0 -37 -28.5 -65t-67.5 -28q-37 0 -66 28q-29 29 -29 65z"></glyph><glyph glyph-name="Alphatonos" unicode="Ά" d="M472 0l-24 55h-237l-24 -55h-185l300 672h55l300 -672h-185zM387 193l-57 153l-58 -153h115zM-37 458v202h175l-55 -202h-120z"></glyph><glyph glyph-name="anoteleia" unicode="·" d="M28 324q0 48 32 80t82 32q48 0 79.5 -32t31.5 -80t-31.5 -80t-79.5 -32q-50 0 -82 32t-32 80z"></glyph><glyph glyph-name="Epsilontonos" unicode="Έ" d="M66 0v660h458v-155h-286v-91h204v-144h-204v-115h298v-155h-470zM-175 458v202h175l-55 -202h-120z"></glyph><glyph glyph-name="Etatonos" unicode="Ή" d="M66 0v660h172v-241h241v241h172v-660h-172v264h-241v-264h-172zM-175 458v202h175l-55 -202h-120z"></glyph><glyph glyph-name="Iotatonos" unicode="Ί" d="M66 0v660h172v-660h-172zM-175 458v202h175l-55 -202h-120z"></glyph><glyph glyph-name="Omicrontonos" unicode="Ό" d="M32 330q-3 141 103.5 243t251.5 99q145 3 252.5 -99t104.5 -243q3 -142 -104.5 -243t-252.5 -99q-146 -2 -252 99t-103 243zM568 330q0 81 -51.5 132.5t-128.5 51.5q-80 0 -130 -51t-50 -133t50 -134q50 -50 130 -50q78 0 129 51t51 133zM-145 458v202h175l-55 -202h-120 z"></glyph><glyph glyph-name="Upsilontonos" unicode="Ύ" d="M627 660l-226 -407v-253h-172v251l-227 409h190l123 -230l123 230h189zM-196 458v202h175l-55 -202h-120z"></glyph><glyph glyph-name="Omegatonos" unicode="Ώ" d="M659 155h80v-155h-294v155q128 62 128 185q0 77 -51 125.5t-131 48.5t-129 -47.5t-49 -124.5q0 -126 128 -187v-155h-294v155h73q-83 80 -83 194q-3 132 103.5 228.5t251.5 94.5q144 2 252 -95.5t105 -227.5q0 -115 -90 -194zM-104 458v202h175l-55 -202h-120z"></glyph><glyph glyph-name="iotadieresistonos" unicode="ΐ" d="M54 181v319h172v-292q0 -35 12 -50.5t40 -15.5q3 0 8 0.5t14 1t17 0.5v-144q-35 -12 -83 -12q-180 0 -180 193zM52 574l40 206h194v-30l-119 -176h-115zM-152 677q0 38 29 66t66 28q40 0 68 -27t28 -67q0 -37 -28.5 -65t-67.5 -28q-37 0 -65 28q-30 28 -30 65zM279 677 q0 38 29 66t66 28q40 0 68 -27t28 -67q0 -37 -28.5 -65t-67.5 -28q-37 0 -66 28q-29 29 -29 65z"></glyph><glyph glyph-name="Alpha" unicode="Α" d="M472 0l-24 55h-237l-24 -55h-185l300 672h55l300 -672h-185zM387 193l-57 153l-58 -153h115z"></glyph><glyph glyph-name="Beta" unicode="Β" d="M597 196q0 -85 -63.5 -140.5t-159.5 -55.5h-308v660h238q96 0 159.5 -54.5t63.5 -140.5q0 -67 -40 -111q110 -45 110 -158zM293 515h-62v-116h62q31 0 48.5 16t17.5 42t-17.5 42t-48.5 16zM429 203q0 58 -66 58h-132v-116h132q66 0 66 58z"></glyph><glyph glyph-name="Gamma" unicode="Γ" d="M66 0v660h445v-155h-273v-505h-172z"></glyph><glyph glyph-name="uni0394" unicode="Δ" d="M357 672l280 -627v-45h-615v45l280 627h55zM405 155l-74 170l-76 -170h150z"></glyph><glyph glyph-name="Epsilon" unicode="Ε" d="M66 0v660h458v-155h-286v-91h204v-144h-204v-115h298v-155h-470z"></glyph><glyph glyph-name="Zeta" unicode="Ζ" d="M273 155h291v-155h-552v45l289 460h-246v155h508v-45z"></glyph><glyph glyph-name="Eta" unicode="Η" d="M66 0v660h172v-241h241v241h172v-660h-172v264h-241v-264h-172z"></glyph><glyph glyph-name="Theta" unicode="Θ" d="M32 330q-3 141 103.5 243t251.5 99q145 3 252.5 -99t104.5 -243q3 -142 -104.5 -243t-252.5 -99q-146 -2 -252 99t-103 243zM579 329q0 86 -54.5 140.5t-137.5 54.5q-84 0 -137 -54t-53 -141q0 -86 53.5 -139.5t136.5 -53.5t137.5 54t54.5 139zM258 260v138h260v-138 h-260z"></glyph><glyph glyph-name="Iota" unicode="Ι" d="M66 0v660h172v-660h-172z"></glyph><glyph glyph-name="Kappa" unicode="Κ" d="M693 0h-204l-251 329v-329h-172v660h172v-299l218 299h200l-227 -314z"></glyph><glyph glyph-name="Lambda" unicode="Λ" d="M657 0h-185l-142 326l-143 -326h-185l300 672h55z"></glyph><glyph glyph-name="Mu" unicode="Μ" d="M683 672h55v-672h-172v277l-137 -160h-55l-136 159v-276h-172v672h55l281 -343z"></glyph><glyph glyph-name="Nu" unicode="Ν" d="M479 660h172v-672h-55l-358 347v-335h-172v672h55l358 -342v330z"></glyph><glyph glyph-name="Xi" unicode="Ξ" d="M41 505v155h558v-155h-558zM113 245v155h414v-155h-414zM41 0v155h558v-155h-558z"></glyph><glyph glyph-name="Omicron" unicode="Ο" d="M32 330q-3 141 103.5 243t251.5 99q145 3 252.5 -99t104.5 -243q3 -142 -104.5 -243t-252.5 -99q-146 -2 -252 99t-103 243zM568 330q0 81 -51.5 132.5t-128.5 51.5q-80 0 -130 -51t-50 -133t50 -134q50 -50 130 -50q78 0 129 51t51 133z"></glyph><glyph glyph-name="Pi" unicode="Π" d="M66 0v660h565v-660h-172v505h-221v-505h-172z"></glyph><glyph glyph-name="Rho" unicode="Ρ" d="M66 0v660h259q111 0 183 -62.5t72 -164.5q0 -100 -73 -164t-182 -64h-87v-205h-172zM238 355h88q36 0 57.5 21.5t21.5 56.5t-21.5 56t-57.5 21h-88v-155z"></glyph><glyph glyph-name="Sigma" unicode="Σ" d="M271 155h254v-155h-510v45l195 293l-195 277v45h498v-155h-237l110 -156v-21z"></glyph><glyph glyph-name="Tau" unicode="Τ" d="M208 0v505h-198v155h568v-155h-198v-505h-172z"></glyph><glyph glyph-name="Upsilon" unicode="Υ" d="M627 660l-226 -407v-253h-172v251l-227 409h190l123 -230l123 230h189z"></glyph><glyph glyph-name="Phi" unicode="Φ" d="M518 16v-59h-172v59q-137 11 -225.5 98t-88.5 218q0 129 88.5 216t225.5 96v59h172v-59q138 -9 226 -95t88 -217q0 -132 -88.5 -219.5t-225.5 -96.5zM346 162v336q-65 -9 -106.5 -56t-41.5 -115t41 -112.5t107 -52.5zM666 327q0 68 -41.5 115t-106.5 56v-336 q66 8 107 52.5t41 112.5z"></glyph><glyph glyph-name="Chi" unicode="Χ" d="M621 0h-194l-116 185l-115 -185h-194l215 335l-203 325h194l103 -176l103 176h194l-200 -325z"></glyph><glyph glyph-name="Psi" unicode="Ψ" d="M333 0v140q-126 0 -198.5 72t-72.5 198v250h172v-234q0 -60 27 -95.5t72 -35.5v365h172v-365q45 0 72 35.5t27 95.5v234h172v-250q0 -126 -72.5 -198t-198.5 -72v-140h-172z"></glyph><glyph glyph-name="uni03A9" unicode="Ω" d="M659 155h80v-155h-294v155q128 62 128 185q0 77 -51 125.5t-131 48.5t-129 -47.5t-49 -124.5q0 -126 128 -187v-155h-294v155h73q-83 80 -83 194q-3 132 103.5 228.5t251.5 94.5q144 2 252 -95.5t105 -227.5q0 -115 -90 -194z"></glyph><glyph glyph-name="Iotadieresis" unicode="Ϊ" d="M66 0v660h172v-660h-172zM-83 817q0 39 30 66q28 28 67 28q41 0 69.5 -27t28.5 -67q0 -37 -29 -65t-69 -28q-38 0 -67 28q-30 28 -30 65zM192 816q0 39 29 66q29 28 68 28q41 0 69.5 -27t28.5 -67q0 -37 -29 -65t-69 -28q-38 0 -67 28q-30 29 -30 65z"></glyph><glyph glyph-name="Upsilondieresis" unicode="Ϋ" d="M627 660l-226 -407v-253h-172v251l-227 409h190l123 -230l123 230h189zM80 817q0 39 29 66q29 28 68 28q41 0 69.5 -27t28.5 -67q0 -37 -29 -65t-69 -28q-38 0 -67 28q-30 28 -30 65zM355 816q0 39 29 66q29 28 68 28q41 0 69.5 -27t28.5 -67q0 -37 -29 -65t-69 -28 q-38 0 -67 28q-30 29 -30 65z"></glyph><glyph glyph-name="alphatonos" unicode="ά" d="M602 142l27 1v-143q-39 -12 -86 -12q-95 0 -129 75q-46 -75 -148 -75q-103 0 -169 74t-66 187q0 114 66.5 188.5t168.5 74.5t147 -73l3 61h157q-10 -167 -10 -231v-71q0 -56 39 -56zM394 249q0 49 -27 78t-68 29q-40 0 -66 -28.5t-26 -77.5t25.5 -77.5t66.5 -28.5t68 28 t27 77zM212 574l40 206h204v-30l-119 -176h-125z"></glyph><glyph glyph-name="epsilontonos" unicode="έ" d="M400 182l92 -103q-76 -91 -227 -91q-106 0 -168 40.5t-62 109.5q0 72 84 113q-66 43 -66 108q0 70 60 111.5t160 41.5q145 0 219 -86l-92 -103q-44 44 -126 44q-54 0 -54 -28q0 -13 10 -20.5t26 -7.5h83v-120h-93q-46 0 -46 -27q0 -31 64 -31q87 0 136 49zM184 574 l40 206h204v-30l-119 -176h-125z"></glyph><glyph glyph-name="etatonos" unicode="ή" d="M570 308v-488h-172v463q0 33 -20.5 53.5t-52.5 20.5t-52 -20.5t-20 -53.5v-283h-172v302q0 56 -39 56l-27 -1v143q38 12 86 12q86 0 119 -53q64 53 153 53t143 -56t54 -148zM238 574l40 206h204v-30l-119 -176h-125z"></glyph><glyph glyph-name="iotatonos" unicode="ί" d="M54 181v319h172v-292q0 -35 12 -50.5t40 -15.5q3 0 8 0.5t14 1t17 0.5v-144q-35 -12 -83 -12q-180 0 -180 193zM53 574l40 206h204v-30l-119 -176h-125z"></glyph><glyph glyph-name="upsilondieresistonos" unicode="ΰ" d="M52 233v267h172v-284q0 -32 21.5 -52.5t55.5 -20.5t55.5 20.5t21.5 52.5v284h172v-267q0 -108 -69.5 -176.5t-179.5 -68.5t-179.5 68.5t-69.5 176.5zM213 574l40 206h194v-30l-119 -176h-115zM9 677q0 38 29 66t66 28q40 0 68 -27t28 -67q0 -37 -28.5 -65t-67.5 -28 q-37 0 -66 28q-29 29 -29 65zM440 677q0 38 29 66t66 28q40 0 68 -27t28 -67q0 -37 -28.5 -65t-67.5 -28q-37 0 -66 28q-29 29 -29 65z"></glyph><glyph glyph-name="alpha" unicode="α" d="M602 142l27 1v-143q-39 -12 -86 -12q-95 0 -129 75q-46 -75 -148 -75q-103 0 -169 74t-66 187q0 114 66.5 188.5t168.5 74.5t147 -73l3 61h157q-10 -167 -10 -231v-71q0 -56 39 -56zM394 249q0 49 -27 78t-68 29q-40 0 -66 -28.5t-26 -77.5t25.5 -77.5t66.5 -28.5t68 28 t27 77z"></glyph><glyph glyph-name="beta" unicode="β" d="M596 230q0 -104 -70 -173t-175 -69q-67 0 -123 35v-203h-172v695q0 108 71 177.5t183 69.5q102 0 170 -56.5t68 -141.5q0 -91 -66 -140q54 -27 84 -77.5t30 -116.5zM423 236q0 43 -25 68.5t-68 25.5h-60v144h32q30 0 47.5 17t17.5 47t-17.5 48t-47.5 18q-35 0 -54.5 -23 t-19.5 -66v-335q49 -34 100 -34q44 0 69.5 24.5t25.5 65.5z"></glyph><glyph glyph-name="gamma" unicode="γ" d="M559 500l-192 -498v-182h-172v179l-193 501h182l97 -308l96 308h182z"></glyph><glyph glyph-name="delta" unicode="δ" d="M579 253q2 -111 -78.5 -189t-195.5 -76q-119 0 -196.5 72.5t-77.5 183.5q0 97 57 164q59 68 153 86l-197 211v45h522v-154h-210l116 -121q107 -111 107 -222zM403 250q0 45 -28 75t-70 30t-70 -30t-28 -75t27.5 -74t70.5 -30q43 1 70.5 30t27.5 74z"></glyph><glyph glyph-name="epsilon" unicode="ε" d="M400 182l92 -103q-76 -91 -227 -91q-106 0 -168 40.5t-62 109.5q0 72 84 113q-66 43 -66 108q0 70 60 111.5t160 41.5q145 0 219 -86l-92 -103q-44 44 -126 44q-54 0 -54 -28q0 -13 10 -20.5t26 -7.5h83v-120h-93q-46 0 -46 -27q0 -31 64 -31q87 0 136 49z"></glyph><glyph glyph-name="zeta" unicode="ζ" d="M501 706l-238 -355l-11 -17q-28 -41 -38 -61t-10 -40q0 -32 20.5 -50.5t74.5 -35.5l56 -18q131 -42 131 -171q0 -70 -33 -138h-168q27 46 27 93q0 35 -15.5 54t-53.5 32l-56 20q-156 55 -156 189q0 44 22 91q25 54 80 134l110 163h-190v154h448v-44z"></glyph><glyph glyph-name="eta" unicode="η" d="M570 308v-488h-172v463q0 33 -20.5 53.5t-52.5 20.5t-52 -20.5t-20 -53.5v-283h-172v302q0 56 -39 56l-27 -1v143q38 12 86 12q86 0 119 -53q64 53 153 53t143 -56t54 -148z"></glyph><glyph glyph-name="theta" unicode="θ" d="M611 379q0 -186 -74.5 -288.5t-208.5 -102.5t-208.5 102.5t-74.5 288.5q0 183 74 283t209 100t209 -100t74 -283zM223 443h210q-5 86 -29.5 123.5t-75.5 37.5t-75.5 -37.5t-29.5 -123.5zM432 299h-208q7 -81 31.5 -117t72.5 -36t72.5 36t31.5 117z"></glyph><glyph glyph-name="iota" unicode="ι" d="M54 181v319h172v-292q0 -35 12 -50.5t40 -15.5q3 0 8 0.5t14 1t17 0.5v-144q-35 -12 -83 -12q-180 0 -180 193z"></glyph><glyph glyph-name="kappa" unicode="κ" d="M595 0h-189l-178 245v-245h-172v500h172v-222l166 222h199l-181 -240z"></glyph><glyph glyph-name="lambda" unicode="λ" d="M560 144h27v-144q-39 -12 -75 -12q-56 0 -90 28t-55 91l-67 200l-134 -307h-182l230 505l-11 35q-12 37 -31 52.5t-56 15.5l-55 -2v144q35 12 85 12q81 0 130 -41.5t80 -123.5l155 -416q13 -37 49 -37z"></glyph><glyph glyph-name="uni03BC" unicode="μ" d="M584 142l27 1v-143q-39 -12 -86 -12q-78 0 -113 50q-38 -50 -98 -50q-52 0 -86 37v-205h-172v680h172v-281q0 -34 20 -55t52 -21q33 0 53 21t20 55v281h172v-304q0 -54 39 -54z"></glyph><glyph glyph-name="nu" unicode="ν" d="M387 500h182l-256 -512h-55l-256 512h182l102 -225z"></glyph><glyph glyph-name="xi" unicode="ξ" d="M473 -42q0 -68 -32 -138h-168q26 50 26 93q0 37 -14.5 55t-50.5 27l-28 7q-81 20 -125.5 73t-44.5 128q0 116 91 178q-72 41 -72 121q0 53 50 94h-64v154h428v-154h-163q-37 0 -58.5 -20.5t-21.5 -51.5t21.5 -52t58.5 -21h118v-144h-127q-40 0 -63 -20.5t-23 -55.5 q0 -37 23 -57.5t81 -35.5l27 -7q65 -17 98 -62t33 -111z"></glyph><glyph glyph-name="omicron" unicode="ο" d="M31 250q-2 107 79 185.5t193 76.5q112 2 193.5 -76.5t79.5 -185.5q2 -107 -79.5 -185.5t-193.5 -76.5q-112 -2 -193 76.5t-79 185.5zM400 250q0 45 -27.5 74.5t-68.5 29.5q-43 0 -70 -29t-27 -75q0 -47 27 -75.5t70 -28.5q42 0 69 29.5t27 74.5z"></glyph><glyph glyph-name="pi" unicode="π" d="M64 0v346h-64v154h593v-154h-64v-346h-172v346h-121v-346h-172z"></glyph><glyph glyph-name="rho" unicode="ρ" d="M584 249q0 -114 -66.5 -187.5t-169.5 -73.5q-79 0 -124 45v-213h-172v424q0 122 72.5 195t193.5 73q120 0 193 -72t73 -191zM408 250q0 48 -25.5 77t-68.5 29q-42 0 -67.5 -28.5t-25.5 -76.5t25.5 -77.5t67.5 -29.5t68 29.5t26 76.5z"></glyph><glyph glyph-name="uni03C2" unicode="ς" d="M321 -87q0 35 -14 54t-49 32l-38 14q-100 37 -144.5 92.5t-44.5 143.5q0 117 73.5 190t190.5 73q76 0 134.5 -34.5t90.5 -99.5l-119 -91q-43 67 -102 67q-41 0 -66.5 -26.5t-25.5 -69.5q0 -45 23 -65.5t87 -44.5l54 -19q124 -44 124 -171q0 -66 -31 -138h-168 q25 49 25 93z"></glyph><glyph glyph-name="sigma" unicode="σ" d="M632 500v-154h-105q41 -50 41 -113q0 -105 -77 -175t-193 -70q-113 0 -190 74.5t-77 184.5q0 114 75.5 183.5t201.5 69.5h324zM392 250q0 46 -26 75t-67 29t-66.5 -28.5t-25.5 -75.5t25.5 -75.5t66.5 -28.5t67 29t26 75z"></glyph><glyph glyph-name="tau" unicode="τ" d="M478 346h-159v-138q0 -36 19.5 -51t66.5 -15l63 2v-144q-50 -12 -101 -12q-107 0 -163.5 52t-56.5 151v155h-137v154h468v-154z"></glyph><glyph glyph-name="upsilon" unicode="υ" d="M52 233v267h172v-284q0 -32 21.5 -52.5t55.5 -20.5t55.5 20.5t21.5 52.5v284h172v-267q0 -108 -69.5 -176.5t-179.5 -68.5t-179.5 68.5t-69.5 176.5z"></glyph><glyph glyph-name="phi" unicode="φ" d="M482 -12v-168h-172v168q-124 6 -201.5 78.5t-77.5 185.5t76.5 183.5t202.5 76.5v148h172v-148q125 -6 201 -76.5t76 -183.5q0 -114 -76.5 -186t-200.5 -78zM315 132v236q-55 -3 -86 -33.5t-31 -84.5t30.5 -84.5t86.5 -33.5zM593 250q0 53 -30.5 84t-85.5 34v-236 q56 3 86 33.5t30 84.5z"></glyph><glyph glyph-name="chi" unicode="χ" d="M538 -36h41v-144q-35 -12 -87 -12q-48 0 -81.5 24t-64.5 81l-57 108l-101 -201h-191l197 353l-80 146q-21 37 -63 37h-39v144q34 12 87 12q50 0 83 -24.5t63 -80.5l47 -88l91 181h191l-187 -335l90 -164q21 -37 61 -37z"></glyph><glyph glyph-name="psi" unicode="ψ" d="M329 -180v168q-124 0 -200.5 71.5t-76.5 190.5v250h172v-236q0 -54 30 -87.5t75 -33.5v517h172v-517q45 0 75 33.5t30 87.5v236h172v-250q0 -119 -76.5 -190.5t-200.5 -71.5v-168h-172z"></glyph><glyph glyph-name="omega" unicode="ω" d="M779 247q0 -117 -63 -188t-166 -71q-91 0 -145 59q-54 -59 -145 -59q-103 0 -166 71t-63 188q0 101 48.5 170.5t133.5 89.5l56 -146q-66 -37 -66 -119q0 -46 18.5 -72.5t49.5 -26.5q25 0 39 18t14 50v142h162v-142q0 -32 14 -50t39 -18q31 0 49.5 26.5t18.5 72.5 q0 82 -66 119l56 146q85 -20 133.5 -89.5t48.5 -170.5z"></glyph><glyph glyph-name="iotadieresis" unicode="ϊ" d="M54 181v319h172v-292q0 -35 12 -50.5t40 -15.5q3 0 8 0.5t14 1t17 0.5v-144q-35 -12 -83 -12q-180 0 -180 193zM-80 677q0 39 30 66q28 28 67 28q41 0 69.5 -27t28.5 -67q0 -37 -29 -65t-69 -28q-38 0 -67 28q-30 28 -30 65zM165 677q0 39 29 66q29 28 68 28 q41 0 69.5 -27t28.5 -67q0 -37 -29 -65t-69 -28q-38 0 -67 28q-30 28 -30 65z"></glyph><glyph glyph-name="upsilondieresis" unicode="ϋ" d="M52 233v267h172v-284q0 -32 21.5 -52.5t55.5 -20.5t55.5 20.5t21.5 52.5v284h172v-267q0 -108 -69.5 -176.5t-179.5 -68.5t-179.5 68.5t-69.5 176.5zM76 678q0 38 29 65.5t70 27.5q39 0 67.5 -27.5t28.5 -65.5q0 -39 -28.5 -66.5t-67.5 -27.5q-41 0 -70 27.5t-29 66.5z M331 678q0 38 29 65.5t70 27.5q39 0 67.5 -27.5t28.5 -65.5q0 -39 -28.5 -66.5t-67.5 -27.5q-41 0 -70 27.5t-29 66.5z"></glyph><glyph glyph-name="omicrontonos" unicode="ό" d="M31 250q-2 107 79 185.5t193 76.5q112 2 193.5 -76.5t79.5 -185.5q2 -107 -79.5 -185.5t-193.5 -76.5q-112 -2 -193 76.5t-79 185.5zM400 250q0 45 -27.5 74.5t-68.5 29.5q-43 0 -70 -29t-27 -75q0 -47 27 -75.5t70 -28.5q42 0 69 29.5t27 74.5zM217 574l40 206h204v-30 l-119 -176h-125z"></glyph><glyph glyph-name="upsilontonos" unicode="ύ" d="M52 233v267h172v-284q0 -32 21.5 -52.5t55.5 -20.5t55.5 20.5t21.5 52.5v284h172v-267q0 -108 -69.5 -176.5t-179.5 -68.5t-179.5 68.5t-69.5 176.5zM214 574l40 206h204v-30l-119 -176h-125z"></glyph><glyph glyph-name="omegatonos" unicode="ώ" d="M779 247q0 -117 -63 -188t-166 -71q-91 0 -145 59q-54 -59 -145 -59q-103 0 -166 71t-63 188q0 101 48.5 170.5t133.5 89.5l56 -146q-66 -37 -66 -119q0 -46 18.5 -72.5t49.5 -26.5q25 0 39 18t14 50v142h162v-142q0 -32 14 -50t39 -18q31 0 49.5 26.5t18.5 72.5 q0 82 -66 119l56 146q85 -20 133.5 -89.5t48.5 -170.5zM318 574l40 206h204v-30l-119 -176h-125z"></glyph><glyph glyph-name="uni0400" unicode="Ѐ" d="M66 0v660h458v-155h-286v-91h204v-144h-204v-115h298v-155h-470zM226 724l-147 156v30h207l64 -186h-124z"></glyph><glyph glyph-name="uni0401" unicode="Ё" d="M66 0v660h458v-155h-286v-91h204v-144h-204v-115h298v-155h-470zM54 817q0 39 29 66q29 28 68 28q41 0 69.5 -27t28.5 -67q0 -37 -29 -65t-69 -28q-38 0 -67 28q-30 28 -30 65zM329 816q0 39 29 66q29 28 68 28q41 0 69.5 -27t28.5 -67q0 -37 -29 -65t-69 -28 q-38 0 -67 28q-30 29 -30 65z"></glyph><glyph glyph-name="uni0402" unicode="Ђ" d="M491 -22l-34 151q56 10 79 24t23 47q0 63 -79 63q-68 0 -110 -24v-239h-172v505h-188v155h568v-155h-208v-115q46 23 119 23q106 0 175.5 -56.5t69.5 -152.5q0 -106 -69 -162q-68 -53 -174 -64z"></glyph><glyph glyph-name="uni0403" unicode="Ѓ" d="M66 0v660h445v-155h-273v-505h-172zM223 724l64 186h207v-30l-147 -156h-124z"></glyph><glyph glyph-name="uni0404" unicode="Є" d="M560 254l131 -89q-45 -84 -124 -130.5t-179 -46.5q-146 -2 -252.5 99t-103.5 243q-2 142 104 243.5t253 98.5q99 0 178 -46.5t124 -130.5l-131 -89q-64 108 -172 108q-59 0 -103 -29.5t-64 -80.5h253v-144h-255q18 -53 63 -83.5t106 -30.5q108 0 172 108z"></glyph><glyph glyph-name="uni0405" unicode="Ѕ" d="M23 136l116 88q32 -42 66 -63.5t81 -21.5q68 0 68 48q0 21 -13 32t-54 29l-68 30q-167 74 -167 199q0 87 64.5 141t166.5 54q160 0 226 -133l-115 -88q-25 37 -50 53.5t-59 16.5q-59 0 -59 -42q0 -18 12.5 -29.5t44.5 -24.5l76 -32q88 -37 128.5 -83.5t40.5 -115.5 q0 -94 -68.5 -150t-173.5 -56q-88 0 -157.5 39.5t-105.5 108.5z"></glyph><glyph glyph-name="uni0406" unicode="І" d="M66 0v660h172v-660h-172z"></glyph><glyph glyph-name="uni0407" unicode="Ї" d="M66 0v660h172v-660h-172zM-83 817q0 39 30 66q28 28 67 28q41 0 69.5 -27t28.5 -67q0 -37 -29 -65t-69 -28q-38 0 -67 28q-30 28 -30 65zM192 816q0 39 29 66q29 28 68 28q41 0 69.5 -27t28.5 -67q0 -37 -29 -65t-69 -28q-38 0 -67 28q-30 29 -30 65z"></glyph><glyph glyph-name="uni0408" unicode="Ј" d="M12 0v146l63 -2q47 0 66.5 15t19.5 51v450h172v-469q0 -101 -56 -152t-164 -51q-51 0 -101 12z"></glyph><glyph glyph-name="uni0409" unicode="Љ" d="M944 227q0 -102 -72 -164.5t-183 -62.5h-276v505h-127v-5q-1 -200 -26.5 -313t-70.5 -155t-121 -44q-34 0 -68 12v146q10 -2 27 -2q51 0 73.5 85t22.5 292v139h462v-205h104q109 0 182 -64t73 -164zM769 227q0 35 -21.5 56.5t-57.5 21.5h-105v-155h105q36 0 57.5 21 t21.5 56z"></glyph><glyph glyph-name="uni040A" unicode="Њ" d="M66 0v660h172v-221h211v221h172v-221h104q109 0 182 -61.5t73 -158.5q0 -99 -71.5 -159t-183.5 -60h-276v284h-211v-284h-172zM621 150h105q36 0 57.5 19t21.5 50q0 32 -21.5 51t-57.5 19h-105v-139z"></glyph><glyph glyph-name="uni040B" unicode="Ћ" d="M735 154v-154h-172v137q0 57 -26 87t-74 30q-51 0 -93 -21v-233h-172v505h-188v155h568v-155h-208v-115q51 22 111 22q115 0 184.5 -68t69.5 -190z"></glyph><glyph glyph-name="uni040C" unicode="Ќ" d="M693 0h-204l-251 329v-329h-172v660h172v-299l218 299h200l-227 -314zM280 724l64 186h207v-30l-147 -156h-124z"></glyph><glyph glyph-name="uni040D" unicode="Ѝ" d="M596 672h55v-672h-172v343l-358 -355h-55v672h172v-339zM328 724l-147 156v30h207l64 -186h-124z"></glyph><glyph glyph-name="uni040E" unicode="Ў" d="M451 660h186l-217 -488q-30 -67 -56 -103t-69.5 -57.5t-110.5 -23.5q-44 0 -90 12v146q46 -2 54 -2q52 0 87 27l-233 489h192l134 -307zM147 901v9h135v-14q0 -60 51 -60t51 60v14h135v-9q0 -82 -52 -134t-134 -52t-134 52t-52 134z"></glyph><glyph glyph-name="uni040F" unicode="Џ" d="M631 660v-660h-201v-141h-162v141h-202v660h172v-505h221v505h172z"></glyph><glyph glyph-name="uni0410" unicode="А" d="M472 0l-24 55h-237l-24 -55h-185l300 672h55l300 -672h-185zM387 193l-57 153l-58 -153h115z"></glyph><glyph glyph-name="uni0411" unicode="Б" d="M66 0v660h473v-155h-301v-97h136q98 0 160.5 -54.5t62.5 -145.5q0 -92 -63.5 -150t-159.5 -58h-308zM238 145h125q31 0 48.5 16.5t17.5 46.5q0 62 -66 62h-125v-125z"></glyph><glyph glyph-name="uni0412" unicode="В" d="M597 196q0 -85 -63.5 -140.5t-159.5 -55.5h-308v660h238q96 0 159.5 -54.5t63.5 -140.5q0 -67 -40 -111q110 -45 110 -158zM293 515h-62v-116h62q31 0 48.5 16t17.5 42t-17.5 42t-48.5 16zM429 203q0 58 -66 58h-132v-116h132q66 0 66 58z"></glyph><glyph glyph-name="uni0413" unicode="Г" d="M66 0v660h445v-155h-273v-505h-172z"></glyph><glyph glyph-name="uni0414" unicode="Д" d="M638 155h93v-296h-172v141h-367v-141h-172v296h55q66 51 66 376v129h497v-505zM259 155h207v350h-162q-2 -241 -45 -350z"></glyph><glyph glyph-name="uni0415" unicode="Е" d="M66 0v660h458v-155h-286v-91h204v-144h-204v-115h298v-155h-470z"></glyph><glyph glyph-name="uni0416" unicode="Ж" d="M1004 0h-204l-211 326v-326h-172v326l-211 -326h-204l246 344l-229 316h200l198 -297v297h172v-297l198 297h200l-229 -316z"></glyph><glyph glyph-name="uni0417" unicode="З" d="M560 197q0 -97 -69.5 -153t-191.5 -56q-92 0 -162 41.5t-105 116.5l119 84q56 -84 147 -84q43 0 68.5 15.5t25.5 45.5q0 25 -20 39.5t-56 14.5h-93v138h73q33 0 52 15.5t19 40.5q0 27 -20.5 43t-54.5 16q-78 0 -121 -84l-119 84q74 158 252 158q108 0 169.5 -52.5 t61.5 -147.5q0 -81 -60 -130q85 -47 85 -145z"></glyph><glyph glyph-name="uni0418" unicode="И" d="M596 672h55v-672h-172v343l-358 -355h-55v672h172v-339z"></glyph><glyph glyph-name="uni0419" unicode="Й" d="M596 672h55v-672h-172v343l-358 -355h-55v672h172v-339zM205 901v9h135v-14q0 -60 51 -60t51 60v14h135v-9q0 -82 -52 -134t-134 -52t-134 52t-52 134z"></glyph><glyph glyph-name="uni041A" unicode="К" d="M693 0h-204l-251 329v-329h-172v660h172v-299l218 299h200l-227 -314z"></glyph><glyph glyph-name="uni041B" unicode="Л" d="M123 660h482v-660h-172v505h-147q-1 -201 -27 -316t-71 -157t-120 -44q-34 0 -68 12v146q10 -2 27 -2q51 0 73.5 85t22.5 292v139z"></glyph><glyph glyph-name="uni041C" unicode="М" d="M683 672h55v-672h-172v277l-137 -160h-55l-136 159v-276h-172v672h55l281 -343z"></glyph><glyph glyph-name="uni041D" unicode="Н" d="M66 0v660h172v-241h241v241h172v-660h-172v264h-241v-264h-172z"></glyph><glyph glyph-name="uni041E" unicode="О" d="M32 330q-3 141 103.5 243t251.5 99q145 3 252.5 -99t104.5 -243q3 -142 -104.5 -243t-252.5 -99q-146 -2 -252 99t-103 243zM568 330q0 81 -51.5 132.5t-128.5 51.5q-80 0 -130 -51t-50 -133t50 -134q50 -50 130 -50q78 0 129 51t51 133z"></glyph><glyph glyph-name="uni041F" unicode="П" d="M66 0v660h575v-660h-172v505h-231v-505h-172z"></glyph><glyph glyph-name="uni0420" unicode="Р" d="M66 0v660h259q111 0 183 -62.5t72 -164.5q0 -100 -73 -164t-182 -64h-87v-205h-172zM238 355h88q36 0 57.5 21.5t21.5 56.5t-21.5 56t-57.5 21h-88v-155z"></glyph><glyph glyph-name="uni0421" unicode="С" d="M32 330q-2 142 104 243.5t253 98.5q99 0 178 -46.5t124 -130.5l-131 -89q-64 108 -172 108q-79 0 -129.5 -51t-50.5 -134q0 -81 50 -133q52 -50 130 -50q108 0 172 108l131 -89q-45 -84 -124 -130.5t-179 -46.5q-146 -2 -252.5 99t-103.5 243z"></glyph><glyph glyph-name="uni0422" unicode="Т" d="M208 0v505h-198v155h568v-155h-198v-505h-172z"></glyph><glyph glyph-name="uni0423" unicode="У" d="M451 660h186l-217 -488q-30 -67 -56 -103t-69.5 -57.5t-110.5 -23.5q-44 0 -90 12v146q46 -2 54 -2q52 0 87 27l-233 489h192l134 -307z"></glyph><glyph glyph-name="uni0424" unicode="Ф" d="M518 59v-79h-172v79q-142 9 -228 80q-86 72 -86 197q0 124 85 194t229 79v71h172v-71q144 -9 229 -81q87 -71 87 -196q0 -123 -87 -194q-85 -70 -229 -79zM668 337q0 116 -150 127v-260q73 5 111.5 39t38.5 94zM346 204v260q-72 -5 -110 -39t-38 -94q0 -115 148 -127z "></glyph><glyph glyph-name="uni0425" unicode="Х" d="M621 0h-194l-116 185l-115 -185h-194l215 335l-203 325h194l103 -176l103 176h194l-200 -325z"></glyph><glyph glyph-name="uni0426" unicode="Ц" d="M562 -141v141h-496v660h172v-505h221v505h172v-505h93v-296h-162z"></glyph><glyph glyph-name="uni0427" unicode="Ч" d="M428 660h172v-660h-172v229q-57 -21 -124 -21q-123 0 -193.5 70.5t-70.5 197.5v184h172v-167q0 -65 30 -96t97 -31q52 0 89 14v280z"></glyph><glyph glyph-name="uni0428" unicode="Ш" d="M66 0v660h172v-505h180v505h172v-505h180v505h172v-660h-876z"></glyph><glyph glyph-name="uni0429" unicode="Щ" d="M873 -141v141h-807v660h172v-505h180v505h172v-505h180v505h172v-505h93v-296h-162z"></glyph><glyph glyph-name="uni042A" unicode="Ъ" d="M160 0v505h-150v155h322v-205h104q109 0 182 -64t73 -164q0 -102 -72 -164.5t-183 -62.5h-276zM332 150h105q36 0 57.5 21t21.5 56t-21.5 56.5t-57.5 21.5h-105v-155z"></glyph><glyph glyph-name="uni042B" unicode="Ы" d="M66 0v660h172v-205h104q109 0 182 -64t73 -164q0 -102 -72 -164.5t-183 -62.5h-276zM238 150h105q36 0 57.5 21t21.5 56t-21.5 56.5t-57.5 21.5h-105v-155zM684 0v660h172v-660h-172z"></glyph><glyph glyph-name="uni042C" unicode="Ь" d="M66 0v660h172v-205h104q109 0 182 -64t73 -164q0 -102 -72 -164.5t-183 -62.5h-276zM238 150h105q36 0 57.5 21t21.5 56t-21.5 56.5t-57.5 21.5h-105v-155z"></glyph><glyph glyph-name="uni042D" unicode="Э" d="M691 330q3 -142 -103.5 -243t-252.5 -99q-100 0 -179 46.5t-124 130.5l131 89q65 -108 172 -108q61 0 106 30.5t63 83.5h-227v144h225q-20 51 -64 80.5t-103 29.5q-107 0 -172 -108l-131 89q45 84 124 130.5t178 46.5q147 3 253 -98.5t104 -243.5z"></glyph><glyph glyph-name="uni042E" unicode="Ю" d="M996 330q2 -141 -103 -243t-247 -99q-126 0 -220.5 78t-115.5 198h-72v-264h-172v660h172v-241h77q29 112 120 182.5t211 70.5q142 3 247.5 -99t102.5 -243zM820 330q0 81 -50 132.5t-124 51.5t-124 -51.5t-50 -132.5t50 -132.5t124 -51.5t124 51.5t50 132.5z"></glyph><glyph glyph-name="uni042F" unicode="Я" d="M333 660h241v-660h-172v194h-56l-134 -194h-182l156 226q-60 30 -93 83t-33 119q0 102 76 167t197 65zM402 344v166h-76q-40 0 -65.5 -23t-25.5 -60t25.5 -60t65.5 -23h76z"></glyph><glyph glyph-name="uni0430" unicode="а" d="M503 290v-290h-157v41q-56 -53 -144 -53q-79 0 -125.5 44.5t-46.5 110.5q0 70 52.5 109.5t143.5 39.5h105v8q0 64 -76 64q-33 0 -60.5 -14t-64.5 -47l-80 109q99 100 226 100q106 0 166.5 -57.5t60.5 -164.5zM331 183v4h-81q-46 0 -46 -38q0 -18 13.5 -28.5t37.5 -10.5 q34 0 55 20t21 53z"></glyph><glyph glyph-name="uni0431" unicode="б" d="M588 242q0 -112 -75 -182.5t-193 -70.5q-127 0 -201.5 83t-74.5 225v69q1 91 16.5 152.5t55.5 109.5t110 74.5t177 37.5q84 7 112 14q25 7 28 7v-155q-1 0 -29 -6q-29 -6 -116 -12q-113 -8 -154.5 -42.5t-45.5 -128.5q58 76 165 76q99 0 162 -70.5t63 -180.5zM412 241 q0 41 -27.5 68.5t-68.5 27.5t-68.5 -27.5t-27.5 -68.5q0 -40 28 -68t68 -28q41 0 68.5 27.5t27.5 68.5z"></glyph><glyph glyph-name="uni0432" unicode="в" d="M528 154q0 -67 -52 -110.5t-129 -43.5h-287v500h249q79 0 132 -39t53 -107q0 -53 -35 -88q69 -36 69 -112zM222 379v-69h73q47 0 47 34q0 35 -47 35h-73zM374 160q0 19 -13.5 29.5t-35.5 10.5h-103v-80h103q22 0 35.5 10.5t13.5 29.5z"></glyph><glyph glyph-name="uni0433" unicode="г" d="M60 0v500h387v-144h-215v-356h-172z"></glyph><glyph glyph-name="uni0434" unicode="д" d="M561 144h83v-285h-162v141h-310v-141h-162v285h53q27 26 40 81.5t18 162.5l5 112h435v-356zM238 144h152v212h-114v-2q-5 -134 -38 -210z"></glyph><glyph glyph-name="uni0435" unicode="е" d="M526 190h-320q28 -57 112 -57q66 0 131 39l62 -117q-88 -67 -199 -67q-122 0 -201.5 75t-79.5 187q0 110 77.5 186t189.5 76q106 0 172.5 -69t66.5 -168q0 -43 -11 -85zM200 302h174q-1 33 -25 54t-58 21q-33 0 -57 -19.5t-34 -55.5z"></glyph><glyph glyph-name="uni0436" unicode="ж" d="M886 0h-202l-160 242v-242h-172v242l-160 -242h-192l173 259l-168 241h199l148 -219v219h172v-219l148 219h199l-163 -233z"></glyph><glyph glyph-name="uni0437" unicode="з" d="M471 149q0 -161 -216 -161q-155 0 -230 91l92 103q49 -49 125 -49q64 0 64 31q0 28 -46 28h-72v120h62q36 0 36 27q0 28 -45 28q-64 0 -114 -44l-92 103q77 86 217 86q97 0 149 -39.5t52 -113.5q0 -61 -45 -104q63 -41 63 -106z"></glyph><glyph glyph-name="uni0438" unicode="и" d="M495 512h55v-512h-172v225l-263 -237h-55v512h172v-225z"></glyph><glyph glyph-name="uni0439" unicode="й" d="M495 512h55v-512h-172v225l-263 -237h-55v512h172v-225zM129 755v25h135v-25q0 -65 51 -65t51 65v25h135v-25q0 -82 -52 -134t-134 -52t-134 52t-52 134z"></glyph><glyph glyph-name="uni043A" unicode="к" d="M603 0h-201l-170 250v-250h-172v500h172v-227l168 227h191l-176 -229z"></glyph><glyph glyph-name="uni043B" unicode="л" d="M104 500h434v-500h-171v356h-103v-22q-3 -189 -44 -267.5t-138 -78.5q-29 0 -67 12v141q8 -2 19 -2q39 0 54.5 53t15.5 196v112z"></glyph><glyph glyph-name="uni043C" unicode="м" d="M60 0v512h55l233 -251l236 251h53v-512h-172v179l-90 -95h-55l-88 94v-178h-172z"></glyph><glyph glyph-name="uni043D" unicode="н" d="M60 0v500h172v-173h146v173h172v-500h-172v183h-146v-183h-172z"></glyph><glyph glyph-name="uni043E" unicode="о" d="M31 250q-2 107 79 185.5t193 76.5q112 2 193.5 -76.5t79.5 -185.5q2 -107 -79.5 -185.5t-193.5 -76.5q-112 -2 -193 76.5t-79 185.5zM400 250q0 45 -27.5 74.5t-68.5 29.5q-43 0 -70 -29t-27 -75q0 -47 27 -75.5t70 -28.5q42 0 69 29.5t27 74.5z"></glyph><glyph glyph-name="uni043F" unicode="п" d="M60 0v500h482v-500h-172v356h-138v-356h-172z"></glyph><glyph glyph-name="uni0440" unicode="р" d="M596 251q0 -114 -68 -188.5t-172 -74.5q-79 0 -128 46v-214h-172v680h157v-52q46 64 143 64q105 0 172.5 -73.5t67.5 -187.5zM420 250q0 49 -27.5 77.5t-70.5 28.5q-42 0 -69.5 -28t-27.5 -77t28 -78t69 -29t69.5 28.5t28.5 77.5z"></glyph><glyph glyph-name="uni0441" unicode="с" d="M31 250q-2 108 79.5 186t193.5 76q76 0 134.5 -35.5t89.5 -98.5l-119 -91q-42 67 -103 67q-45 0 -72 -29t-27 -75t27 -75t72 -29q60 0 103 66l119 -90q-31 -63 -89.5 -98.5t-134.5 -35.5q-112 -2 -193.5 76t-79.5 186z"></glyph><glyph glyph-name="uni0442" unicode="т" d="M155 0v356h-145v144h463v-144h-146v-356h-172z"></glyph><glyph glyph-name="uni0443" unicode="у" d="M388 500h182l-235 -527q-39 -86 -90.5 -125.5t-127.5 -39.5q-47 0 -96 12v144q13 0 27 -0.5t21 -1t10 -0.5q38 0 60.5 12.5t37.5 46.5l8 17l-183 462h183l96 -281z"></glyph><glyph glyph-name="uni0444" unicode="ф" d="M488 -8v-172h-172v173q-127 9 -206 75q-79 67 -79 184q0 118 79 186t206 74v238h172v-239q126 -9 205 -76q80 -66 80 -183q0 -118 -79 -186t-206 -74zM321 136v232q-120 -8 -120 -118q0 -50 31.5 -79.5t88.5 -34.5zM603 254q0 51 -32.5 81.5t-87.5 32.5v-232 q120 8 120 118z"></glyph><glyph glyph-name="uni0445" unicode="х" d="M553 0h-191l-86 131l-85 -131h-191l181 257l-171 243h191l75 -118l76 118h191l-171 -243z"></glyph><glyph glyph-name="uni0446" unicode="ц" d="M452 -141v141h-392v500h171v-356h129v356h171v-356h83v-285h-162z"></glyph><glyph glyph-name="uni0447" unicode="ч" d="M338 500h172v-500h-172v163q-35 -13 -96 -13q-101 0 -156 61.5t-55 170.5v118h172v-104q0 -91 75 -91q36 0 60 7v188z"></glyph><glyph glyph-name="uni0448" unicode="ш" d="M60 0v500h171v-356h130v356h171v-356h130v356h171v-500h-773z"></glyph><glyph glyph-name="uni0449" unicode="щ" d="M754 -141v141h-694v500h171v-356h130v356h171v-356h130v356h171v-356h83v-285h-162z"></glyph><glyph glyph-name="uni044A" unicode="ъ" d="M136 0v356h-126v144h298v-126h72q96 0 159 -50t63 -137t-63 -137t-159 -50h-244zM308 144h69q50 0 50 41q0 45 -50 45h-69v-86z"></glyph><glyph glyph-name="uni044B" unicode="ы" d="M60 0v500h172v-126h72q96 0 159 -50t63 -137t-63 -137t-159 -50h-244zM573 0v500h172v-500h-172zM232 144h69q50 0 50 41q0 45 -50 45h-69v-86z"></glyph><glyph glyph-name="uni044C" unicode="ь" d="M60 0v500h172v-126h72q96 0 159 -50t63 -137t-63 -137t-159 -50h-244zM232 144h69q50 0 50 41q0 45 -50 45h-69v-86z"></glyph><glyph glyph-name="uni044D" unicode="э" d="M522 250q0 -110 -79.5 -186t-195.5 -76q-144 0 -222 133l113 86q47 -69 110 -69q67 0 93 56h-127v113h126q-27 55 -92 55q-63 0 -110 -69l-113 86q78 133 222 133q116 0 195.5 -76t79.5 -186z"></glyph><glyph glyph-name="uni044E" unicode="ю" d="M793 250q0 -109 -76.5 -185.5t-185.5 -76.5q-91 0 -158 54q-67 55 -88 141h-53v-183h-172v500h172v-173h56q22 81 89 133t154 52q109 0 185.5 -76.5t76.5 -185.5zM621 250q0 45 -26.5 74.5t-67.5 29.5t-68 -29t-27 -75t27 -75t68 -29t67.5 29.5t26.5 74.5z"></glyph><glyph glyph-name="uni044F" unicode="я" d="M271 500h244v-500h-172v136h-27l-115 -136h-191l137 162q-98 48 -98 158q0 81 60 131q61 49 162 49zM224 315q0 -20 14.5 -32.5t37.5 -12.5h67v86h-67q-24 0 -38 -11t-14 -30z"></glyph><glyph glyph-name="uni0450" unicode="ѐ" d="M526 190h-320q28 -57 112 -57q66 0 131 39l62 -117q-88 -67 -199 -67q-122 0 -201.5 75t-79.5 187q0 110 77.5 186t189.5 76q106 0 172.5 -69t66.5 -168q0 -43 -11 -85zM200 302h174q-1 33 -25 54t-58 21q-33 0 -57 -19.5t-34 -55.5zM237 574l-147 176v30h207l64 -206 h-124z"></glyph><glyph glyph-name="uni0451" unicode="ё" d="M526 190h-320q28 -57 112 -57q66 0 131 39l62 -117q-88 -67 -199 -67q-122 0 -201.5 75t-79.5 187q0 110 77.5 186t189.5 76q106 0 172.5 -69t66.5 -168q0 -43 -11 -85zM200 302h174q-1 33 -25 54t-58 21q-33 0 -57 -19.5t-34 -55.5zM73 678q0 38 29 65.5t70 27.5 q39 0 67.5 -27.5t28.5 -65.5q0 -39 -28.5 -66.5t-67.5 -27.5q-41 0 -70 27.5t-29 66.5zM328 678q0 38 29 65.5t70 27.5q39 0 67.5 -27.5t28.5 -65.5q0 -39 -28.5 -66.5t-67.5 -27.5q-41 0 -70 27.5t-29 66.5z"></glyph><glyph glyph-name="uni0452" unicode="ђ" d="M555 268v-257q0 -99 -55 -151t-155 -52q-49 0 -83 12v144q8 0 17 -0.5t14 -1t8 -0.5q44 0 63 15.5t19 50.5v215q0 33 -20.5 53.5t-52.5 20.5t-52 -20.5t-20 -53.5v-243h-172v533h-76v139h76v78h172v-78h184v-139h-184v-108q53 47 130 47q83 0 135 -56.5t52 -147.5z"></glyph><glyph glyph-name="uni0453" unicode="ѓ" d="M60 0v500h387v-144h-215v-356h-172zM186 574l64 206h207v-30l-147 -176h-124z"></glyph><glyph glyph-name="uni0454" unicode="є" d="M415 207l113 -86q-78 -133 -222 -133q-116 0 -195.5 76t-79.5 186t79.5 186t195.5 76q144 0 222 -133l-113 -86q-47 69 -110 69q-65 0 -92 -55h126v-113h-127q26 -56 93 -56q63 0 110 69z"></glyph><glyph glyph-name="uni0455" unicode="ѕ" d="M11 84l80 102q65 -62 138 -62q44 0 44 22q0 13 -29 25l-56 23q-77 31 -111 67t-34 94q0 73 52.5 115t141.5 42q118 0 188 -73l-81 -105q-50 43 -106 43q-35 0 -35 -19q0 -14 34 -27l50 -20q79 -31 112.5 -65.5t33.5 -91.5q0 -77 -58 -122q-59 -44 -149 -44 q-67 0 -123.5 25t-91.5 71z"></glyph><glyph glyph-name="uni0456" unicode="і" d="M36 677q0 43 30.5 72.5t74.5 29.5t75 -29.5t31 -72.5q0 -42 -31 -71.5t-75 -29.5t-74.5 29t-30.5 72zM56 0v500h172v-500h-172z"></glyph><glyph glyph-name="uni0457" unicode="ї" d="M-4 677q0 49 19 75.5t53 26.5t53 -26.5t19 -75.5q0 -101 -72 -101t-72 101zM149 677q0 49 19 75.5t53 26.5t53 -26.5t19 -75.5q0 -101 -72 -101t-72 101zM56 0v500h172v-500h-172z"></glyph><glyph glyph-name="uni0458" unicode="ј" d="M-65 -180v144q8 0 17 -0.5t14 -1t8 -0.5q44 0 63 15.5t19 50.5v472h172v-489q0 -99 -55 -151t-155 -52q-49 0 -83 12zM36 677q0 43 30.5 72.5t74.5 29.5t75 -29.5t31 -72.5q0 -42 -31 -71.5t-75 -29.5t-74.5 29t-30.5 72z"></glyph><glyph glyph-name="uni0459" unicode="љ" d="M826 192q0 -89 -63 -140.5t-159 -51.5h-243v356h-97v-22q-3 -189 -44 -267.5t-138 -78.5q-29 0 -67 12v141q8 -2 19 -2q39 0 54.5 53t15.5 196v112h428v-126h72q96 0 159 -48.5t63 -133.5zM651 190q0 18 -14.5 29t-35.5 11h-69v-86h69q50 0 50 46z"></glyph><glyph glyph-name="uni045A" unicode="њ" d="M829 177q0 -85 -63 -131q-62 -46 -159 -46h-244v210h-131v-210h-172v500h172v-146h131v146h172v-146h72q95 0 159 -47q63 -46 63 -130zM654 177q0 17 -13 27.5t-32 10.5h-74v-76h74q20 0 32.5 10t12.5 28z"></glyph><glyph glyph-name="uni045B" unicode="ћ" d="M555 268v-268h-172v243q0 33 -20.5 53.5t-52.5 20.5t-52 -20.5t-20 -53.5v-243h-172v533h-76v139h76v78h172v-78h184v-139h-184v-108q53 47 130 47q83 0 135 -56.5t52 -147.5z"></glyph><glyph glyph-name="uni045C" unicode="ќ" d="M603 0h-201l-170 250v-250h-172v500h172v-227l168 227h191l-176 -229zM249 574l64 206h207v-30l-147 -176h-124z"></glyph><glyph glyph-name="uni045D" unicode="ѝ" d="M495 512h55v-512h-172v225l-263 -237h-55v512h172v-225zM254 574l-147 176v30h207l64 -206h-124z"></glyph><glyph glyph-name="uni045E" unicode="ў" d="M388 500h182l-235 -527q-39 -86 -90.5 -125.5t-127.5 -39.5q-47 0 -96 12v144q13 0 27 -0.5t21 -1t10 -0.5q38 0 60.5 12.5t37.5 46.5l8 17l-183 462h183l96 -281zM101 755v25h135v-25q0 -65 51 -65t51 65v25h135v-25q0 -82 -52 -134t-134 -52t-134 52t-52 134z"></glyph><glyph glyph-name="uni045F" unicode="џ" d="M532 500v-500h-155v-141h-162v141h-155v500h171v-356h130v356h171z"></glyph><glyph glyph-name="uni0462" unicode="Ѣ" d="M166 0v473h-156v139h156v68h172v-68h194v-139h-194v-60h108q117 0 184 -56t67 -153q0 -96 -67.5 -150t-187.5 -54h-276zM338 150h109q35 0 55 15.5t20 41.5t-20.5 42t-54.5 16h-109v-115z"></glyph><glyph glyph-name="uni0463" unicode="ѣ" d="M116 0v370h-126v130h126v250h172v-250h166v-130h-166v-47h92q88 0 144 -43q58 -43 58 -118q0 -73 -58 -117.5t-144 -44.5h-264zM288 130h79q40 0 40 32q0 31 -40 31h-79v-63z"></glyph><glyph glyph-name="uni0472" unicode="Ѳ" d="M744 330q3 -142 -104.5 -243t-252.5 -99q-146 -2 -252 99t-103 243q-3 141 103.5 243t251.5 99q145 3 252.5 -99t104.5 -243zM212 394q45 21 90 21q31 0 85 -14q51 -15 87 -15q45 0 86 19q-20 53 -66 83.5t-107 30.5q-64 0 -111 -33.5t-64 -91.5zM561 258 q-42 -20 -87 -20q-36 0 -87 15q-54 14 -85 14q-45 0 -84 -19q20 -50 65 -78.5t104 -28.5q62 0 108.5 31t65.5 86z"></glyph><glyph glyph-name="uni0473" unicode="ѳ" d="M576 250q2 -108 -79.5 -186t-193.5 -76q-113 0 -192.5 76t-79.5 186t79.5 186t192.5 76q112 2 193.5 -76t79.5 -186zM201 300q24 11 44 11q24 0 58 -10q36 -10 60 -10q19 0 43 10q-13 31 -40 48.5t-63 17.5q-77 0 -102 -67zM407 202q-25 -11 -45 -11q-25 0 -59 10t-58 10 q-20 0 -45 -11q25 -67 103 -67q37 0 64.5 18t39.5 51z"></glyph><glyph glyph-name="uni0474" unicode="Ѵ" d="M675 658v-147q-24 3 -38 3q-25 0 -40.5 -13.5t-30.5 -44.5l-209 -468h-55l-300 672h195l134 -327l84 206q27 68 69.5 100.5t108.5 32.5q43 0 82 -14z"></glyph><glyph glyph-name="uni0475" unicode="ѵ" d="M566 500v-144h-31q-39 0 -57 -37l-165 -331h-55l-256 512h182l102 -225l53 118q28 62 62.5 90.5t88.5 28.5q42 0 76 -12z"></glyph><glyph glyph-name="uni0490" unicode="Ґ" d="M66 0v660h253v141h162v-296h-243v-505h-172z"></glyph><glyph glyph-name="uni0491" unicode="ґ" d="M60 0v500h225v141h162v-285h-215v-356h-172z"></glyph><glyph glyph-name="uni0492" unicode="Ғ" d="M484 505h-246v-126h146v-144h-146v-235h-172v235h-76v144h76v281h418v-155z"></glyph><glyph glyph-name="uni0493" unicode="ғ" d="M447 356h-215v-71h111v-134h-111v-151h-172v151h-70v134h70v215h387v-144z"></glyph><glyph glyph-name="uni0496" unicode="Җ" d="M890 155h114v-296h-162v141h-42l-211 326v-326h-172v326l-211 -326h-204l246 344l-229 316h200l198 -297v297h172v-297l198 297h200l-229 -316z"></glyph><glyph glyph-name="uni0497" unicode="җ" d="M794 144h98v-285h-162v141h-29l-170 253v-253h-172v253l-170 -253h-189l178 270l-166 230h199l148 -210v210h172v-210l148 210h199l-167 -230z"></glyph><glyph glyph-name="uni0498" unicode="Ҙ" d="M560 197q0 -97 -69.5 -153t-191.5 -56q-92 0 -162 41.5t-105 116.5l119 84q56 -84 147 -84q43 0 68.5 15.5t25.5 45.5q0 25 -20 39.5t-56 14.5h-93v138h73q33 0 52 15.5t19 40.5q0 27 -20.5 43t-54.5 16q-78 0 -121 -84l-119 84q74 158 252 158q108 0 169.5 -52.5 t61.5 -147.5q0 -81 -60 -130q85 -47 85 -145zM159 -183v112q18 -1 63 -1q24 0 37.5 13.5t13.5 37.5v48l66 28q68 -38 68 -112q0 -59 -47 -97t-124 -38q-40 0 -77 9z"></glyph><glyph glyph-name="uni0499" unicode="ҙ" d="M471 149q0 -161 -216 -161q-155 0 -230 91l92 103q49 -49 125 -49q64 0 64 31q0 28 -46 28h-72v120h62q36 0 36 27q0 28 -45 28q-64 0 -114 -44l-92 103q77 86 217 86q97 0 149 -39.5t52 -113.5q0 -61 -45 -104q63 -41 63 -106zM118 -183v112q18 -1 63 -1q24 0 37.5 13.5 t13.5 37.5v48l66 28q68 -38 68 -112q0 -59 -47 -97t-124 -38q-39 0 -77 9z"></glyph><glyph glyph-name="uni049A" unicode="Қ" d="M575 155h118v-296h-162v141h-42l-251 329v-329h-172v660h172v-299l218 299h200l-227 -313z"></glyph><glyph glyph-name="uni049B" unicode="қ" d="M499 144h100v-285h-162v141h-29l-176 255v-255h-172v500h172v-212l164 212h191l-180 -226z"></glyph><glyph glyph-name="uni04A0" unicode="Ҡ" d="M863 0h-204l-251 329v-329h-172v505h-226v155h398v-299l218 299h200l-227 -314z"></glyph><glyph glyph-name="uni04A1" unicode="ҡ" d="M739 0h-191l-180 260v-260h-172v356h-186v144h358v-218l168 218h191l-179 -226z"></glyph><glyph glyph-name="uni04A2" unicode="Ң" d="M582 -141v141h-103v264h-241v-264h-172v660h172v-241h241v241h172v-505h93v-296h-162z"></glyph><glyph glyph-name="uni04A3" unicode="ң" d="M461 -141v141h-83v183h-146v-183h-172v500h172v-173h146v173h172v-356h73v-285h-162z"></glyph><glyph glyph-name="uni04AA" unicode="Ҫ" d="M32 330q-2 142 104 243.5t253 98.5q99 0 178 -46.5t124 -130.5l-131 -89q-64 108 -172 108q-79 0 -129.5 -51t-50.5 -134q0 -81 50 -133q52 -50 130 -50q108 0 172 108l131 -89q-45 -84 -124 -130.5t-179 -46.5q-146 -2 -252.5 99t-103.5 243zM243 -183v112q18 -1 63 -1 q24 0 37.5 13.5t13.5 37.5v48l66 28q68 -38 68 -112q0 -59 -47 -97t-124 -38q-40 0 -77 9z"></glyph><glyph glyph-name="uni04AB" unicode="ҫ" d="M31 250q-2 108 79.5 186t193.5 76q76 0 134.5 -35.5t89.5 -98.5l-119 -91q-42 67 -103 67q-45 0 -72 -29t-27 -75t27 -75t72 -29q60 0 103 66l119 -90q-31 -63 -89.5 -98.5t-134.5 -35.5q-112 -2 -193.5 76t-79.5 186zM155 -183v112q18 -1 63 -1q24 0 37.5 13.5 t13.5 37.5v48l66 28q68 -38 68 -112q0 -59 -47 -97t-124 -38q-40 0 -77 9z"></glyph><glyph glyph-name="uni04AE" unicode="Ү" d="M627 660l-226 -407v-253h-172v251l-227 409h190l123 -230l123 230h189z"></glyph><glyph glyph-name="uni04AF" unicode="ү" d="M569 500l-198 -500v-180h-172v180l-197 500h182l102 -321l101 321h182z"></glyph><glyph glyph-name="uni04B0" unicode="Ұ" d="M627 660l-223 -402h137v-144h-140v-114h-172v114h-140v144h136l-223 402h190l123 -230l123 230h189z"></glyph><glyph glyph-name="uni04B1" unicode="ұ" d="M569 500l-196 -500h120v-133h-122v-47h-172v47h-121v133h120l-196 500h182l102 -321l101 321h182z"></glyph><glyph glyph-name="uni04B2" unicode="Ҳ" d="M523 155h108v-296h-162v141h-42l-116 185l-115 -185h-194l215 335l-203 325h194l103 -176l103 176h194l-200 -325z"></glyph><glyph glyph-name="uni04B3" unicode="ҳ" d="M451 144h102v-285h-162v141h-29l-86 131l-85 -131h-191l181 257l-171 243h191l75 -118l76 118h191l-171 -243z"></glyph><glyph glyph-name="uni04B6" unicode="Ҷ" d="M600 155h93v-296h-162v141h-103v229q-57 -21 -124 -21q-123 0 -193.5 70.5t-70.5 197.5v184h172v-167q0 -65 30 -96t97 -31q52 0 89 14v280h172v-505z"></glyph><glyph glyph-name="uni04B7" unicode="ҷ" d="M511 144h83v-285h-162v141h-93v170q-45 -20 -97 -20q-101 0 -156 61.5t-55 170.5v118h172v-104q0 -91 75 -91q35 0 61 13v182h172v-356z"></glyph><glyph glyph-name="uni04BA" unicode="Һ" d="M626 184v-184h-172v167q0 65 -30 96t-97 31q-52 0 -89 -14v-280h-172v660h172v-229q57 21 124 21q123 0 193.5 -70.5t70.5 -197.5z"></glyph><glyph glyph-name="uni04BB" unicode="һ" d="M545 308v-308h-172v283q0 33 -20.5 53.5t-52.5 20.5t-52 -20.5t-20 -53.5v-283h-172v750h172v-285q53 47 130 47q83 0 135 -56.5t52 -147.5z"></glyph><glyph glyph-name="uni04C0" unicode="Ӏ" d="M66 0v660h172v-660h-172z"></glyph><glyph glyph-name="uni04C1" unicode="Ӂ" d="M1004 0h-204l-211 326v-326h-172v326l-211 -326h-204l246 344l-229 316h200l198 -297v297h172v-297l198 297h200l-229 -316zM317 901v9h135v-14q0 -60 51 -60t51 60v14h135v-9q0 -82 -52 -134t-134 -52t-134 52t-52 134z"></glyph><glyph glyph-name="uni04C2" unicode="ӂ" d="M886 0h-202l-160 242v-242h-172v242l-160 -242h-192l173 259l-168 241h199l148 -219v219h172v-219l148 219h199l-163 -233zM252 755v25h135v-25q0 -65 51 -65t51 65v25h135v-25q0 -82 -52 -134t-134 -52t-134 52t-52 134z"></glyph><glyph glyph-name="uni04CF" unicode="ӏ" d="M60 0v750h172v-750h-172z"></glyph><glyph glyph-name="uni04D0" unicode="Ӑ" d="M472 0l-24 55h-237l-24 -55h-185l300 672h55l300 -672h-185zM387 193l-57 153l-58 -153h115zM144 901v9h135v-14q0 -60 51 -60t51 60v14h135v-9q0 -82 -52 -134t-134 -52t-134 52t-52 134z"></glyph><glyph glyph-name="uni04D1" unicode="ӑ" d="M503 290v-290h-157v41q-56 -53 -144 -53q-79 0 -125.5 44.5t-46.5 110.5q0 70 52.5 109.5t143.5 39.5h105v8q0 64 -76 64q-33 0 -60.5 -14t-64.5 -47l-80 109q99 100 226 100q106 0 166.5 -57.5t60.5 -164.5zM331 183v4h-81q-46 0 -46 -38q0 -18 13.5 -28.5t37.5 -10.5 q34 0 55 20t21 53zM93 755v25h135v-25q0 -65 51 -65t51 65v25h135v-25q0 -82 -52 -134t-134 -52t-134 52t-52 134z"></glyph><glyph glyph-name="uni04D4" unicode="Ӕ" d="M590 155h242v-155h-381l-10 55h-228l-28 -55h-185l334 660h486v-155h-287l15 -91h190v-144h-167zM383 415l-103 -222h137z"></glyph><glyph glyph-name="uni04D5" unicode="ӕ" d="M826 189h-319q29 -56 110 -56q67 0 131 39l62 -117q-88 -67 -198 -67q-129 0 -203 88q-61 -88 -191 -88q-91 0 -139.5 42.5t-48.5 111.5q0 71 52.5 111.5t143.5 40.5h105v6q0 64 -75 64q-32 0 -60 -14t-66 -47l-80 109q99 100 226 100q103 0 164 -55q64 55 158 55 q106 0 172.5 -69t66.5 -168q0 -44 -11 -86zM498 294h176q-1 38 -23.5 60.5t-58.5 22.5q-34 0 -59 -22t-35 -61zM331 183v6h-81q-46 0 -46 -39q0 -40 50 -40q34 0 55.5 20t21.5 53z"></glyph><glyph glyph-name="uni04D6" unicode="Ӗ" d="M66 0v660h458v-155h-286v-91h204v-144h-204v-115h298v-155h-470zM103 901v9h135v-14q0 -60 51 -60t51 60v14h135v-9q0 -82 -52 -134t-134 -52t-134 52t-52 134z"></glyph><glyph glyph-name="uni04D7" unicode="ӗ" d="M526 190h-320q28 -57 112 -57q66 0 131 39l62 -117q-88 -67 -199 -67q-122 0 -201.5 75t-79.5 187q0 110 77.5 186t189.5 76q106 0 172.5 -69t66.5 -168q0 -43 -11 -85zM200 302h174q-1 33 -25 54t-58 21q-33 0 -57 -19.5t-34 -55.5zM98 755v25h135v-25q0 -65 51 -65 t51 65v25h135v-25q0 -82 -52 -134t-134 -52t-134 52t-52 134z"></glyph><glyph glyph-name="uni04D8" unicode="Ә" d="M702 331q3 -142 -102.5 -243.5t-248.5 -99.5q-138 0 -228.5 87.5t-90.5 220.5q0 60 11 96h477q-15 58 -59 90.5t-108 32.5q-97 0 -168 -96l-116 100q105 153 283 153q148 2 250 -98t100 -243zM516 257h-318q5 -54 50 -83q46 -28 105 -28q58 0 101 29.5t62 81.5z"></glyph><glyph glyph-name="uni04D9" unicode="ә" d="M537 250q0 -110 -77.5 -186t-189.5 -76q-106 0 -172.5 69t-66.5 168q0 43 11 85h320q-28 57 -112 57q-66 0 -131 -39l-62 117q88 67 199 67q122 0 201.5 -75t79.5 -187zM368 198h-174q1 -33 25 -54t58 -21q33 0 57 19.5t34 55.5z"></glyph><glyph glyph-name="uni04E2" unicode="Ӣ" d="M596 672h55v-672h-172v343l-358 -355h-55v672h172v-339zM221 745v134h340v-134h-340z"></glyph><glyph glyph-name="uni04E3" unicode="ӣ" d="M495 512h55v-512h-172v225l-263 -237h-55v512h172v-225zM155 610v134h320v-134h-320z"></glyph><glyph glyph-name="uni04E6" unicode="Ӧ" d="M32 330q-3 141 103.5 243t251.5 99q145 3 252.5 -99t104.5 -243q3 -142 -104.5 -243t-252.5 -99q-146 -2 -252 99t-103 243zM568 330q0 81 -51.5 132.5t-128.5 51.5q-80 0 -130 -51t-50 -133t50 -134q50 -50 130 -50q78 0 129 51t51 133zM153 817q0 39 29 66q29 28 68 28 q41 0 69.5 -27t28.5 -67q0 -37 -29 -65t-69 -28q-38 0 -67 28q-30 28 -30 65zM428 816q0 39 29 66q29 28 68 28q41 0 69.5 -27t28.5 -67q0 -37 -29 -65t-69 -28q-38 0 -67 28q-30 29 -30 65z"></glyph><glyph glyph-name="uni04E7" unicode="ӧ" d="M31 250q-2 107 79 185.5t193 76.5q112 2 193.5 -76.5t79.5 -185.5q2 -107 -79.5 -185.5t-193.5 -76.5q-112 -2 -193 76.5t-79 185.5zM400 250q0 45 -27.5 74.5t-68.5 29.5q-43 0 -70 -29t-27 -75q0 -47 27 -75.5t70 -28.5q42 0 69 29.5t27 74.5zM79 678q0 38 29 65.5 t70 27.5q39 0 67.5 -27.5t28.5 -65.5q0 -39 -28.5 -66.5t-67.5 -27.5q-41 0 -70 27.5t-29 66.5zM334 678q0 38 29 65.5t70 27.5q39 0 67.5 -27.5t28.5 -65.5q0 -39 -28.5 -66.5t-67.5 -27.5q-41 0 -70 27.5t-29 66.5z"></glyph><glyph glyph-name="uni04E8" unicode="Ө" d="M744 330q3 -142 -104.5 -243t-252.5 -99q-146 -2 -252 99t-103 243q-3 141 103.5 243t251.5 99q145 3 252.5 -99t104.5 -243zM219 412h338q-22 50 -67 78.5t-103 28.5q-59 0 -103.5 -28.5t-64.5 -78.5zM565 268h-354q17 -59 64 -93t112 -34t112.5 34t65.5 93z"></glyph><glyph glyph-name="uni04E9" unicode="ө" d="M576 250q2 -108 -79.5 -186t-193.5 -76q-113 0 -192.5 76t-79.5 186t79.5 186t192.5 76q112 2 193.5 -76t79.5 -186zM203 306h201q-30 61 -101 61q-73 0 -100 -61zM404 194h-201q27 -61 100 -61q74 0 101 61z"></glyph><glyph glyph-name="uni04EE" unicode="Ӯ" d="M451 660h186l-217 -488q-30 -67 -56 -103t-69.5 -57.5t-110.5 -23.5q-44 0 -90 12v146q46 -2 54 -2q52 0 87 27l-233 489h192l134 -307zM163 745v134h340v-134h-340z"></glyph><glyph glyph-name="uni04EF" unicode="ӯ" d="M388 500h182l-235 -527q-39 -86 -90.5 -125.5t-127.5 -39.5q-47 0 -96 12v144q13 0 27 -0.5t21 -1t10 -0.5q38 0 60.5 12.5t37.5 46.5l8 17l-183 462h183l96 -281zM126 610v134h320v-134h-320z"></glyph><glyph glyph-name="uni04F2" unicode="Ӳ" d="M451 660h186l-217 -488q-30 -67 -56 -103t-69.5 -57.5t-110.5 -23.5q-44 0 -90 12v146q46 -2 54 -2q52 0 87 27l-233 489h192l134 -307zM139 724l64 186h177v-30l-127 -156h-114zM388 724l64 186h177v-30l-127 -156h-114z"></glyph><glyph glyph-name="uni04F3" unicode="ӳ" d="M388 500h182l-235 -527q-39 -86 -90.5 -125.5t-127.5 -39.5q-47 0 -96 12v144q13 0 27 -0.5t21 -1t10 -0.5q38 0 60.5 12.5t37.5 46.5l8 17l-183 462h183l96 -281zM111 574l64 206h177v-30l-127 -176h-114zM340 574l64 206h177v-30l-127 -176h-114z"></glyph><glyph glyph-name="Wgrave" unicode="Ẁ" d="M811 660h192l-272 -672h-55l-168 345l-169 -345h-55l-272 672h192l124 -317l152 329h55l152 -329zM445 724l-147 156v30h207l64 -186h-124z"></glyph><glyph glyph-name="wgrave" unicode="ẁ" d="M677 500h182l-246 -512h-55l-127 239l-128 -239h-55l-246 512h182l103 -233l116 245h55l119 -238zM370 574l-147 176v30h207l64 -206h-124z"></glyph><glyph glyph-name="Wacute" unicode="Ẃ" d="M811 660h192l-272 -672h-55l-168 345l-169 -345h-55l-272 672h192l124 -317l152 329h55l152 -329zM440 724l64 186h207v-30l-147 -156h-124z"></glyph><glyph glyph-name="wacute" unicode="ẃ" d="M677 500h182l-246 -512h-55l-127 239l-128 -239h-55l-246 512h182l103 -233l116 245h55l119 -238zM368 574l64 206h207v-30l-147 -176h-124z"></glyph><glyph glyph-name="Wdieresis" unicode="Ẅ" d="M811 660h192l-272 -672h-55l-168 345l-169 -345h-55l-272 672h192l124 -317l152 329h55l152 -329zM273 817q0 39 29 66q29 28 68 28q41 0 69.5 -27t28.5 -67q0 -37 -29 -65t-69 -28q-38 0 -67 28q-30 28 -30 65zM548 816q0 39 29 66q29 28 68 28q41 0 69.5 -27t28.5 -67 q0 -37 -29 -65t-69 -28q-38 0 -67 28q-30 29 -30 65z"></glyph><glyph glyph-name="wdieresis" unicode="ẅ" d="M677 500h182l-246 -512h-55l-127 239l-128 -239h-55l-246 512h182l103 -233l116 245h55l119 -238zM206 678q0 38 29 65.5t70 27.5q39 0 67.5 -27.5t28.5 -65.5q0 -39 -28.5 -66.5t-67.5 -27.5q-41 0 -70 27.5t-29 66.5zM461 678q0 38 29 65.5t70 27.5q39 0 67.5 -27.5 t28.5 -65.5q0 -39 -28.5 -66.5t-67.5 -27.5q-41 0 -70 27.5t-29 66.5z"></glyph><glyph glyph-name="uni1E9E" unicode="ẞ" d="M714 214q0 -102 -68.5 -164t-168.5 -62q-114 0 -200 81l87 123q50 -47 102 -47q34 0 54.5 19.5t20.5 52.5q0 72 -117 72h-80v42l88 174h-194v-505h-172v660h598v-45l-96 -192q66 -22 106 -76.5t40 -132.5z"></glyph><glyph glyph-name="Ygrave" unicode="Ỳ" d="M627 660l-226 -407v-253h-172v251l-227 409h190l123 -230l123 230h189zM252 724l-147 156v30h207l64 -186h-124z"></glyph><glyph glyph-name="ygrave" unicode="ỳ" d="M388 500h182l-235 -527q-39 -86 -90.5 -125.5t-127.5 -39.5q-47 0 -96 12v144q13 0 27 -0.5t21 -1t10 -0.5q38 0 60.5 12.5t37.5 46.5l8 17l-183 462h183l96 -281zM226 574l-147 176v30h207l64 -206h-124z"></glyph><glyph glyph-name="uni2009" unicode=" "></glyph><glyph glyph-name="endash" unicode="–" d="M30 253v144h440v-144h-440z"></glyph><glyph glyph-name="emdash" unicode="—" d="M50 253v144h900v-144h-900z"></glyph><glyph glyph-name="uni2015" unicode="―" d="M50 253v144h900v-144h-900z"></glyph><glyph glyph-name="quoteleft" unicode="‘" d="M44 368l65 292h130v-292h-195z"></glyph><glyph glyph-name="quoteright" unicode="’" d="M76 368v292h195l-65 -292h-130z"></glyph><glyph glyph-name="quotesinglbase" unicode="‚" d="M76 -147v292h195l-65 -292h-130z"></glyph><glyph glyph-name="quotedblleft" unicode="“" d="M44 368l65 292h130v-292h-195zM316 368l65 292h130v-292h-195z"></glyph><glyph glyph-name="quotedblright" unicode="”" d="M76 368v292h195l-65 -292h-130zM348 368v292h195l-65 -292h-130z"></glyph><glyph glyph-name="quotedblbase" unicode="„" d="M76 -147v292h195l-65 -292h-130zM348 -147v292h195l-65 -292h-130z"></glyph><glyph glyph-name="dagger" unicode="†" d="M166 198v255h-129v144h129v153h172v-153h129v-144h-129v-255h-172z"></glyph><glyph glyph-name="daggerdbl" unicode="‡" d="M166 95v123h-129v144h129v121h-129v144h129v123h172v-123h129v-144h-129v-121h129v-144h-129v-123h-172z"></glyph><glyph glyph-name="bullet" unicode="•" d="M47 274q0 74 53.5 125.5t129.5 51.5t129 -51.5t53 -125.5t-53 -125.5t-129 -51.5t-129.5 51.5t-53.5 125.5z"></glyph><glyph glyph-name="ellipsis" unicode="…" d="M293 100q0 48 32 80t82 32q48 0 79.5 -32t31.5 -80t-31.5 -80t-79.5 -32q-50 0 -82 32t-32 80zM28 100q0 48 32 80t82 32q48 0 79.5 -32t31.5 -80t-31.5 -80t-79.5 -32q-50 0 -82 32t-32 80zM558 100q0 48 32 80t82 32q48 0 79.5 -32t31.5 -80t-31.5 -80t-79.5 -32 q-50 0 -82 32t-32 80z"></glyph><glyph glyph-name="perthousand" unicode="‰" d="M50 506q0 71 51 118.5t124 47.5t124 -47.5t51 -118.5q0 -70 -51.5 -118.5t-123.5 -48.5t-123.5 48.5t-51.5 118.5zM179 0l381 660h135l-382 -660h-134zM270 506q0 22 -12.5 36t-31.5 14q-21 0 -33.5 -13.5t-12.5 -36.5t12 -36.5t34 -13.5q19 0 31.5 13.5t12.5 36.5z M839 157q0 71 51 118.5t124 47.5t124 -47.5t51 -118.5q0 -70 -51.5 -118.5t-123.5 -48.5t-123.5 48.5t-51.5 118.5zM473 156q0 71 51 118.5t124 47.5t124 -47.5t51 -118.5q0 -70 -51.5 -118.5t-123.5 -48.5t-123.5 48.5t-51.5 118.5zM1059 157q0 22 -12.5 36t-31.5 14 q-21 0 -33.5 -13.5t-12.5 -36.5t12 -36.5t34 -13.5q19 0 31.5 13.5t12.5 36.5zM693 156q0 22 -12.5 36t-31.5 14q-21 0 -33.5 -13.5t-12.5 -36.5t12 -36.5t34 -13.5q19 0 31.5 13.5t12.5 36.5z"></glyph><glyph glyph-name="minute" unicode="′" d="M65 368l32 292h195l-97 -292h-130z"></glyph><glyph glyph-name="second" unicode="″" d="M65 368l32 292h195l-97 -292h-130zM337 368l32 292h195l-97 -292h-130z"></glyph><glyph glyph-name="guilsinglleft" unicode="‹" d="M229 29l-206 222v45l206 223l109 -95l-130 -150l130 -150z"></glyph><glyph glyph-name="guilsinglright" unicode="›" d="M134 29l-109 95l130 150l-130 150l109 95l206 -223v-45z"></glyph><glyph glyph-name="fraction" unicode="⁄" d="M-128 0l381 660h135l-382 -660h-134z"></glyph><glyph glyph-name="uni2070" unicode="⁰" d="M37 575q0 96 47 154.5t130 58.5q86 0 132 -60q46 -58 46 -153q0 -96 -47 -158q-46 -61 -131 -61t-131 61t-46 158zM267 574q0 102 -53 102q-52 0 -52 -102q0 -106 52 -106q53 0 53 106z"></glyph><glyph glyph-name="uni2074" unicode="⁴" d="M381 522v-100h-45v-58h-112v58h-215v32l121 326h126l-97 -258h66l2 95h109v-95h45z"></glyph><glyph glyph-name="uni2075" unicode="⁵" d="M343 506q0 -64 -48.5 -107t-121.5 -43q-57 0 -101 27.5t-65 75.5l84 59q19 -27 36 -38.5t40 -11.5q51 0 51 36q0 33 -64 33h-100v243h268v-110h-152v-33q15 4 35 4q53 0 95.5 -38t42.5 -97z"></glyph><glyph glyph-name="uni2076" unicode="⁶" d="M351 513q0 -67 -49 -112t-115 -45t-115 45.5t-49 113.5q0 32 12.5 59.5t44.5 68.5l104 137h143l-92 -122q47 -11 81 -49q35 -40 35 -96zM231 513q0 19 -13 32t-31 13t-31 -13t-13 -32t13 -32t31 -13t31 13t13 32z"></glyph><glyph glyph-name="uni2077" unicode="⁷" d="M30 780h306v-32l-169 -384h-132l141 306h-146v110z"></glyph><glyph glyph-name="uni2078" unicode="⁸" d="M362 480q0 -57 -46.5 -90.5t-119.5 -33.5t-119.5 33.5t-46.5 90.5q0 67 67 98q-49 36 -49 93q0 54 41 85.5t107 31.5t107 -31.5t41 -85.5q0 -56 -49 -93q67 -31 67 -98zM159 665q0 -19 37 -37q37 18 37 37q0 12 -10.5 19.5t-26.5 7.5t-26.5 -7.5t-10.5 -19.5zM241 485 q0 26 -45 43q-46 -18 -46 -43q0 -32 46 -32q45 0 45 32z"></glyph><glyph glyph-name="uni2079" unicode="⁹" d="M351 629q0 -32 -12.5 -59.5t-44.5 -68.5l-104 -137h-143l92 122q-47 11 -81 49q-35 40 -35 96q0 67 49 112t115 45t115 -45.5t49 -113.5zM231 631q0 19 -13 32t-31 13t-31 -13t-13 -32t13 -32t31 -13t31 13t13 32z"></glyph><glyph glyph-name="uni207A" unicode="⁺" d="M150 389v127h-123v112h123v127h126v-127h123v-112h-123v-127h-126z"></glyph><glyph glyph-name="uni207B" unicode="⁻" d="M27 516v112h372v-112h-372z"></glyph><glyph glyph-name="uni207C" unicode="⁼" d="M35 601v111h356v-111h-356zM35 433v113h356v-113h-356z"></glyph><glyph glyph-name="uni207D" unicode="⁽" d="M42 572q0 125 48 210.5t131 121.5l52 -77q-119 -80 -119 -255q0 -177 119 -257l-52 -75q-82 34 -130.5 120.5t-48.5 211.5z"></glyph><glyph glyph-name="uni207E" unicode="⁾" d="M68 240l-52 75q119 81 119 257q0 177 -119 255l52 77q82 -35 130.5 -121t48.5 -211q0 -126 -48.5 -212t-130.5 -120z"></glyph><glyph glyph-name="uni2080" unicode="₀" d="M37 91q0 96 47 154.5t130 58.5q86 0 132 -60q46 -58 46 -153t-47 -157t-131 -62t-131 62q-46 61 -46 157zM267 90q0 102 -53 102q-52 0 -52 -102q0 -106 52 -106q53 0 53 106z"></glyph><glyph glyph-name="uni2081" unicode="₁" d="M39 -120v110h102v196h-91v110h213v-306h83v-110h-307z"></glyph><glyph glyph-name="uni2082" unicode="₂" d="M253 -10h104v-110l-325 -1v25l149 164q45 50 45 85q0 39 -35 39q-34 0 -34 -41q0 -1 0.5 -4t1 -9.5t0.5 -13.5h-122q-4 15 -4 35q0 58 45 101.5t115 43.5q68 0 112 -40q46 -39 46 -100q0 -73 -91 -167z"></glyph><glyph glyph-name="uni2083" unicode="₃" d="M334 20q0 -62 -48 -105t-118 -43q-56 0 -98.5 27.5t-63.5 75.5l84 59q32 -50 73 -50q46 0 46 36q0 33 -64 33h-53v30l66 103h-117v110h288v-32l-77 -119q37 -16 59.5 -49t22.5 -76z"></glyph><glyph glyph-name="uni2084" unicode="₄" d="M381 38v-100h-45v-58h-112v58h-215v32l121 326h126l-97 -258h66l2 95h109v-95h45z"></glyph><glyph glyph-name="uni2085" unicode="₅" d="M343 22q0 -64 -48.5 -107t-121.5 -43q-57 0 -101 27.5t-65 75.5l84 59q19 -27 36 -38.5t40 -11.5q51 0 51 36q0 33 -64 33h-100v243h268v-110h-152v-33q15 4 35 4q53 0 95.5 -38t42.5 -97z"></glyph><glyph glyph-name="uni2086" unicode="₆" d="M351 29q0 -67 -49 -112t-115 -45t-115 45.5t-49 113.5q0 32 12.5 59.5t44.5 68.5l104 137h143l-92 -122q47 -11 81 -49q35 -40 35 -96zM231 29q0 19 -13 32t-31 13t-31 -13t-13 -32t13 -32t31 -13t31 13t13 32z"></glyph><glyph glyph-name="uni2087" unicode="₇" d="M30 296h306v-32l-169 -384h-132l141 306h-146v110z"></glyph><glyph glyph-name="uni2088" unicode="₈" d="M362 -4q0 -57 -46.5 -90.5t-119.5 -33.5t-119.5 33.5t-46.5 90.5q0 67 67 98q-49 36 -49 93q0 54 41 85.5t107 31.5t107 -31.5t41 -85.5q0 -56 -49 -93q67 -31 67 -98zM159 181q0 -19 37 -37q37 18 37 37q0 12 -10.5 19.5t-26.5 7.5t-26.5 -7.5t-10.5 -19.5zM241 1 q0 26 -45 43q-46 -18 -46 -43q0 -32 46 -32q45 0 45 32z"></glyph><glyph glyph-name="uni2089" unicode="₉" d="M351 145q0 -32 -12.5 -59.5t-44.5 -68.5l-104 -137h-143l92 122q-47 11 -81 49q-35 40 -35 96q0 67 49 112t115 45t115 -45.5t49 -113.5zM231 147q0 19 -13 32t-31 13t-31 -13t-13 -32t13 -32t31 -13t31 13t13 32z"></glyph><glyph glyph-name="uni208A" unicode="₊" d="M150 -96v127h-123v112h123v127h126v-127h123v-112h-123v-127h-126z"></glyph><glyph glyph-name="uni208B" unicode="₋" d="M27 31v112h372v-112h-372z"></glyph><glyph glyph-name="uni208C" unicode="₌" d="M35 116v111h356v-111h-356zM35 -52v113h356v-113h-356z"></glyph><glyph glyph-name="uni208D" unicode="₍" d="M42 87q0 125 48 210.5t131 121.5l52 -77q-119 -80 -119 -255q0 -177 119 -257l-52 -75q-82 34 -130.5 120.5t-48.5 211.5z"></glyph><glyph glyph-name="uni208E" unicode="₎" d="M68 -245l-52 75q119 81 119 257q0 177 -119 255l52 77q82 -35 130.5 -121t48.5 -211q0 -126 -48.5 -212t-130.5 -120z"></glyph><glyph glyph-name="lira" unicode="₤" d="M311 134h241v-134h-520v35q99 80 120 131h-110v104h113q-8 24 -20 44h-93v104h46q-6 24 -6 51q0 91 67 147t168 56q92 0 156.5 -49t88.5 -143l-141 -51q-27 85 -92 85q-34 0 -53.5 -20.5t-19.5 -54.5q0 -3 2 -21h163v-104h-111q14 -30 18 -44h93v-104h-95q-6 -19 -15 -32 z"></glyph><glyph glyph-name="peseta" unicode="₧" d="M649 465v-134h-76q-23 -91 -101 -144q-78 -54 -186 -54h-28v-133h-172v331h-76v134h76v195h200q109 0 186 -52q79 -53 101 -143h76zM287 520h-29v-66h148q-28 66 -119 66zM407 342h-149v-69h29q92 0 120 69z"></glyph><glyph glyph-name="Euro" unicode="€" d="M522 213l119 -91q-33 -61 -101.5 -97.5t-152.5 -36.5q-104 0 -181.5 54.5t-111.5 149.5h-94v114h71q-1 5 -1 25v19h-70v114h92q33 96 111 152t184 56q84 0 152.5 -36.5t101.5 -97.5l-119 -91q-49 67 -130 67q-67 0 -106 -50h192l-32 -114h-199q-1 -5 -1 -20q0 -19 1 -24 h187l-32 -114h-113q40 -46 103 -46q81 0 130 67z"></glyph><glyph glyph-name="uni20AE" unicode="₮" d="M578 505h-198v-73l147 36v-139l-147 -36v-44l147 36v-139l-147 -36v-110h-172v77l-147 -36v139l147 36v44l-147 -36v139l147 36v106h-198v155h568v-155z"></glyph><glyph glyph-name="uni20B4" unicode="₴" d="M490 464h49v-114h-539v114h313q1 2 1 10q0 40 -56 40q-61 0 -120 -41l-82 118q75 81 203 81q104 0 167.5 -54t63.5 -143v-11zM0 192v114h539v-114h-331q0 -46 66 -46q86 0 156 40l72 -122q-95 -76 -228 -76q-112 0 -176.5 54.5t-65.5 149.5h-32z"></glyph><glyph glyph-name="uni20B8" unicode="₸" d="M10 505v155h568v-155h-568zM208 0v306h-198v155h568v-155h-198v-306h-172z"></glyph><glyph glyph-name="uni20B9" unicode="₹" d="M479 546h-98q13 -24 21 -54h77v-114h-77q-24 -112 -140 -154l217 -224h-214l-198 205v124h68q62 0 86 49h-154v114h154q-25 48 -86 48h-68v120h412v-114z"></glyph><glyph glyph-name="uni20BA" unicode="₺" d="M529 249q0 -125 -96 -192.5t-273 -67.5h-79v207l-77 -35v139l77 35v44l-77 -35v139l77 35v142h172v-74l157 72v-139l-157 -72v-44l157 72v-139l-157 -72v-113q61 10 95.5 39.5t34.5 73.5q0 30 -1 40h140q7 -22 7 -55z"></glyph><glyph glyph-name="uni20BD" unicode="₽" d="M86 0v82h-76v134h76v44h-76v144h76v256h273q96 0 159 -53t63 -146t-63 -147t-159 -54h-101v-44h244v-134h-244v-82h-172zM258 404h88q25 0 42.5 14.5t17.5 40.5t-17 41.5t-43 15.5h-88v-112z"></glyph><glyph glyph-name="uni20BF" unicode="₿" d="M415 45v-144h-119v133h-49v-133h-119v133h-62v592h62v122h119v-122h49v122h119v-151q85 -50 85 -146q0 -64 -42 -106q84 -43 84 -135q0 -59 -34.5 -103t-92.5 -62zM290 496h-76v-104h76q27 0 43 14t16 38t-16 38t-43 14zM392 216q0 25 -15.5 38.5t-43.5 13.5h-119v-104 h119q28 0 43.5 13.5t15.5 38.5z"></glyph><glyph glyph-name="uni2113" unicode="ℓ" d="M370 142q20 0 75 6l30 3v-144q-69 -19 -139 -19q-201 0 -220 167l-31 -17q-1 0 -3.5 -2t-7.5 -5t-11 -6l-73 135l123 76v193q0 116 56 174.5t158 58.5q187 0 187 -192q0 -95 -51.5 -168.5t-177.5 -159.5v-28q0 -38 20.5 -55t64.5 -17zM285 536v-104q47 36 65 65.5 t18 65.5q0 55 -36 55q-47 0 -47 -82z"></glyph><glyph glyph-name="uni2116" unicode="№" d="M479 330v330h172v-672h-55l-358 347v-335h-172v672h55zM740 403q0 71 51 118.5t124 47.5t124 -47.5t51 -118.5q0 -70 -51.5 -118.5t-123.5 -48.5t-123.5 48.5t-51.5 118.5zM868 403q0 -23 12.5 -36.5t34.5 -13.5t34.5 13.5t12.5 36.5t-12.5 36.5t-34.5 13.5t-34.5 -13.5 t-12.5 -36.5zM751 70v104h328v-104h-328z"></glyph><glyph glyph-name="uni2117" unicode="℗" d="M32 329q-3 141 105 243t250 100q143 3 251.5 -99.5t105.5 -242.5q3 -140 -105.5 -242.5t-251.5 -99.5q-92 -1 -175 44t-132.5 125t-47.5 172zM639 329q2 109 -75 179t-178 68q-100 2 -175.5 -68t-73.5 -179q0 -111 73.5 -178t175.5 -67q103 0 178 67.5t75 177.5zM265 156 v349h148q64 0 105.5 -35t41.5 -92t-41.5 -92t-105.5 -35h-41v-95h-107zM372 345h41q37 0 37 33q0 34 -37 34h-41v-67z"></glyph><glyph glyph-name="trademark" unicode="™" d="M457 211v457h45l193 -226l192 226h44v-457h-141v143l-74 -86h-44l-73 85v-142h-142zM133 211v321h-126v128h393v-128h-126v-321h-141z"></glyph><glyph glyph-name="uni2126" unicode="Ω" d="M659 155h80v-155h-294v155q128 62 128 185q0 77 -51 125.5t-131 48.5t-129 -47.5t-49 -124.5q0 -126 128 -187v-155h-294v155h73q-83 80 -83 194q-3 132 103.5 228.5t251.5 94.5q144 2 252 -95.5t105 -227.5q0 -115 -90 -194z"></glyph><glyph glyph-name="estimated" unicode="℮" d="M731 327h-544v-195q76 -104 219 -104q76 0 141.5 31t112.5 85l27 -25q-49 -61 -122.5 -95t-157.5 -34q-146 -2 -248 97.5t-99 238.5q-3 140 101.5 243.5t240.5 100.5q81 2 158 -35t127 -105.5t48 -148.5q0 -33 -4 -54zM187 527v-162h421v177q-75 89 -201 89 q-142 0 -220 -104z"></glyph><glyph glyph-name="uni2150" unicode="⅐" d="M39 244v110h102v196h-91v110h213v-306h83v-110h-307zM254 0l381 660h135l-382 -660h-134zM672 416h306v-32l-169 -384h-132l141 306h-146v110z"></glyph><glyph glyph-name="uni2151" unicode="⅑" d="M39 244v110h102v196h-91v110h213v-306h83v-110h-307zM254 0l381 660h135l-382 -660h-134zM963 265q0 -32 -12.5 -59.5t-44.5 -68.5l-104 -137h-143l92 122q-47 11 -81 49q-35 40 -35 96q0 67 49 112t115 45t115 -45.5t49 -113.5zM843 267q0 19 -13 32t-31 13t-31 -13 t-13 -32t13 -32t31 -13t31 13t13 32z"></glyph><glyph glyph-name="uni2152" unicode="⅒" d="M39 244v110h102v196h-91v110h213v-306h83v-110h-307zM254 0l381 660h135l-382 -660h-134zM681 0v110h102v196h-91v110h213v-306h83v-110h-307zM1061 211q0 96 47 154.5t130 58.5q86 0 132 -60q46 -58 46 -153q0 -96 -47 -158q-46 -61 -131 -61t-131 61t-46 158zM1291 210 q0 102 -53 102q-52 0 -52 -102q0 -106 52 -106q53 0 53 106z"></glyph><glyph glyph-name="uni2153" unicode="⅓" d="M39 244v110h102v196h-91v110h213v-306h83v-110h-307zM254 0l381 660h135l-382 -660h-134zM976 140q0 -62 -48 -105t-118 -43q-56 0 -98.5 27.5t-63.5 75.5l84 59q32 -50 73 -50q46 0 46 36q0 33 -64 33h-53v30l66 103h-117v110h288v-32l-77 -119q37 -16 59.5 -49 t22.5 -76z"></glyph><glyph glyph-name="uni2154" unicode="⅔" d="M253 354h104v-110l-325 -1v25l149 164q45 50 45 85q0 39 -35 39q-34 0 -34 -41q0 -1 0.5 -4t1 -9.5t0.5 -13.5h-122q-4 15 -4 35q0 58 45 101.5t115 43.5q68 0 112 -40q46 -39 46 -100q0 -73 -91 -167zM267 0l381 660h135l-382 -660h-134zM989 140q0 -62 -48 -105 t-118 -43q-56 0 -98.5 27.5t-63.5 75.5l84 59q32 -50 73 -50q46 0 46 36q0 33 -64 33h-53v30l66 103h-117v110h288v-32l-77 -119q37 -16 59.5 -49t22.5 -76z"></glyph><glyph glyph-name="uni2155" unicode="⅕" d="M39 244v110h102v196h-91v110h213v-306h83v-110h-307zM254 0l381 660h135l-382 -660h-134zM977 142q0 -64 -48.5 -107t-121.5 -43q-57 0 -101 27.5t-65 75.5l84 59q19 -27 36 -38.5t40 -11.5q51 0 51 36q0 33 -64 33h-100v243h268v-110h-152v-33q15 4 35 4q53 0 95.5 -38 t42.5 -97z"></glyph><glyph glyph-name="uni2156" unicode="⅖" d="M253 354h104v-110l-325 -1v25l149 164q45 50 45 85q0 39 -35 39q-34 0 -34 -41q0 -1 0.5 -4t1 -9.5t0.5 -13.5h-122q-4 15 -4 35q0 58 45 101.5t115 43.5q68 0 112 -40q46 -39 46 -100q0 -73 -91 -167zM267 0l381 660h135l-382 -660h-134zM990 142q0 -64 -48.5 -107 t-121.5 -43q-57 0 -101 27.5t-65 75.5l84 59q19 -27 36 -38.5t40 -11.5q51 0 51 36q0 33 -64 33h-100v243h268v-110h-152v-33q15 4 35 4q53 0 95.5 -38t42.5 -97z"></glyph><glyph glyph-name="uni2157" unicode="⅗" d="M334 384q0 -62 -48 -105t-118 -43q-56 0 -98.5 27.5t-63.5 75.5l84 59q32 -50 73 -50q46 0 46 36q0 33 -64 33h-53v30l66 103h-117v110h288v-32l-77 -119q37 -16 59.5 -49t22.5 -76zM201 0l381 660h135l-382 -660h-134zM924 142q0 -64 -48.5 -107t-121.5 -43 q-57 0 -101 27.5t-65 75.5l84 59q19 -27 36 -38.5t40 -11.5q51 0 51 36q0 33 -64 33h-100v243h268v-110h-152v-33q15 4 35 4q53 0 95.5 -38t42.5 -97z"></glyph><glyph glyph-name="uni2158" unicode="⅘" d="M381 402v-100h-45v-58h-112v58h-215v32l121 326h126l-97 -258h66l2 95h109v-95h45zM270 0l381 660h135l-382 -660h-134zM993 142q0 -64 -48.5 -107t-121.5 -43q-57 0 -101 27.5t-65 75.5l84 59q19 -27 36 -38.5t40 -11.5q51 0 51 36q0 33 -64 33h-100v243h268v-110h-152 v-33q15 4 35 4q53 0 95.5 -38t42.5 -97z"></glyph><glyph glyph-name="uni2159" unicode="⅙" d="M39 244v110h102v196h-91v110h213v-306h83v-110h-307zM254 0l381 660h135l-382 -660h-134zM913 149q0 -67 -49 -112t-115 -45t-115 45.5t-49 113.5q0 32 12.5 59.5t44.5 68.5l104 137h143l-92 -122q47 -11 81 -49q35 -40 35 -96zM793 149q0 19 -13 32t-31 13t-31 -13 t-13 -32t13 -32t31 -13t31 13t13 32z"></glyph><glyph glyph-name="uni215A" unicode="⅚" d="M343 386q0 -64 -48.5 -107t-121.5 -43q-57 0 -101 27.5t-65 75.5l84 59q19 -27 36 -38.5t40 -11.5q51 0 51 36q0 33 -64 33h-100v243h268v-110h-152v-33q15 4 35 4q53 0 95.5 -38t42.5 -97zM210 0l381 660h135l-382 -660h-134zM869 149q0 -67 -49 -112t-115 -45 t-115 45.5t-49 113.5q0 32 12.5 59.5t44.5 68.5l104 137h143l-92 -122q47 -11 81 -49q35 -40 35 -96zM749 149q0 19 -13 32t-31 13t-31 -13t-13 -32t13 -32t31 -13t31 13t13 32z"></glyph><glyph glyph-name="oneeighth" unicode="⅛" d="M39 244v110h102v196h-91v110h213v-306h83v-110h-307zM254 0l381 660h135l-382 -660h-134zM959 116q0 -57 -46.5 -90.5t-119.5 -33.5t-119.5 33.5t-46.5 90.5q0 67 67 98q-49 36 -49 93q0 54 41 85.5t107 31.5t107 -31.5t41 -85.5q0 -56 -49 -93q67 -31 67 -98zM756 301 q0 -19 37 -37q37 18 37 37q0 12 -10.5 19.5t-26.5 7.5t-26.5 -7.5t-10.5 -19.5zM838 121q0 26 -45 43q-46 -18 -46 -43q0 -32 46 -32q45 0 45 32z"></glyph><glyph glyph-name="threeeighths" unicode="⅜" d="M334 384q0 -62 -48 -105t-118 -43q-56 0 -98.5 27.5t-63.5 75.5l84 59q32 -50 73 -50q46 0 46 36q0 33 -64 33h-53v30l66 103h-117v110h288v-32l-77 -119q37 -16 59.5 -49t22.5 -76zM201 0l381 660h135l-382 -660h-134zM906 116q0 -57 -46.5 -90.5t-119.5 -33.5 t-119.5 33.5t-46.5 90.5q0 67 67 98q-49 36 -49 93q0 54 41 85.5t107 31.5t107 -31.5t41 -85.5q0 -56 -49 -93q67 -31 67 -98zM703 301q0 -19 37 -37q37 18 37 37q0 12 -10.5 19.5t-26.5 7.5t-26.5 -7.5t-10.5 -19.5zM785 121q0 26 -45 43q-46 -18 -46 -43q0 -32 46 -32 q45 0 45 32z"></glyph><glyph glyph-name="fiveeighths" unicode="⅝" d="M343 386q0 -64 -48.5 -107t-121.5 -43q-57 0 -101 27.5t-65 75.5l84 59q19 -27 36 -38.5t40 -11.5q51 0 51 36q0 33 -64 33h-100v243h268v-110h-152v-33q15 4 35 4q53 0 95.5 -38t42.5 -97zM210 0l381 660h135l-382 -660h-134zM915 116q0 -57 -46.5 -90.5t-119.5 -33.5 t-119.5 33.5t-46.5 90.5q0 67 67 98q-49 36 -49 93q0 54 41 85.5t107 31.5t107 -31.5t41 -85.5q0 -56 -49 -93q67 -31 67 -98zM712 301q0 -19 37 -37q37 18 37 37q0 12 -10.5 19.5t-26.5 7.5t-26.5 -7.5t-10.5 -19.5zM794 121q0 26 -45 43q-46 -18 -46 -43q0 -32 46 -32 q45 0 45 32z"></glyph><glyph glyph-name="seveneighths" unicode="⅞" d="M30 660h306v-32l-169 -384h-132l141 306h-146v110zM126 0l381 660h135l-382 -660h-134zM831 116q0 -57 -46.5 -90.5t-119.5 -33.5t-119.5 33.5t-46.5 90.5q0 67 67 98q-49 36 -49 93q0 54 41 85.5t107 31.5t107 -31.5t41 -85.5q0 -56 -49 -93q67 -31 67 -98zM628 301 q0 -19 37 -37q37 18 37 37q0 12 -10.5 19.5t-26.5 7.5t-26.5 -7.5t-10.5 -19.5zM710 121q0 26 -45 43q-46 -18 -46 -43q0 -32 46 -32q45 0 45 32z"></glyph><glyph glyph-name="arrowleft" unicode="←" d="M610 253h-266l-66 4l134 -135l-101 -101l-287 287v31l287 287l101 -101l-132 -132l64 4h266v-144z"></glyph><glyph glyph-name="arrowup" unicode="↑" d="M627 328l-102 -101l-127 128l4 -59v-259h-155v259l4 58l-126 -127l-102 101l286 288h31z"></glyph><glyph glyph-name="arrowright" unicode="→" d="M339 626l287 -287v-31l-287 -287l-101 101l134 135l-66 -4h-266v144h266l64 -4l-132 132z"></glyph><glyph glyph-name="arrowdown" unicode="↓" d="M525 422l102 -101l-287 -288h-31l-286 288l102 101l126 -127l-4 58v259h155v-259l-4 -59z"></glyph><glyph glyph-name="arrowboth" unicode="↔" d="M649 626l287 -287v-31l-287 -287l-101 101l134 135l-66 -4h-272l-66 4l134 -135l-101 -101l-287 287v31l287 287l101 -101l-132 -132l64 4h272l64 -4l-132 132z"></glyph><glyph glyph-name="arrowupdn" unicode="↕" d="M399 183l126 127l102 -101l-286 -288h-31l-287 288l102 101l127 -128l-4 59v178l4 59l-127 -128l-102 101l287 288h31l286 -288l-102 -101l-126 127l4 -58v-178z"></glyph><glyph glyph-name="uni2196" unicode="↖" d="M387 358l209 -210l-105 -105l-208 209l-35 40v-198h-149v426l21 22h418v-144h-197z"></glyph><glyph glyph-name="uni2197" unicode="↗" d="M530 542l21 -22v-426h-149v198l-35 -40l-208 -209l-105 105l209 210l46 40h-197v144h418z"></glyph><glyph glyph-name="uni2198" unicode="↘" d="M402 535h149v-426l-21 -22h-418v144h197l-46 40l-209 210l105 105l208 -209l35 -40v198z"></glyph><glyph glyph-name="uni2199" unicode="↙" d="M387 271l-46 -40h197v-144h-418l-21 22v426h149v-198l35 40l208 209l105 -105z"></glyph><glyph glyph-name="partialdiff" unicode="∂" d="M602 361q2 -159 -91 -267t-230 -106q-100 0 -167 55.5t-67 151.5q0 97 69 157t183 60q63 0 126 -19q-4 64 -28.5 94t-74.5 30q-35 0 -60 -14.5t-54 -49.5l-107 92q78 127 230 127q127 0 199 -85t72 -226zM413 249q-60 15 -105 15q-85 0 -85 -62q0 -28 19 -46t52 -18 q40 0 72 28t47 83z"></glyph><glyph glyph-name="uni2206" unicode="∆" d="M357 672l280 -627v-45h-615v45l280 627h55zM405 155l-74 170l-76 -170h150z"></glyph><glyph glyph-name="product" unicode="∏" d="M66 -121v781h575v-781h-172v626h-231v-626h-172z"></glyph><glyph glyph-name="summation" unicode="∑" d="M276 34h249v-155h-510v36l193 366l-193 343v36h498v-155h-233l116 -206v-36z"></glyph><glyph glyph-name="minus" unicode="−" d="M36 253v144h487v-144h-487z"></glyph><glyph glyph-name="uni2219" unicode="∙" d="M28 324q0 48 32 80t82 32q48 0 79.5 -32t31.5 -80t-31.5 -80t-79.5 -32q-50 0 -82 32t-32 80z"></glyph><glyph glyph-name="radical" unicode="√" d="M588 750h147l-513 -883h-55v290h-167v134h297v-41z"></glyph><glyph glyph-name="infinity" unicode="∞" d="M904 323q0 -89 -62 -153.5t-163 -64.5q-68 0 -120 29t-103 87q-98 -116 -223 -116q-102 0 -163.5 64t-61.5 154t61.5 154.5t163.5 64.5q122 0 223 -114q101 114 222 114q102 0 164 -64.5t62 -154.5zM371 325q-61 67 -119 67q-37 0 -58 -17t-21 -49t21.5 -51.5t58.5 -19.5 q54 0 118 70zM739 325q0 32 -21.5 49.5t-57.5 17.5q-57 0 -118 -67q62 -70 118 -70q36 0 57.5 19t21.5 51z"></glyph><glyph glyph-name="integral" unicode="∫" d="M0 -121v144l51 -2q84 0 84 83q0 28 -9 86l-20 124q-37 208 -37 278q0 97 57 148.5t161 51.5q48 0 93 -12v-144l-51 2q-84 0 -84 -83q0 -27 9 -87l20 -123q37 -208 37 -278q0 -97 -57 -148.5t-161 -51.5q-48 0 -93 12z"></glyph><glyph glyph-name="approxequal" unicode="≈" d="M310 344l-84 51q-35 21 -51 21q-15 0 -23 -10t-8 -25v-14h-128q-3 19 -3 38q0 72 40.5 119t96.5 47q44 0 85 -26l84 -51q35 -21 51 -21q15 0 23 10t8 25v14h128q3 -20 3 -38q0 -72 -40.5 -119t-96.5 -47q-44 0 -85 26zM310 104l-84 51q-35 21 -51 21q-15 0 -23 -10 t-8 -25v-14h-128q-3 19 -3 38q0 72 40.5 119t96.5 47q44 0 85 -26l84 -51q35 -21 51 -21q15 0 23 10t8 25v14h128q3 -20 3 -38q0 -72 -40.5 -119t-96.5 -47q-44 0 -85 26z"></glyph><glyph glyph-name="notequal" unicode="≠" d="M516 598l-54 -92h52v-144h-137l-45 -76h182v-144h-267l-54 -92h-148l54 92h-52v144h137l45 76h-182v144h267l54 92h148z"></glyph><glyph glyph-name="lessequal" unicode="≤" d="M510 582v-144l-188 -65l188 -66v-144l-481 187v45zM43 0v134h467v-134h-467z"></glyph><glyph glyph-name="greaterequal" unicode="≥" d="M50 582l481 -187v-45l-481 -187v144l188 66l-188 65v144zM50 0v134h467v-134h-467z"></glyph><glyph glyph-name="uni24EA" unicode="⓪" d="M57 330q-2 115 56.5 215.5t159.5 159.5t216 57q114 2 215 -57t160 -160t57 -215q2 -114 -57 -215t-160 -160t-215 -57q-86 -2 -166.5 32.5t-139.5 93.5t-93.5 139.5t-32.5 166.5zM788 330q2 129 -86 217.5t-213 86.5q-125 2 -213 -86.5t-86 -217.5q-2 -129 86 -217.5 t213 -86.5q125 -2 213 86.5t86 217.5zM296 333q0 100 50 165q49 64 143 64t143 -64q50 -65 50 -165q0 -103 -50 -170q-50 -66 -143 -66q-94 0 -143 66q-50 67 -50 170zM543 332q0 105 -54 105q-27 0 -40 -24.5t-13 -80.5q0 -110 53 -110q54 0 54 110z"></glyph><glyph glyph-name="uni24FF" unicode="⓿" d="M57 330q-2 115 56.5 215.5t159.5 159.5t216 57q114 2 215 -57t160 -160t57 -215q2 -114 -57 -215t-160 -160t-215 -57q-86 -2 -166.5 32.5t-139.5 93.5t-93.5 139.5t-32.5 166.5zM682 333q0 100 -50 165q-49 64 -143 64t-143 -64q-50 -65 -50 -165q0 -103 50 -170 q49 -66 143 -66q93 0 143 66q50 67 50 170zM436 332q0 56 13 80.5t40 24.5q54 0 54 -105q0 -110 -54 -110q-53 0 -53 110z"></glyph><glyph glyph-name="filledbox" unicode="■" d="M90 55v550h550v-550h-550z"></glyph><glyph glyph-name="uni25A1" unicode="□" d="M90 55v550h550v-550h-550zM232 194h266v272h-266v-272z"></glyph><glyph glyph-name="uni25AA" unicode="▪" d="M74 60v380h381v-380h-381z"></glyph><glyph glyph-name="uni25AB" unicode="▫" d="M74 60v380h381v-380h-381zM206 189h117v122h-117v-122z"></glyph><glyph glyph-name="triagup" unicode="▲" d="M30 55l-10 18l335 587h20l335 -587l-10 -18h-670z"></glyph><glyph glyph-name="uni25B3" unicode="△" d="M375 660l335 -587l-10 -18h-670l-10 18l335 587h20zM479 194l-114 199l-114 -199h228z"></glyph><glyph glyph-name="uni25B4" unicode="▴" d="M36 60l-10 18l229 401h20l229 -401l-10 -18h-458z"></glyph><glyph glyph-name="uni25B5" unicode="▵" d="M275 479l229 -401l-10 -18h-458l-10 18l229 401h20zM327 161l-62 109l-61 -109h123z"></glyph><glyph glyph-name="uni25B6" unicode="▶" d="M138 -12l-18 10v664l18 10l514 -332v-20z"></glyph><glyph glyph-name="uni25B7" unicode="▷" d="M138 672l514 -332v-20l-514 -332l-18 10v664zM411 330l-149 96v-192z"></glyph><glyph glyph-name="uni25B8" unicode="▸" d="M128 15l-18 10v451l18 10l351 -225v-20z"></glyph><glyph glyph-name="uni25B9" unicode="▹" d="M128 486l351 -225v-20l-351 -226l-18 10v451zM299 251l-87 55v-110z"></glyph><glyph glyph-name="triagrt" unicode="►" d="M118 -12l-18 10v664l18 10l823 -332v-20z"></glyph><glyph glyph-name="uni25BB" unicode="▻" d="M118 672l823 -332v-20l-823 -332l-18 10v664zM587 330l-345 140v-280z"></glyph><glyph glyph-name="triagdn" unicode="▼" d="M30 605h670l10 -18l-335 -587h-20l-335 587z"></glyph><glyph glyph-name="uni25BD" unicode="▽" d="M700 605l10 -18l-335 -587h-20l-335 587l10 18h670zM479 466h-228l114 -199z"></glyph><glyph glyph-name="uni25BE" unicode="▾" d="M255 21l-229 401l10 18h458l10 -18l-229 -401h-20z"></glyph><glyph glyph-name="uni25BF" unicode="▿" d="M494 440l10 -18l-229 -401h-20l-229 401l10 18h458zM327 339h-123l61 -109z"></glyph><glyph glyph-name="uni25C0" unicode="◀" d="M592 -12l-514 332v20l514 332l18 -10v-664z"></glyph><glyph glyph-name="uni25C1" unicode="◁" d="M592 672l18 -10v-664l-18 -10l-514 332v20zM468 426l-149 -96l149 -96v192z"></glyph><glyph glyph-name="uni25C2" unicode="◂" d="M402 15l-351 226v20l351 225l18 -10v-451z"></glyph><glyph glyph-name="uni25C3" unicode="◃" d="M402 486l18 -10v-451l-18 -10l-351 226v20zM318 195v111l-87 -55z"></glyph><glyph glyph-name="triaglf" unicode="◄" d="M843 -12l-823 332v20l823 332l18 -10v-664z"></glyph><glyph glyph-name="uni25C5" unicode="◅" d="M843 672l18 -10v-664l-18 -10l-823 332v20zM719 470l-345 -140l345 -140v280z"></glyph><glyph glyph-name="lozenge" unicode="◊" d="M360 672l213 -342l-213 -342h-55l-213 342l213 342h55zM259 330l79 -122l70 122l-74 119z"></glyph><glyph glyph-name="circle" unicode="○" d="M34 331q-3 131 99 231t233 97q131 3 231.5 -97t97.5 -230q3 -131 -98 -233.5t-231 -99.5q-129 -3 -232 99.5t-100 232.5zM553 332q0 78 -54.5 133t-132.5 55t-134 -55.5t-56 -133.5q0 -79 56 -136t133 -57q78 0 133 57.5t55 136.5z"></glyph><glyph glyph-name="uni25CF" unicode="●" d="M34 331q-3 131 99 231t233 97q131 3 231.5 -97t97.5 -230q3 -131 -98 -233.5t-231 -99.5q-129 -3 -232 99.5t-100 232.5z"></glyph><glyph glyph-name="uni261C" unicode="☜" d="M1188 291v-45l-90 -74l54 -181l-41 -28l-238 149q-211 -104 -363 -104q-64 0 -96.5 20.5t-32.5 55.5q0 21 12 36q-45 16 -45 59q0 28 24 49q-35 15 -35 52q0 19 10 33h-174q-160 0 -160 112q0 61 46.5 84t150.5 23q62 0 149 -7q4 46 35 73t75 27q42 0 83 -26l254 -157 l19 -6l17 -5q16 -5 26 -9l243 152l41 -28l-54 -181zM474 512q74 -10 94 -14l-46 25q-12 7 -24 7q-18 0 -24 -18zM836 196v142q-111 46 -296 75q-181 28 -392 28q-31 0 -31 -19t31 -19h86q195 0 322 -10v-79h-117q-9 0 -9 -9t9 -9h129v-79h-117q-9 0 -9 -9t9 -9h128v-79 q-56 -8 -87 -8h-8q-9 0 -9 -9t9 -9q60 0 165 29q102 28 187 73zM935 356v-175l86 -52l-27 85l74 55l-74 54l27 85z"></glyph><glyph glyph-name="uni261E" unicode="☞" d="M1197 425q0 -112 -160 -112h-174q10 -14 10 -33q0 -37 -35 -52q24 -21 24 -49q0 -43 -45 -59q12 -15 12 -36q0 -35 -32.5 -55.5t-96.5 -20.5q-152 0 -363 104l-238 -149l-41 28l54 181l-90 74v45l90 74l-54 181l41 28l243 -152q7 3 15 5.5l16 5t12 3.5l19 6l254 157 q41 26 83 26q44 0 75 -27t35 -73q87 7 149 7q104 0 150.5 -23t46.5 -84zM688 523l-46 -25q21 4 94 14q-6 18 -24 18q-12 0 -24 -7zM1093 422q0 19 -31 19q-211 0 -392 -28q-185 -29 -296 -75v-142q86 -46 186 -73q105 -29 166 -29q9 0 9 9t-9 9h-8q-31 0 -87 8v79h128 q9 0 9 9t-9 9h-117v79h129q9 0 9 9t-9 9h-117v79q127 10 322 10h86q31 0 31 19zM275 181v175l-86 52l27 -85l-74 -54l74 -55l-27 -85z"></glyph><glyph glyph-name="uni2661" unicode="♡" d="M808 476q0 -49 -24 -94q-22 -43 -83 -110l-259 -284h-24l-259 284q-59 65 -84 110q-23 46 -23 94q0 84 56.5 140t136.5 56q63 0 113 -35t72 -93q22 58 72 93t113 35q80 0 136.5 -56t56.5 -140zM628 453q0 26 -15 41t-39 15q-37 0 -63 -38.5t-36 -101.5h-89 q-10 63 -36.5 101.5t-63.5 38.5q-24 0 -39 -15t-15 -41q0 -14 4.5 -27.5t12 -25.5t14 -20t14.5 -16.5t9 -9.5l144 -165l144 165l20 23q34 37 34 76z"></glyph><glyph glyph-name="heart" unicode="♥" d="M418 -12l-259 284q-59 65 -84 110q-23 46 -23 94q0 84 56.5 140t136.5 56q63 0 113 -35t72 -93q22 58 72 93t113 35q80 0 136.5 -56t56.5 -140q0 -50 -24 -94q-22 -43 -83 -110l-259 -284h-24z"></glyph><glyph glyph-name="uni275B" unicode="❛" d="M614 204q0 -92 -65 -154t-171 -62q-132 -3 -228.5 96t-93.5 240q-2 144 97.5 246t244.5 100q116 0 205 -71l-67 -108q-58 44 -130 44q-86 0 -144.5 -59t-58.5 -150q0 -14 1 -18q27 53 79 84.5t113 31.5q89 0 153.5 -64.5t64.5 -155.5z"></glyph><glyph glyph-name="uni275C" unicode="❜" d="M614 336q2 -144 -97.5 -246t-244.5 -100q-116 0 -205 71l67 108q58 -44 130 -44q86 0 144.5 59t58.5 150q0 14 -1 18q-27 -53 -79 -84.5t-113 -31.5q-89 0 -153.5 64.5t-64.5 155.5q0 92 65 154t171 62q132 2 228.5 -97t93.5 -239z"></glyph><glyph glyph-name="uni275D" unicode="❝" d="M1224 204q0 -92 -65 -154t-171 -62q-132 -3 -228.5 96t-93.5 240q-2 144 97.5 246t244.5 100q116 0 205 -71l-67 -108q-58 44 -130 44q-86 0 -144.5 -59t-58.5 -150q0 -14 1 -18q27 53 79 84.5t113 31.5q89 0 153.5 -64.5t64.5 -155.5zM614 204q0 -92 -65 -154t-171 -62 q-132 -3 -228.5 96t-93.5 240q-2 144 97.5 246t244.5 100q116 0 205 -71l-67 -108q-58 44 -130 44q-86 0 -144.5 -59t-58.5 -150q0 -14 1 -18q27 53 79 84.5t113 31.5q89 0 153.5 -64.5t64.5 -155.5z"></glyph><glyph glyph-name="uni275E" unicode="❞" d="M604 336q2 -144 -97.5 -246t-244.5 -100q-116 0 -205 71l67 108q58 -44 130 -44q86 0 144.5 59t58.5 150q0 14 -1 18q-27 -53 -79 -84.5t-113 -31.5q-89 0 -153.5 64.5t-64.5 155.5q0 92 65 154t171 62q132 2 228.5 -97t93.5 -239zM1224 336q2 -144 -97.5 -246 t-244.5 -100q-116 0 -205 71l67 108q58 -44 130 -44q86 0 144.5 59t58.5 150q0 14 -1 18q-27 -53 -79 -84.5t-113 -31.5q-89 0 -153.5 64.5t-64.5 155.5q0 92 65 154t171 62q132 2 228.5 -97t93.5 -239z"></glyph><glyph glyph-name="uni2776" unicode="❶" d="M57 330q-2 115 56.5 215.5t159.5 159.5t216 57q114 2 215 -57t160 -160t57 -215q2 -114 -57 -215t-160 -160t-215 -57q-86 -2 -166.5 32.5t-139.5 93.5t-93.5 139.5t-32.5 166.5zM337 105h305v114h-80v335h-219v-114h82v-221h-88v-114z"></glyph><glyph glyph-name="uni2777" unicode="❷" d="M57 330q-2 115 56.5 215.5t159.5 159.5t216 57q114 2 215 -57t160 -160t57 -215q2 -114 -57 -215t-160 -160t-215 -57q-86 -2 -166.5 32.5t-139.5 93.5t-93.5 139.5t-32.5 166.5zM315 104h353v115h-118l33 39q43 50 60 81.5t17 70.5q0 66 -49.5 109t-123.5 43 q-75 0 -125 -47.5t-50 -112.5q0 -18 4 -35h124q0 4 -0.5 8.5t-1 7t-0.5 5v3.5q0 46 42 46q40 0 40 -41q0 -18 -10 -35t-40 -52l-155 -178v-27z"></glyph><glyph glyph-name="uni2778" unicode="❸" d="M57 330q-2 115 56.5 215.5t159.5 159.5t216 57q114 2 215 -57t160 -160t57 -215q2 -114 -57 -215t-160 -160t-215 -57q-86 -2 -166.5 32.5t-139.5 93.5t-93.5 139.5t-32.5 166.5zM658 257q0 45 -24 80t-63 54l81 128v35h-312v-124h110l-68 -108v-34h70q36 0 51 -7t15 -25 q0 -34 -47 -34q-22 0 -39 11.5t-37 41.5l-94 -66q23 -53 69.5 -82.5t106.5 -29.5q77 0 129 46t52 114z"></glyph><glyph glyph-name="uni2779" unicode="❹" d="M57 330q-2 115 56.5 215.5t159.5 159.5t216 57q114 2 215 -57t160 -160t57 -215q2 -114 -57 -215t-160 -160t-215 -57q-86 -2 -166.5 32.5t-139.5 93.5t-93.5 139.5t-32.5 166.5zM499 105h137v60h48v119h-48v84h-137v-84h-60l100 270h-146l-119 -352v-37h225v-60z"></glyph><glyph glyph-name="uni277A" unicode="❺" d="M57 330q-2 115 56.5 215.5t159.5 159.5t216 57q114 2 215 -57t160 -160t57 -215q2 -114 -57 -215t-160 -160t-215 -57q-86 -2 -166.5 32.5t-139.5 93.5t-93.5 139.5t-32.5 166.5zM666 259q0 64 -46 105t-104 41q-20 0 -35 -4v29h163v124h-293v-266h109q36 0 51 -7t15 -24 q0 -35 -52 -35q-24 0 -42 12t-38 41l-94 -66q23 -53 70.5 -82.5t109.5 -29.5q80 0 133 46t53 116z"></glyph><glyph glyph-name="uni277B" unicode="❻" d="M57 330q-2 115 56.5 215.5t159.5 159.5t216 57q114 2 215 -57t160 -160t57 -215q2 -114 -57 -215t-160 -160t-215 -57q-86 -2 -166.5 32.5t-139.5 93.5t-93.5 139.5t-32.5 166.5zM658 267q0 45 -22 81.5t-59 58.5q-21 11 -42 16l100 131h-162l-112 -147 q-34 -44 -47.5 -74t-13.5 -65q0 -73 53 -122t125 -49t126 49t54 121zM435 269q0 19 12.5 31t30.5 12q19 0 32 -12t13 -32t-13 -33t-31 -13q-19 0 -31.5 13.5t-12.5 33.5z"></glyph><glyph glyph-name="uni277C" unicode="❼" d="M57 330q-2 115 56.5 215.5t159.5 159.5t216 57q114 2 215 -57t160 -160t57 -215q2 -114 -57 -215t-160 -160t-215 -57q-86 -2 -166.5 32.5t-139.5 93.5t-93.5 139.5t-32.5 166.5zM337 105h149l180 414v35h-333v-124h152z"></glyph><glyph glyph-name="uni277D" unicode="❽" d="M57 330q-2 115 56.5 215.5t159.5 159.5t216 57q114 2 215 -57t160 -160t57 -215q2 -114 -57 -215t-160 -160t-215 -57q-86 -2 -166.5 32.5t-139.5 93.5t-93.5 139.5t-32.5 166.5zM670 232q0 72 -71 104q52 40 52 100q0 58 -44.5 92t-116.5 34q-73 0 -117.5 -34t-44.5 -93 q0 -60 52 -99q-71 -32 -71 -105q0 -62 50.5 -98t130.5 -36t130 36.5t50 98.5zM454 425q0 31 36 31t36 -30q0 -23 -37 -41q-35 17 -35 40zM443 242q0 30 46 49q47 -20 47 -50q0 -38 -46 -38q-47 0 -47 39z"></glyph><glyph glyph-name="uni277E" unicode="❾" d="M57 330q-2 114 57 215t160 160t215 57q115 2 215.5 -57t159.5 -159.5t57 -215.5q2 -115 -57 -216t-159.5 -159.5t-215.5 -56.5q-114 -2 -215 57t-160 160t-57 215zM343 106h162l112 147q34 44 47.5 74t13.5 65q0 73 -53 122t-125 49t-126 -49t-54 -121q0 -45 22 -81.5 t59 -58.5q21 -11 42 -16zM455 392q0 20 13 33t31 13q19 0 31.5 -13.5t12.5 -33.5q0 -19 -12.5 -31t-30.5 -12q-19 0 -32 12t-13 32z"></glyph><glyph glyph-name="uni2780" unicode="➀" d="M57 330q-2 115 56.5 215.5t159.5 159.5t216 57q114 2 215 -57t160 -160t57 -215q2 -114 -57 -215t-160 -160t-215 -57q-86 -2 -166.5 32.5t-139.5 93.5t-93.5 139.5t-32.5 166.5zM788 330q2 129 -86 217.5t-213 86.5q-125 2 -213 -86.5t-86 -217.5q-2 -129 86 -217.5 t213 -86.5q125 -2 213 86.5t86 217.5zM337 105v114h88v221h-82v114h219v-335h80v-114h-305z"></glyph><glyph glyph-name="uni2781" unicode="➁" d="M57 330q-2 115 56.5 215.5t159.5 159.5t216 57q114 2 215 -57t160 -160t57 -215q2 -114 -57 -215t-160 -160t-215 -57q-86 -2 -166.5 32.5t-139.5 93.5t-93.5 139.5t-32.5 166.5zM788 330q2 129 -86 217.5t-213 86.5q-125 2 -213 -86.5t-86 -217.5q-2 -129 86 -217.5 t213 -86.5q125 -2 213 86.5t86 217.5zM315 104v27l155 178q30 35 40 52t10 35q0 41 -40 41q-42 0 -42 -46q0 -1 0.5 -4t1 -9t0.5 -11h-124q-4 17 -4 35q0 65 50 112.5t125 47.5q74 0 123.5 -43t49.5 -109q0 -39 -17 -70.5t-60 -81.5l-33 -39h118v-115h-353z"></glyph><glyph glyph-name="uni2782" unicode="➂" d="M57 330q-2 115 56.5 215.5t159.5 159.5t216 57q114 2 215 -57t160 -160t57 -215q2 -114 -57 -215t-160 -160t-215 -57q-86 -2 -166.5 32.5t-139.5 93.5t-93.5 139.5t-32.5 166.5zM788 330q2 129 -86 217.5t-213 86.5q-125 2 -213 -86.5t-86 -217.5q-2 -129 86 -217.5 t213 -86.5q125 -2 213 86.5t86 217.5zM301 209l94 66q20 -30 37 -41.5t39 -11.5q47 0 47 34q0 18 -15 25t-51 7h-70v34l68 108h-110v124h312v-35l-81 -128q39 -19 63 -54t24 -80q0 -68 -52 -114t-129 -46q-60 0 -106.5 29.5t-69.5 82.5z"></glyph><glyph glyph-name="uni2783" unicode="➃" d="M57 330q-2 115 56.5 215.5t159.5 159.5t216 57q114 2 215 -57t160 -160t57 -215q2 -114 -57 -215t-160 -160t-215 -57q-86 -2 -166.5 32.5t-139.5 93.5t-93.5 139.5t-32.5 166.5zM788 330q2 129 -86 217.5t-213 86.5q-125 2 -213 -86.5t-86 -217.5q-2 -129 86 -217.5 t213 -86.5q125 -2 213 86.5t86 217.5zM499 105v60h-225v37l119 352h146l-100 -270h60v84h137v-84h48v-119h-48v-60h-137z"></glyph><glyph glyph-name="uni2784" unicode="➄" d="M57 330q-2 115 56.5 215.5t159.5 159.5t216 57q114 2 215 -57t160 -160t57 -215q2 -114 -57 -215t-160 -160t-215 -57q-86 -2 -166.5 32.5t-139.5 93.5t-93.5 139.5t-32.5 166.5zM788 330q2 129 -86 217.5t-213 86.5q-125 2 -213 -86.5t-86 -217.5q-2 -129 86 -217.5 t213 -86.5q125 -2 213 86.5t86 217.5zM301 209l94 66q20 -29 38 -41t42 -12q52 0 52 35q0 17 -15 24t-51 7h-109v266h293v-124h-163v-29q15 4 35 4q58 0 104 -41t46 -105q0 -70 -53 -116t-133 -46q-62 0 -109.5 29.5t-70.5 82.5z"></glyph><glyph glyph-name="uni2785" unicode="➅" d="M57 330q-2 115 56.5 215.5t159.5 159.5t216 57q114 2 215 -57t160 -160t57 -215q2 -114 -57 -215t-160 -160t-215 -57q-86 -2 -166.5 32.5t-139.5 93.5t-93.5 139.5t-32.5 166.5zM788 330q2 129 -86 217.5t-213 86.5q-125 2 -213 -86.5t-86 -217.5q-2 -129 86 -217.5 t213 -86.5q125 -2 213 86.5t86 217.5zM300 268q0 35 13.5 65t47.5 74l112 147h162l-100 -131q23 -5 42 -16q37 -22 59 -58.5t22 -81.5q0 -72 -54 -121t-126 -49t-125 49t-53 122zM523 268q0 20 -13 32t-32 12q-18 0 -30.5 -12t-12.5 -31q0 -20 12.5 -33.5t31.5 -13.5 q18 0 31 13t13 33z"></glyph><glyph glyph-name="uni2786" unicode="➆" d="M57 330q-2 115 56.5 215.5t159.5 159.5t216 57q114 2 215 -57t160 -160t57 -215q2 -114 -57 -215t-160 -160t-215 -57q-86 -2 -166.5 32.5t-139.5 93.5t-93.5 139.5t-32.5 166.5zM788 330q2 129 -86 217.5t-213 86.5q-125 2 -213 -86.5t-86 -217.5q-2 -129 86 -217.5 t213 -86.5q125 -2 213 86.5t86 217.5zM337 105l148 325h-152v124h333v-35l-180 -414h-149z"></glyph><glyph glyph-name="uni2787" unicode="➇" d="M57 330q-2 115 56.5 215.5t159.5 159.5t216 57q114 2 215 -57t160 -160t57 -215q2 -114 -57 -215t-160 -160t-215 -57q-86 -2 -166.5 32.5t-139.5 93.5t-93.5 139.5t-32.5 166.5zM788 330q2 129 -86 217.5t-213 86.5q-125 2 -213 -86.5t-86 -217.5q-2 -129 86 -217.5 t213 -86.5q125 -2 213 86.5t86 217.5zM309 231q0 73 71 105q-52 39 -52 99q0 59 44.5 93t117.5 34q72 0 116.5 -34t44.5 -92q0 -60 -52 -100q71 -32 71 -104q0 -62 -50 -98.5t-130 -36.5t-130.5 36t-50.5 98zM526 426q0 30 -36 30t-36 -31q0 -23 35 -40q37 18 37 41z M536 241q0 30 -47 50q-46 -19 -46 -49q0 -39 47 -39q46 0 46 38z"></glyph><glyph glyph-name="uni2788" unicode="➈" d="M57 330q-2 114 57 215t160 160t215 57q115 2 215.5 -57t159.5 -159.5t57 -215.5q2 -115 -57 -216t-159.5 -159.5t-215.5 -56.5q-114 -2 -215 57t-160 160t-57 215zM788 330q2 129 -86 217.5t-213 86.5q-125 2 -213 -86.5t-86 -217.5q-2 -129 86 -217.5t213 -86.5 q125 -2 213 86.5t86 217.5zM343 106l100 131q-23 5 -42 16q-37 22 -59 58.5t-22 81.5q0 72 54 121t126 49t125 -49t53 -122q0 -35 -13.5 -65t-47.5 -74l-112 -147h-162zM543 391q0 20 -12.5 33.5t-31.5 13.5q-18 0 -31 -13t-13 -33t13 -32t32 -12q18 0 30.5 12t12.5 31z"></glyph><glyph glyph-name="uni27F5" unicode="⟵" d="M1176 253h-832l-66 4l134 -135l-101 -101l-287 287v31l287 287l101 -101l-132 -132l64 4h832v-144z"></glyph><glyph glyph-name="uni27F6" unicode="⟶" d="M905 626l287 -287v-31l-287 -287l-101 101l134 135l-66 -4h-832v144h832l64 -4l-132 132z"></glyph><glyph glyph-name="uniF8FF" unicode="" d="M49 0v660h235l24 -285l7 -145h20l8 145l24 285h241v-660h-155v359h-21l-7 -108l-39 -251h-127l-37 251l-8 108h-21v-359h-144zM45 -168v132h566v-132h-566z"></glyph><glyph glyph-name="Iacute_J.loclNLD" d="M66 0v660h172v-660h-172zM84 724l64 186h207v-30l-147 -156h-124zM316 0v146l63 -2q47 0 66.5 15t19.5 51v450h172v-469q0 -101 -56 -152t-164 -51q-51 0 -101 12zM459 724l64 186h207v-30l-147 -156h-124z"></glyph><glyph glyph-name="Cacute.loclPLK" d="M32 330q-2 142 104 243.5t253 98.5q99 0 178 -46.5t124 -130.5l-131 -89q-64 108 -172 108q-79 0 -129.5 -51t-50.5 -134q0 -81 50 -133q52 -50 130 -50q108 0 172 108l131 -89q-45 -84 -124 -130.5t-179 -46.5q-146 -2 -252.5 99t-103.5 243zM327 724l24 186h207v-30 l-107 -156h-124z"></glyph><glyph glyph-name="Nacute.loclPLK" d="M479 660h172v-672h-55l-358 347v-335h-172v672h55l358 -342v330zM296 724l24 186h207v-30l-107 -156h-124z"></glyph><glyph glyph-name="Oacute.loclPLK" d="M32 330q-3 141 103.5 243t251.5 99q145 3 252.5 -99t104.5 -243q3 -142 -104.5 -243t-252.5 -99q-146 -2 -252 99t-103 243zM568 330q0 81 -51.5 132.5t-128.5 51.5q-80 0 -130 -51t-50 -133t50 -134q50 -50 130 -50q78 0 129 51t51 133zM325 724l24 186h207v-30 l-107 -156h-124z"></glyph><glyph glyph-name="Sacute.loclPLK" d="M23 136l116 88q32 -42 66 -63.5t81 -21.5q68 0 68 48q0 21 -13 32t-54 29l-68 30q-167 74 -167 199q0 87 64.5 141t166.5 54q160 0 226 -133l-115 -88q-25 37 -50 53.5t-59 16.5q-59 0 -59 -42q0 -18 12.5 -29.5t44.5 -24.5l76 -32q88 -37 128.5 -83.5t40.5 -115.5 q0 -94 -68.5 -150t-173.5 -56q-88 0 -157.5 39.5t-105.5 108.5zM217 724l24 186h207v-30l-107 -156h-124z"></glyph><glyph glyph-name="Zacute.loclPLK" d="M273 155h291v-155h-552v45l289 460h-246v155h508v-45zM236 724l24 186h207v-30l-107 -156h-124z"></glyph><glyph glyph-name="Idotaccent.loclTRK" d="M66 0v660h172v-660h-172zM46 818q0 43 30.5 72.5t74.5 29.5t75 -29.5t31 -72.5q0 -42 -31 -71.5t-75 -29.5t-74.5 29t-30.5 72z"></glyph><glyph glyph-name="A.ordn" d="M288 244l-11 29h-129l-10 -29h-137l192 424h40l191 -424h-136zM181 364h63l-31 77z"></glyph><glyph glyph-name="O.ordn" d="M24 452q0 90 66.5 153t159.5 63q94 0 161 -63t67 -153t-67 -153t-161 -63q-93 0 -159.5 63t-66.5 153zM349 452q0 44 -28 71.5t-70 27.5q-43 0 -70 -27.5t-27 -71.5q0 -45 26.5 -72t70.5 -27q43 0 70.5 27.5t27.5 71.5z"></glyph><glyph glyph-name="iacute_j.loclNLD" d="M56 0v500h172v-500h-172zM79 574l34 206h207v-30l-117 -176h-124zM219 -180v144q8 0 17 -0.5t14 -1t8 -0.5q44 0 63 15.5t19 50.5v472h172v-489q0 -99 -55 -151t-155 -52q-48 0 -83 12zM363 574l34 206h207v-30l-117 -176h-124z"></glyph><glyph glyph-name="cacute.loclPLK" d="M31 250q-2 108 79.5 186t193.5 76q76 0 134.5 -35.5t89.5 -98.5l-119 -91q-42 67 -103 67q-45 0 -72 -29t-27 -75t27 -75t72 -29q60 0 103 66l119 -90q-31 -63 -89.5 -98.5t-134.5 -35.5q-112 -2 -193.5 76t-79.5 186zM234 574l24 206h207v-30l-107 -176h-124z"></glyph><glyph glyph-name="nacute.loclPLK" d="M545 308v-308h-172v283q0 33 -20.5 53.5t-52.5 20.5t-52 -20.5t-20 -53.5v-283h-172v500h157v-41q56 53 141 53q87 0 139 -55.5t52 -148.5zM211 574l24 206h207v-30l-107 -176h-124z"></glyph><glyph glyph-name="oacute.loclPLK" d="M31 250q-2 107 79 185.5t193 76.5q112 2 193.5 -76.5t79.5 -185.5q2 -107 -79.5 -185.5t-193.5 -76.5q-112 -2 -193 76.5t-79 185.5zM400 250q0 45 -27.5 74.5t-68.5 29.5q-43 0 -70 -29t-27 -75q0 -47 27 -75.5t70 -28.5q42 0 69 29.5t27 74.5zM236 574l24 206h207v-30 l-107 -176h-124z"></glyph><glyph glyph-name="sacute.loclPLK" d="M11 84l80 102q65 -62 138 -62q44 0 44 22q0 13 -29 25l-56 23q-77 31 -111 67t-34 94q0 73 52.5 115t141.5 42q118 0 188 -73l-81 -105q-50 43 -106 43q-35 0 -35 -19q0 -14 34 -27l50 -20q79 -31 112.5 -65.5t33.5 -91.5q0 -77 -58 -122q-59 -44 -149 -44 q-67 0 -123.5 25t-91.5 71zM166 574l24 206h207v-30l-107 -176h-124z"></glyph><glyph glyph-name="zacute.loclPLK" d="M260 144h208v-144h-458v45l210 311h-187v144h434v-45zM171 574l24 206h207v-30l-107 -176h-124z"></glyph><glyph glyph-name="i.loclTRK.loclTRK" d="M56 0v500h172v-500h-172zM36 677q0 43 30.5 72.5t74.5 29.5t75 -29.5t31 -72.5q0 -42 -31 -71.5t-75 -29.5t-74.5 29t-30.5 72z"></glyph><glyph glyph-name="a.ss01" d="M414 500h157v-500h-157v52q-46 -64 -143 -64q-105 0 -172.5 73.5t-67.5 187.5t68 188.5t172 74.5q95 0 143 -64v52zM402 249q0 49 -28 78t-69 29t-69.5 -28.5t-28.5 -77.5t27.5 -77.5t70.5 -28.5q42 0 69.5 28t27.5 77z"></glyph><glyph glyph-name="y.ss01" d="M369 500h172v-433q0 -120 -67 -189.5t-185 -69.5q-68 0 -134 24t-114 65l87 121q70 -56 139 -56q102 0 102 89v18q-53 -47 -130 -47q-83 0 -135 56.5t-52 147.5v274h172v-249q0 -33 20.5 -53.5t52.5 -20.5t52 20.5t20 53.5v249z"></glyph><glyph glyph-name="aacute.ss01" d="M414 500h157v-500h-157v52q-46 -64 -143 -64q-105 0 -172.5 73.5t-67.5 187.5t68 188.5t172 74.5q95 0 143 -64v52zM402 249q0 49 -28 78t-69 29t-69.5 -28.5t-28.5 -77.5t27.5 -77.5t70.5 -28.5q42 0 69.5 28t27.5 77zM251 574l64 206h207v-30l-147 -176h-124z"></glyph><glyph glyph-name="abreve.ss01" d="M414 500h157v-500h-157v52q-46 -64 -143 -64q-105 0 -172.5 73.5t-67.5 187.5t68 188.5t172 74.5q95 0 143 -64v52zM402 249q0 49 -28 78t-69 29t-69.5 -28.5t-28.5 -77.5t27.5 -77.5t70.5 -28.5q42 0 69.5 28t27.5 77zM128 755v25h133v-25q0 -28 14 -44t39 -16t39 16 t14 44v25h133v-25q0 -82 -52 -134t-134 -52t-134 52t-52 134z"></glyph><glyph glyph-name="acircumflex.ss01" d="M414 500h157v-500h-157v52q-46 -64 -143 -64q-105 0 -172.5 73.5t-67.5 187.5t68 188.5t172 74.5q95 0 143 -64v52zM402 249q0 49 -28 78t-69 29t-69.5 -28.5t-28.5 -77.5t27.5 -77.5t70.5 -28.5q42 0 69.5 28t27.5 77zM505 574h-124l-67 72l-67 -72h-124l134 206h115z "></glyph><glyph glyph-name="adieresis.ss01" d="M414 500h157v-500h-157v52q-46 -64 -143 -64q-105 0 -172.5 73.5t-67.5 187.5t68 188.5t172 74.5q95 0 143 -64v52zM402 249q0 49 -28 78t-69 29t-69.5 -28.5t-28.5 -77.5t27.5 -77.5t70.5 -28.5q42 0 69.5 28t27.5 77zM89 678q0 38 29 65.5t70 27.5q39 0 67.5 -27.5 t28.5 -65.5q0 -39 -28.5 -66.5t-67.5 -27.5q-41 0 -70 27.5t-29 66.5zM344 678q0 38 29 65.5t70 27.5q39 0 67.5 -27.5t28.5 -65.5q0 -39 -28.5 -66.5t-67.5 -27.5q-41 0 -70 27.5t-29 66.5z"></glyph><glyph glyph-name="agrave.ss01" d="M414 500h157v-500h-157v52q-46 -64 -143 -64q-105 0 -172.5 73.5t-67.5 187.5t68 188.5t172 74.5q95 0 143 -64v52zM402 249q0 49 -28 78t-69 29t-69.5 -28.5t-28.5 -77.5t27.5 -77.5t70.5 -28.5q42 0 69.5 28t27.5 77zM253 574l-147 176v30h207l64 -206h-124z"></glyph><glyph glyph-name="amacron.ss01" d="M414 500h157v-500h-157v52q-46 -64 -143 -64q-105 0 -172.5 73.5t-67.5 187.5t68 188.5t172 74.5q95 0 143 -64v52zM402 249q0 49 -28 78t-69 29t-69.5 -28.5t-28.5 -77.5t27.5 -77.5t70.5 -28.5q42 0 69.5 28t27.5 77zM154 610v134h320v-134h-320z"></glyph><glyph glyph-name="aogonek.ss01" d="M414 500h157v-500h-157v52q-46 -64 -143 -64q-105 0 -172.5 73.5t-67.5 187.5t68 188.5t172 74.5q95 0 143 -64v52zM402 249q0 49 -28 78t-69 29t-69.5 -28.5t-28.5 -77.5t27.5 -77.5t70.5 -28.5q42 0 69.5 28t27.5 77zM346 -84q0 47 37.5 83.5t115.5 66.5l72 -66 l-34 -19q-30 -18 -30 -31q0 -22 29 -22q7 0 35 5v-108q-51 -17 -96 -17q-60 0 -94.5 30t-34.5 78z"></glyph><glyph glyph-name="aring.ss01" d="M414 500h157v-500h-157v52q-46 -64 -143 -64q-105 0 -172.5 73.5t-67.5 187.5t68 188.5t172 74.5q95 0 143 -64v52zM402 249q0 49 -28 78t-69 29t-69.5 -28.5t-28.5 -77.5t27.5 -77.5t70.5 -28.5q42 0 69.5 28t27.5 77zM177 673q0 55 39 93q40 38 97 38q58 0 98 -38 q39 -38 39 -93q0 -57 -39 -95q-38 -37 -98 -37q-59 0 -97.5 37.5t-38.5 94.5zM349 673q0 15 -10 25t-25 10t-25 -9.5t-10 -25.5t10 -26t25 -10t25 10.5t10 25.5z"></glyph><glyph glyph-name="atilde.ss01" d="M414 500h157v-500h-157v52q-46 -64 -143 -64q-105 0 -172.5 73.5t-67.5 187.5t68 188.5t172 74.5q95 0 143 -64v52zM402 249q0 49 -28 78t-69 29t-69.5 -28.5t-28.5 -77.5t27.5 -77.5t70.5 -28.5q42 0 69.5 28t27.5 77zM324 587l-29 15q-26 15 -39 15q-28 0 -28 -31v-8 h-128q-3 20 -3 38q0 71 38.5 113.5t93.5 42.5q37 0 74 -19l29 -15q26 -15 39 -15q28 0 28 31v8h128q3 -19 3 -38q0 -71 -38.5 -113.5t-93.5 -42.5q-37 0 -74 19z"></glyph><glyph glyph-name="yacute.ss01" d="M369 500h172v-433q0 -120 -67 -189.5t-185 -69.5q-68 0 -134 24t-114 65l87 121q70 -56 139 -56q102 0 102 89v18q-53 -47 -130 -47q-83 0 -135 56.5t-52 147.5v274h172v-249q0 -33 20.5 -53.5t52.5 -20.5t52 20.5t20 53.5v249zM234 574l64 206h207v-30l-147 -176h-124z "></glyph><glyph glyph-name="ycircumflex.ss01" d="M369 500h172v-433q0 -120 -67 -189.5t-185 -69.5q-68 0 -134 24t-114 65l87 121q70 -56 139 -56q102 0 102 89v18q-53 -47 -130 -47q-83 0 -135 56.5t-52 147.5v274h172v-249q0 -33 20.5 -53.5t52.5 -20.5t52 20.5t20 53.5v249zM488 574h-124l-67 72l-67 -72h-124 l134 206h115z"></glyph><glyph glyph-name="ydieresis.ss01" d="M369 500h172v-433q0 -120 -67 -189.5t-185 -69.5q-68 0 -134 24t-114 65l87 121q70 -56 139 -56q102 0 102 89v18q-53 -47 -130 -47q-83 0 -135 56.5t-52 147.5v274h172v-249q0 -33 20.5 -53.5t52.5 -20.5t52 20.5t20 53.5v249zM72 678q0 38 29 65.5t70 27.5 q39 0 67.5 -27.5t28.5 -65.5q0 -39 -28.5 -66.5t-67.5 -27.5q-41 0 -70 27.5t-29 66.5zM327 678q0 38 29 65.5t70 27.5q39 0 67.5 -27.5t28.5 -65.5q0 -39 -28.5 -66.5t-67.5 -27.5q-41 0 -70 27.5t-29 66.5z"></glyph><glyph glyph-name="ygrave.ss01" d="M369 500h172v-433q0 -120 -67 -189.5t-185 -69.5q-68 0 -134 24t-114 65l87 121q70 -56 139 -56q102 0 102 89v18q-53 -47 -130 -47q-83 0 -135 56.5t-52 147.5v274h172v-249q0 -33 20.5 -53.5t52.5 -20.5t52 20.5t20 53.5v249zM236 574l-147 176v30h207l64 -206h-124z "></glyph><glyph glyph-name="ordfeminine.ss01" d="M256 562h116v-318h-116v25q-27 -33 -82 -33q-67 0 -109 46.5t-42 119.5q0 74 42 120q44 47 109 47q54 0 82 -33v26zM247 402q0 24 -13.5 38t-33.5 14t-33.5 -13t-13.5 -38t13.5 -38.5t33.5 -13.5t33.5 13.5t13.5 37.5z"></glyph><glyph glyph-name="uni0414.loclBGR" d="M672 155h89v-296h-172v141h-397v-141h-172v296h89l254 517h55zM390 376l-108 -221h215z"></glyph><glyph glyph-name="uni041B.loclBGR" d="M657 0h-185l-142 326l-143 -326h-185l300 672h55z"></glyph><glyph glyph-name="uni0424.loclBGR" d="M518 16v-59h-172v59q-137 11 -225.5 98t-88.5 218q0 129 88.5 216t225.5 96v59h172v-59q138 -9 226 -95t88 -217q0 -132 -88.5 -219.5t-225.5 -96.5zM346 162v336q-65 -9 -106.5 -56t-41.5 -115t41 -112.5t107 -52.5zM666 327q0 68 -41.5 115t-106.5 56v-336 q66 8 107 52.5t41 112.5z"></glyph><glyph glyph-name="uni0432.loclBGR" d="M574 221q0 -105 -73 -169t-186 -64q-118 0 -190.5 70t-72.5 182v280q0 106 67.5 174t177.5 68q121 0 181 -59t60 -146q0 -101 -77 -156q113 -53 113 -180zM224 519v-64h46q46 0 70.5 21.5t24.5 61.5q0 33 -18 51.5t-50 18.5q-35 0 -54 -23t-19 -66zM401 227 q0 40 -29 65.5t-79 25.5h-69v-72q0 -50 24 -77.5t66 -27.5q39 0 63 24t24 62z"></glyph><glyph glyph-name="uni0433.loclBGR" d="M23 147q0 112 149 166l51 18q30 10 30 27q0 19 -35 19q-56 0 -106 -43l-81 105q70 73 197 73q91 0 143 -39.5t52 -111.5q0 -117 -148 -170l-57 -20q-25 -9 -25 -25q0 -22 44 -22q73 0 138 62l80 -102q-74 -96 -217 -96q-95 0 -155 42t-60 117z"></glyph><glyph glyph-name="uni0434.loclBGR" d="M414 500h157v-439q0 -125 -71 -189t-197 -64q-145 0 -252 90l87 121q75 -57 147 -57q51 0 82.5 22.5t31.5 65.5v18q-46 -46 -131 -46q-104 0 -170.5 67.5t-66.5 178.5t67 177.5t170 66.5q100 0 146 -63v51zM402 271q0 48 -27.5 73.5t-69.5 25.5q-43 0 -70.5 -26.5 t-27.5 -73.5t28.5 -76.5t69.5 -29.5t69 29t28 78z"></glyph><glyph glyph-name="uni0436.loclBGR" d="M886 0h-202l-160 242v-242h-172v242l-160 -242h-192l173 259l-168 241h199l148 -219v469h172v-469l148 219h199l-163 -233z"></glyph><glyph glyph-name="uni0437.loclBGR" d="M476 20q0 -94 -60 -153t-170 -59q-145 0 -221 89l82 116q56 -52 123 -52q38 0 59 19.5t21 53.5t-22.5 52.5t-63.5 18.5h-64v144h60q69 0 69 54q0 56 -66 56q-51 0 -94 -40l-81 116q75 77 195 77q102 0 157 -49t55 -130q0 -93 -64 -144q85 -60 85 -169z"></glyph><glyph glyph-name="uni0438.loclBGR" d="M369 500h172v-500h-157v41q-56 -53 -141 -53q-87 0 -139 55.5t-52 148.5v308h172v-283q0 -33 20.5 -53.5t52.5 -20.5t52 20.5t20 53.5v283z"></glyph><glyph glyph-name="uni0439.loclBGR" d="M369 500h172v-500h-157v41q-56 -53 -141 -53q-87 0 -139 55.5t-52 148.5v308h172v-283q0 -33 20.5 -53.5t52.5 -20.5t52 20.5t20 53.5v283zM113 755v25h135v-25q0 -65 51 -65t51 65v25h135v-25q0 -82 -52 -134t-134 -52t-134 52t-52 134z"></glyph><glyph glyph-name="uni045D.loclBGR" d="M369 500h172v-500h-157v41q-56 -53 -141 -53q-87 0 -139 55.5t-52 148.5v308h172v-283q0 -33 20.5 -53.5t52.5 -20.5t52 20.5t20 53.5v283zM238 574l-147 176v30h207l64 -206h-124z"></glyph><glyph glyph-name="uni043A.loclBGR" d="M595 0h-189l-178 264v-264h-172v750h172v-452l156 202h199l-172 -223z"></glyph><glyph glyph-name="uni043B.loclBGR" d="M569 0h-182l-101 225l-102 -225h-182l256 512h55z"></glyph><glyph glyph-name="uni043F.loclBGR" d="M545 308v-308h-172v283q0 33 -20.5 53.5t-52.5 20.5t-52 -20.5t-20 -53.5v-283h-172v500h157v-41q56 53 141 53q87 0 139 -55.5t52 -148.5z"></glyph><glyph glyph-name="uni0442.loclBGR" d="M852 308v-308h-172v283q0 35 -19 54.5t-52 19.5q-31 0 -50 -19.5t-19 -54.5v-283h-172v283q0 35 -19 54.5t-52 19.5q-31 0 -50 -19.5t-19 -54.5v-283h-172v500h157v-39q54 51 137 51q93 0 145 -64q64 64 164 64q89 0 141 -55.5t52 -148.5z"></glyph><glyph glyph-name="uni0446.loclBGR" d="M541 144h83v-285h-162v141h-78v41q-56 -53 -141 -53q-87 0 -139 55.5t-52 148.5v308h172v-283q0 -33 20.5 -53.5t52.5 -20.5t52 20.5t20 53.5v283h172v-356z"></glyph><glyph glyph-name="uni0448.loclBGR" d="M676 500h172v-500h-157v39q-54 -51 -137 -51q-93 0 -145 64q-64 -64 -164 -64q-89 0 -141 55.5t-52 148.5v308h172v-283q0 -33 20 -53.5t51 -20.5t50 19.5t19 54.5v283h172v-283q0 -33 20 -53.5t51 -20.5t50 19.5t19 54.5v283z"></glyph><glyph glyph-name="uni0449.loclBGR" d="M848 144h83v-285h-162v141h-78v39q-54 -51 -137 -51q-93 0 -145 64q-64 -64 -164 -64q-89 0 -141 55.5t-52 148.5v308h172v-283q0 -33 20 -53.5t51 -20.5t50 19.5t19 54.5v283h172v-283q0 -33 20 -53.5t51 -20.5t50 19.5t19 54.5v283h172v-356z"></glyph><glyph glyph-name="uni044C.loclBGR" d="M518 192q0 -98 -65 -151t-168 -53q-101 0 -167 61t-66 164v287h172v-115h53q113 0 177 -49.5t64 -143.5zM343 185q0 27 -17 41.5t-47 14.5h-55v-49q0 -27 17 -43.5t45 -16.5q26 0 41.5 14t15.5 39z"></glyph><glyph glyph-name="uni044A.loclBGR" d="M120 213v143h-110v144h282v-115h53q113 0 177 -49.5t64 -143.5q0 -98 -65 -151t-168 -53q-101 0 -167 61t-66 164zM411 185q0 27 -17 41.5t-47 14.5h-55v-49q0 -27 17 -43.5t45 -16.5q26 0 41.5 14t15.5 39z"></glyph><glyph glyph-name="uni044E.loclBGR" d="M793 250q0 -109 -76.5 -185.5t-185.5 -76.5q-91 0 -158 54q-67 55 -88 141h-53v-183h-172v750h172v-423h56q22 81 89 133t154 52q109 0 185.5 -76.5t76.5 -185.5zM621 250q0 45 -26.5 74.5t-67.5 29.5t-68 -29t-27 -75t27 -75t68 -29t67.5 29.5t26.5 74.5z"></glyph><glyph glyph-name="uni0431.loclSRB" d="M576 240q2 -104 -80.5 -179t-192.5 -73q-111 -2 -192 72.5t-80 179.5q0 69 35.5 123t96.5 82q-102 55 -102 147q0 73 53 115.5t150 42.5h255v-144h-249q-40 0 -40 -32q0 -15 12 -26.5t45 -23.5l79 -30q118 -45 164 -109q46 -62 46 -145zM400 240q0 41 -27.5 67.5 t-68.5 26.5q-43 0 -70 -26.5t-27 -67.5q0 -42 27 -68t70 -26q41 0 68.5 26.5t27.5 67.5z"></glyph><glyph glyph-name="uni0430.ss01" d="M414 500h157v-500h-157v52q-46 -64 -143 -64q-105 0 -172.5 73.5t-67.5 187.5t68 188.5t172 74.5q95 0 143 -64v52zM402 249q0 49 -28 78t-69 29t-69.5 -28.5t-28.5 -77.5t27.5 -77.5t70.5 -28.5q42 0 69.5 28t27.5 77z"></glyph><glyph glyph-name="uni0434.ss01" d="M570 144h84v-285h-162v141h-310v-141h-162v285h85l201 368h64zM338 269l-60 -125h121z"></glyph><glyph glyph-name="uni0443.ss01" d="M369 500h172v-433q0 -120 -67 -189.5t-185 -69.5q-68 0 -134 24t-114 65l87 121q70 -56 139 -56q102 0 102 89v18q-53 -47 -130 -47q-83 0 -135 56.5t-52 147.5v274h172v-249q0 -33 20.5 -53.5t52.5 -20.5t52 20.5t20 53.5v249z"></glyph><glyph glyph-name="uni045E.ss01" d="M369 500h172v-433q0 -120 -67 -189.5t-185 -69.5q-68 0 -134 24t-114 65l87 121q70 -56 139 -56q102 0 102 89v18q-53 -47 -130 -47q-83 0 -135 56.5t-52 147.5v274h172v-249q0 -33 20.5 -53.5t52.5 -20.5t52 20.5t20 53.5v249zM117 755v25h135v-25q0 -65 51 -65t51 65 v25h135v-25q0 -82 -52 -134t-134 -52t-134 52t-52 134z"></glyph><glyph glyph-name="uni0444.ss01" d="M939 251q0 -114 -68 -188.5t-172 -74.5q-79 0 -128 46v-214h-172v214q-49 -46 -128 -46q-104 0 -172 74.5t-68 188.5t67.5 187.5t172.5 73.5q81 0 128 -46v284h172v-284q47 46 128 46q105 0 172.5 -73.5t67.5 -187.5zM402 251q0 49 -27.5 77t-69.5 28q-43 0 -70.5 -28.5 t-27.5 -77.5t28.5 -77.5t69.5 -28.5t69 29t28 78zM763 250q0 49 -27.5 77.5t-70.5 28.5q-42 0 -69.5 -28t-27.5 -77t28 -78t69 -29t69.5 28.5t28.5 77.5z"></glyph><glyph glyph-name="uni04EF.ss01" d="M369 500h172v-433q0 -120 -67 -189.5t-185 -69.5q-68 0 -134 24t-114 65l87 121q70 -56 139 -56q102 0 102 89v18q-53 -47 -130 -47q-83 0 -135 56.5t-52 147.5v274h172v-249q0 -33 20.5 -53.5t52.5 -20.5t52 20.5t20 53.5v249zM143 610v134h320v-134h-320z"></glyph><glyph glyph-name="uni04F3.ss01" d="M369 500h172v-433q0 -120 -67 -189.5t-185 -69.5q-68 0 -134 24t-114 65l87 121q70 -56 139 -56q102 0 102 89v18q-53 -47 -130 -47q-83 0 -135 56.5t-52 147.5v274h172v-249q0 -33 20.5 -53.5t52.5 -20.5t52 20.5t20 53.5v249zM128 574l64 206h177v-30l-127 -176h-114z M357 574l64 206h177v-30l-127 -176h-114z"></glyph><glyph glyph-name="Xi.ss01" d="M629 505h-200v-105h128v-155h-128v-90h200v-155h-588v155h210v90h-138v155h138v105h-210v155h588v-155z"></glyph><glyph glyph-name="xi.ss01" d="M473 -42q0 -68 -32 -138h-168q26 50 26 93q0 37 -14.5 55t-50.5 27l-28 7q-81 20 -125.5 73t-44.5 128q0 58 26 106t72 76q-79 58 -79 167q0 90 67.5 149.5t170.5 59.5q77 0 137.5 -35t93.5 -99l-119 -91q-41 67 -96 67q-79 0 -79 -73q0 -36 21.5 -57.5t58.5 -21.5h114 v-144h-127q-40 0 -63 -20.5t-23 -55.5q0 -37 23 -57.5t81 -35.5l27 -7q65 -17 98 -62t33 -111z"></glyph><glyph glyph-name="zero.osf" d="M36 270q-2 117 84.5 200.5t206.5 81.5q119 2 207 -82t86 -200q2 -117 -86 -201t-207 -81q-120 -2 -206.5 81.5t-84.5 200.5zM443 270q0 54 -33 89t-82 35q-51 0 -83.5 -35t-32.5 -89q0 -55 32 -89.5t84 -34.5q49 0 82 35t33 89z"></glyph><glyph glyph-name="one.osf" d="M65 0v144h135v242h-126v154h298v-396h123v-144h-430z"></glyph><glyph glyph-name="two.osf" d="M411 144h137v-144h-511v35l215 162q60 45 83 72t23 58q0 28 -20 47.5t-50 19.5q-31 0 -49 -19t-18 -50q0 -11 3 -35h-169q-7 27 -7 53q0 84 69 146.5t176 62.5q104 0 172.5 -59.5t68.5 -147.5q0 -55 -29.5 -102t-93.5 -99z"></glyph><glyph glyph-name="three.osf" d="M509 99q0 -99 -74.5 -165.5t-183.5 -66.5q-85 0 -151 42t-100 116l119 84q30 -45 58.5 -64.5t66.5 -19.5q40 0 64.5 19.5t24.5 53.5q0 70 -114 70h-94v44l117 174h-188v154h445v-45l-130 -194q62 -25 101 -78.5t39 -123.5z"></glyph><glyph glyph-name="four.osf" d="M588 144v-144h-77v-121h-172v121h-326v45l189 495h177l-153 -396h113v162h172v-162h77z"></glyph><glyph glyph-name="five.osf" d="M521 101q0 -101 -76 -167.5t-188 -66.5q-87 0 -154.5 42t-101.5 116l119 84q30 -45 59.5 -64.5t70.5 -19.5q43 0 69 19.5t26 54.5q0 69 -114 69h-157v372h409v-154h-246v-77q35 7 63 7q86 2 154.5 -60t66.5 -155z"></glyph><glyph glyph-name="six.osf" d="M539 232q2 -102 -76 -174t-178 -70q-103 0 -178.5 70.5t-75.5 175.5q0 54 21 98q23 45 69 107l165 221h203l-147 -199q80 -11 138.5 -74.5t58.5 -154.5zM369 233q0 37 -24.5 61t-59.5 24t-59.5 -24t-24.5 -61t24.5 -62t59.5 -25t59.5 25t24.5 62z"></glyph><glyph glyph-name="seven.osf" d="M40 540h478v-45l-282 -616h-187l241 507h-250v154z"></glyph><glyph glyph-name="eight.osf" d="M555 181q0 -89 -72 -141t-185 -52q-114 0 -186 52t-72 141q0 109 114 160q-85 58 -85 150q0 85 64 133q65 48 165 48t164 -48t64 -133q0 -92 -85 -150q114 -51 114 -160zM226 483q0 -21 17 -37t55 -35q38 18 54.5 35t16.5 38q0 24 -20 38.5t-51 14.5t-51.5 -15t-20.5 -39 zM385 188q0 51 -88 82q-87 -32 -87 -82q0 -29 22.5 -46t65.5 -17q42 0 64.5 17t22.5 46z"></glyph><glyph glyph-name="nine.osf" d="M539 306q0 -54 -22 -98q-21 -43 -68 -107l-165 -222h-203l147 200q-80 11 -138.5 74.5t-58.5 154.5q-2 102 76 174t179 70q101 2 178 -70.5t75 -175.5zM369 307q0 37 -24.5 62t-59.5 25t-59.5 -25t-24.5 -62t24.5 -61t59.5 -24q36 0 60 24.5t24 60.5z"></glyph><glyph glyph-name="zero.osf.zero" d="M620 269q2 -116 -86 -199.5t-207 -81.5q-119 -2 -206 81.5t-85 199.5q-2 117 84.5 200.5t206.5 81.5q119 2 207 -82t86 -200zM201 269q0 -22 4 -35l164 164q-19 6 -41 6q-55 0 -91 -37.5t-36 -97.5zM456 269q0 25 -6 46l-171 -171q23 -9 49 -9q56 0 92 36.5t36 97.5z"></glyph><glyph glyph-name="zero.tf" d="M29 335q0 159 64.5 248t186.5 89t186.5 -89t64.5 -248t-64 -253t-187 -94t-187 94t-64 253zM355 334q0 96 -17.5 138t-57.5 42t-57.5 -42t-17.5 -138q0 -99 18 -143.5t57 -44.5t57 44.5t18 143.5z"></glyph><glyph glyph-name="one.tf" d="M395 144h143v-144h-480v144h165v315l-142 -40l-41 152l300 89h55v-516z"></glyph><glyph glyph-name="two.tf" d="M330 144h204v-144l-505 -1v35l237 259q79 86 79 146q0 35 -19 55t-50 20t-49.5 -21t-18.5 -58q0 -21 4 -44h-173q-7 27 -7 56q-2 88 69.5 157.5t177.5 67.5q103 0 172.5 -62t69.5 -155q0 -65 -34 -123.5t-110 -138.5z"></glyph><glyph glyph-name="three.tf" d="M515 220q0 -99 -74.5 -165.5t-183.5 -66.5q-85 0 -151 42t-100 116l119 84q30 -45 58.5 -64.5t66.5 -19.5q40 0 64.5 19.5t24.5 53.5q0 68 -114 68h-94v44l117 174h-188v155h445v-45l-131 -195q63 -24 102 -77t39 -123z"></glyph><glyph glyph-name="four.tf" d="M550 242v-144h-57v-98h-172v98h-316v45l156 517h179l-126 -418h107v162h172v-162h57z"></glyph><glyph glyph-name="five.tf" d="M531 222q0 -101 -76 -167.5t-188 -66.5q-87 0 -154.5 42t-101.5 116l119 84q30 -45 59.5 -64.5t70.5 -19.5q43 0 69 19.5t26 54.5q0 67 -114 67h-157v373h409v-155h-246v-77q35 7 63 7q86 2 154.5 -59t66.5 -154z"></glyph><glyph glyph-name="six.tf" d="M534 232q2 -102 -76 -174t-178 -70q-103 0 -178.5 70.5t-75.5 175.5q0 54 21 98q23 45 69 107l165 221h203l-147 -199q80 -11 138.5 -74.5t58.5 -154.5zM364 233q0 37 -24 61t-60 24t-60 -24t-24 -61t24.5 -62t59.5 -25t59.5 25t24.5 62z"></glyph><glyph glyph-name="seven.tf" d="M58 660h478v-45l-281 -615h-187l240 505h-250v155z"></glyph><glyph glyph-name="eight.tf" d="M537 181q0 -89 -72 -141t-185 -52q-114 0 -186 52t-72 141q0 109 114 160q-85 58 -85 150q0 85 64 133q65 48 165 48t164 -48t64 -133q0 -92 -85 -150q114 -51 114 -160zM208 483q0 -21 17 -37t55 -35q38 18 54.5 35t16.5 38q0 24 -20 38.5t-51 14.5t-51.5 -15t-20.5 -39 zM367 188q0 51 -88 82q-87 -32 -87 -82q0 -29 22.5 -46t65.5 -17q42 0 64.5 17t22.5 46z"></glyph><glyph glyph-name="nine.tf" d="M534 426q0 -55 -22 -98q-21 -43 -68 -107l-165 -221h-203l147 199q-80 11 -138.5 74.5t-58.5 154.5q-2 102 76 174t178 70q103 0 178.5 -70.5t75.5 -175.5zM364 427q0 37 -24.5 62t-59.5 25t-59.5 -25t-24.5 -62t24 -61t60 -24t60 24.5t24 60.5z"></glyph><glyph glyph-name="zero.tf.zero" d="M531 335q0 -159 -64 -253t-187 -94t-187 94t-64 253t64.5 248t186.5 89t186.5 -89t64.5 -248zM191 334v-2l153 154q-20 41 -64 41q-45 0 -67 -46.5t-22 -146.5zM369 326l-152 -151q23 -42 63 -42q88 0 89 193z"></glyph><glyph glyph-name="zero.tosf" d="M18 269q-2 122 75 203t186 79q109 2 187 -79t76 -203q0 -124 -75.5 -202.5t-187.5 -78.5q-109 -2 -186 78.5t-75 202.5zM365 269q0 59 -23 91.5t-63 32.5t-62.5 -32t-22.5 -92t22.5 -91.5t62.5 -31.5t63 32t23 91z"></glyph><glyph glyph-name="one.tosf" d="M53 0v144h165v242h-156v154h328v-396h153v-144h-490z"></glyph><glyph glyph-name="two.tosf" d="M397 144h137v-144h-511v35l215 162q59 44 82.5 71.5t23.5 58.5q0 28 -20 47.5t-50 19.5q-31 0 -49 -19t-18 -50q0 -11 3 -35h-169q-7 27 -7 53q0 84 69 146.5t176 62.5q104 0 172.5 -59.5t68.5 -147.5q0 -55 -29.5 -102t-93.5 -99z"></glyph><glyph glyph-name="three.tosf" d="M515 99q0 -99 -74.5 -165.5t-183.5 -66.5q-85 0 -151 42t-100 116l119 84q30 -45 58.5 -64.5t66.5 -19.5q40 0 64.5 19.5t24.5 53.5q0 70 -114 70h-94v44l117 174h-188v154h445v-45l-131 -194q63 -24 102 -77.5t39 -124.5z"></glyph><glyph glyph-name="four.tosf" d="M552 144v-144h-57v-121h-172v121h-316v45l149 495h179l-119 -396h107v162h172v-162h57z"></glyph><glyph glyph-name="five.tosf" d="M531 101q0 -101 -76 -167.5t-188 -66.5q-87 0 -154.5 42t-101.5 116l119 84q30 -45 59.5 -64.5t70.5 -19.5q43 0 69 19.5t26 54.5q0 69 -114 69h-157v372h409v-154h-246v-77q35 7 63 7q86 2 154.5 -60t66.5 -155z"></glyph><glyph glyph-name="six.tosf" d="M534 232q2 -102 -76 -174t-178 -70q-103 0 -178.5 70.5t-75.5 175.5q0 54 21 98q23 45 69 107l165 221h203l-147 -199q80 -11 138.5 -74.5t58.5 -154.5zM364 233q0 37 -24 61t-60 24t-60 -24t-24 -61t24.5 -62t59.5 -25t59.5 25t24.5 62z"></glyph><glyph glyph-name="seven.tosf" d="M58 540h478v-45l-282 -616h-187l241 507h-250v154z"></glyph><glyph glyph-name="eight.tosf" d="M537 181q0 -89 -72 -141t-185 -52q-114 0 -186 52t-72 141q0 109 114 160q-85 58 -85 150q0 85 64 133q65 48 165 48t164 -48t64 -133q0 -92 -85 -150q114 -51 114 -160zM208 483q0 -21 17 -37t55 -35q38 18 54.5 35t16.5 38q0 24 -20 38.5t-51 14.5t-51.5 -15t-20.5 -39 zM367 188q0 51 -88 82q-87 -32 -87 -82q0 -29 22.5 -46t65.5 -17q42 0 64.5 17t22.5 46z"></glyph><glyph glyph-name="nine.tosf" d="M534 306q0 -54 -22 -98q-21 -43 -68 -107l-165 -222h-203l147 200q-80 11 -138.5 74.5t-58.5 154.5q-2 102 76 174t179 70q101 2 178 -70.5t75 -175.5zM364 307q0 37 -24.5 62t-59.5 25t-59.5 -25t-24.5 -62t24 -61t60 -24t60 24.5t24 60.5z"></glyph><glyph glyph-name="zero.tosf.zero" d="M542 269q0 -124 -75.5 -202.5t-187.5 -78.5q-109 -2 -186 78.5t-75 202.5q-2 122 75 203t186 79q109 2 187 -79t76 -203zM180 269v-14l142 142q-20 9 -42 9q-46 0 -73 -36t-27 -101zM380 269q0 19 -1 24l-147 -147q19 -13 48 -13q46 0 73 36.5t27 99.5z"></glyph><glyph glyph-name="zero.zero" d="M598 335q0 -153 -72 -250t-202 -97t-202 97t-72 250q0 151 71.5 244t202.5 93t202.5 -93t71.5 -244zM212 334v-23l185 183q-27 33 -73 33q-112 0 -112 -193zM436 334v17l-184 -183q27 -35 72 -35q112 0 112 201z"></glyph><glyph glyph-name="zero.dnom" d="M37 211q0 96 47 154.5t130 58.5q86 0 132 -60q46 -58 46 -153q0 -96 -47 -158q-46 -61 -131 -61t-131 61t-46 158zM267 210q0 102 -53 102q-52 0 -52 -102q0 -106 52 -106q53 0 53 106z"></glyph><glyph glyph-name="one.dnom" d="M39 0v110h102v196h-91v110h213v-306h83v-110h-307z"></glyph><glyph glyph-name="two.dnom" d="M253 110h104v-110l-325 -1v25l149 164q45 50 45 85q0 39 -35 39q-34 0 -34 -41q0 -1 0.5 -4t1 -9.5t0.5 -13.5h-122q-4 15 -4 35q0 58 45 101.5t115 43.5q68 0 112 -40q46 -39 46 -100q0 -73 -91 -167z"></glyph><glyph glyph-name="three.dnom" d="M334 140q0 -62 -48 -105t-118 -43q-56 0 -98.5 27.5t-63.5 75.5l84 59q32 -50 73 -50q46 0 46 36q0 33 -64 33h-53v30l66 103h-117v110h288v-32l-77 -119q37 -16 59.5 -49t22.5 -76z"></glyph><glyph glyph-name="four.dnom" d="M381 158v-100h-45v-58h-112v58h-215v32l121 326h126l-97 -258h66l2 95h109v-95h45z"></glyph><glyph glyph-name="five.dnom" d="M343 142q0 -64 -48.5 -107t-121.5 -43q-57 0 -101 27.5t-65 75.5l84 59q19 -27 36 -38.5t40 -11.5q51 0 51 36q0 33 -64 33h-100v243h268v-110h-152v-33q15 4 35 4q53 0 95.5 -38t42.5 -97z"></glyph><glyph glyph-name="six.dnom" d="M351 149q0 -67 -49 -112t-115 -45t-115 45.5t-49 113.5q0 32 12.5 59.5t44.5 68.5l104 137h143l-92 -122q47 -11 81 -49q35 -40 35 -96zM231 149q0 19 -13 32t-31 13t-31 -13t-13 -32t13 -32t31 -13t31 13t13 32z"></glyph><glyph glyph-name="seven.dnom" d="M30 416h306v-32l-169 -384h-132l141 306h-146v110z"></glyph><glyph glyph-name="eight.dnom" d="M362 116q0 -57 -46.5 -90.5t-119.5 -33.5t-119.5 33.5t-46.5 90.5q0 67 67 98q-49 36 -49 93q0 54 41 85.5t107 31.5t107 -31.5t41 -85.5q0 -56 -49 -93q67 -31 67 -98zM159 301q0 -19 37 -37q37 18 37 37q0 12 -10.5 19.5t-26.5 7.5t-26.5 -7.5t-10.5 -19.5zM241 121 q0 26 -45 43q-46 -18 -46 -43q0 -32 46 -32q45 0 45 32z"></glyph><glyph glyph-name="nine.dnom" d="M351 265q0 -32 -12.5 -59.5t-44.5 -68.5l-104 -137h-143l92 122q-47 11 -81 49q-35 40 -35 96q0 67 49 112t115 45t115 -45.5t49 -113.5zM231 267q0 19 -13 32t-31 13t-31 -13t-13 -32t13 -32t31 -13t31 13t13 32z"></glyph><glyph glyph-name="zero.numr" d="M37 455q0 96 47 154.5t130 58.5q86 0 132 -60q46 -58 46 -153q0 -96 -47 -158q-46 -61 -131 -61t-131 61t-46 158zM267 454q0 102 -53 102q-52 0 -52 -102q0 -106 52 -106q53 0 53 106z"></glyph><glyph glyph-name="one.numr" d="M39 244v110h102v196h-91v110h213v-306h83v-110h-307z"></glyph><glyph glyph-name="two.numr" d="M253 354h104v-110l-325 -1v25l149 164q45 50 45 85q0 39 -35 39q-34 0 -34 -41q0 -1 0.5 -4t1 -9.5t0.5 -13.5h-122q-4 15 -4 35q0 58 45 101.5t115 43.5q68 0 112 -40q46 -39 46 -100q0 -73 -91 -167z"></glyph></font>
</defs>
</svg>
