<?xml version="1.0" encoding="UTF-8" standalone="no"?> <svg xmlns="http://www.w3.org/2000/svg" xmlns:xlink="http://www.w3.org/1999/xlink" version="1.1"><metadata> Created by FontForge 20190801 at Thu May 24 21:11:32 2018 By Jimmy Wärting Copyright (c) 2015, 2018 by Jakob Runge, under exclusive license to TypeMates. All rights reserved. </metadata><defs><font id="CeraPro-Light"><glyph glyph-name="fi" unicode="fi" d="M151 613v-130h127v-46h-127v-437h-50v437h-70v46h70v132q0 73 38.5 109t107.5 36q29 0 55 -6v-44q-20 4 -46 4q-105 0 -105 -101zM392 0v483h50v-483h-50zM373 669q0 18 12.5 31t31.5 13q18 0 31 -13t13 -31t-13 -31t-31 -13q-19 0 -31.5 13t-12.5 31z"></glyph><glyph glyph-name="fl" unicode="fl" d="M151 613v-130h127v-46h-127v-437h-50v437h-70v46h70v132q0 73 38.5 109t107.5 36q29 0 55 -6v-44q-20 4 -46 4q-105 0 -105 -101zM392 0v750h50v-750h-50z"></glyph><glyph glyph-name=".notdef" d="M98 660h509v-660h-509v660zM564 39v582h-426z"></glyph><glyph glyph-name=".null"></glyph><glyph glyph-name="nonmarkingreturn"></glyph><glyph glyph-name="space" unicode=" "></glyph><glyph glyph-name="exclam" unicode="!" d="M121 194l-10 466h62l-9 -466h-43zM93 38q0 22 14.5 36t34.5 14q21 0 35.5 -14.5t14.5 -35.5t-14.5 -34.5t-35.5 -13.5t-35 13.5t-14 34.5z"></glyph><glyph glyph-name="quotedbl" unicode="&quot;" d="M100 413l17 247h61l-37 -247h-41zM259 413l17 247h61l-37 -247h-41z"></glyph><glyph glyph-name="numbersign" unicode="#" d="M551 436h-96l-28 -212h102v-44h-108l-25 -180h-44l24 180h-211l-25 -180h-45l24 180h-89v44h95l29 212h-101v44h107l24 180h46l-25 -180h211l24 180h46l-25 -180h90v-44zM171 224h211l28 212h-211z"></glyph><glyph glyph-name="dollar" unicode="$" d="M292 23v-115h-51v116q-125 13 -197 136l39 27q63 -102 158 -116v255l-14 6q-69 33 -102.5 66.5t-33.5 88.5q0 59 41.5 98t108.5 47v119h51v-118q101 -8 161 -102l-36 -28q-52 75 -125 82v-228l30 -14q72 -33 107 -70.5t35 -92.5q0 -67 -49 -110t-123 -47zM241 380v204 q-97 -16 -97 -95q0 -39 22.5 -62t74.5 -47zM411 179q0 40 -27 67.5t-85 53.5l-7 3v-233q54 5 86.5 34t32.5 75z"></glyph><glyph glyph-name="percent" unicode="%" d="M71 511q0 66 47 112.5t113 46.5t113 -46.5t47 -112.5t-47 -112.5t-113 -46.5t-113 46.5t-47 112.5zM204 0l380 660h47l-379 -660h-48zM346 511q0 50 -33 84t-82 34t-81.5 -34t-32.5 -84t32.5 -84t81.5 -34t82 34t33 84zM443 150q0 66 47 112.5t113 46.5t113 -46.5 t47 -112.5t-47 -112.5t-113 -46.5t-113 46.5t-47 112.5zM717 150q0 50 -32.5 84t-81.5 34t-81.5 -34t-32.5 -84t32.5 -84t81.5 -34t81.5 34t32.5 84z"></glyph><glyph glyph-name="ampersand" unicode="&amp;" d="M583 291l-15 -24q0 -1 -38 -59q-22 -33 -56 -79l108 -129h-64l-76 90q-88 -100 -195 -100q-83 0 -139 47.5t-56 118.5q0 54 35 101q37 48 123 110q-42 52 -60 89t-18 76q0 62 38 100t99 38q59 0 98 -36.5t39 -93.5q0 -88 -126 -181l162 -192q26 36 81 122l18 29zM183 532 q0 -32 15 -62t53 -76q104 78 104 145q0 38 -23 60.5t-63 22.5q-41 0 -63.5 -23.5t-22.5 -66.5zM410 128l-171 203q-83 -64 -108.5 -96t-25.5 -74q0 -53 40 -87.5t102 -34.5q89 0 163 89z"></glyph><glyph glyph-name="quotesingle" unicode="'" d="M100 413l17 247h61l-37 -247h-41z"></glyph><glyph glyph-name="parenleft" unicode="(" d="M83 300q0 187 54 289q55 102 136 142l21 -36q-68 -41 -114 -134q-46 -92 -46 -261t46 -262q46 -94 114 -133l-21 -36q-81 39 -136 142q-54 103 -54 289z"></glyph><glyph glyph-name="parenright" unicode=")" d="M51 -131l-22 36q68 39 114 133q47 96 47 262q0 167 -47 261q-46 93 -114 134l22 36q81 -41 134 -142q55 -101 55 -289q0 -186 -55 -289q-53 -101 -134 -142z"></glyph><glyph glyph-name="asterisk" unicode="*" d="M335 658l-97 -62l97 -63l-18 -30l-102 53l-6 -115h-34l-6 115l-102 -53l-17 30l96 63l-96 62l17 30l102 -53l6 115h34l6 -115l102 53z"></glyph><glyph glyph-name="plus" unicode="+" d="M256 90v199h-194v45h194v198h50v-198h191v-45h-191v-199h-50z"></glyph><glyph glyph-name="comma" unicode="," d="M100 -180l17 255h62l-36 -255h-43z"></glyph><glyph glyph-name="hyphen" unicode="-" d="M57 289v44h228v-44h-228z"></glyph><glyph glyph-name="period" unicode="." d="M91 38q0 22 14 36t34 14q22 0 36 -13.5t14 -36.5q0 -21 -14.5 -34.5t-35.5 -13.5q-19 0 -33.5 14t-14.5 34z"></glyph><glyph glyph-name="slash" unicode="/" d="M9 -121l523 901h57l-523 -901h-57z"></glyph><glyph glyph-name="zero" unicode="0" d="M71 336q0 152 57 243q58 91 175 91t174 -91q58 -89 58 -243q0 -152 -57 -249t-175 -97t-175 97t-57 249zM481 336q0 286 -178 286q-177 0 -177 -286q0 -135 42 -216q44 -81 135 -81q93 0 135 81q43 80 43 216z"></glyph><glyph glyph-name="one" unicode="1" d="M232 660h21v-660h-52v601l-153 -50l-12 45z"></glyph><glyph glyph-name="two" unicode="2" d="M144 47h351v-47h-447v15l239 248q66 69 94 115.5t28 95.5q0 61 -39.5 104.5t-104.5 43.5q-66 0 -107.5 -45.5t-41.5 -105.5q0 -29 7 -58h-54q-7 25 -7 60q0 78 56.5 137.5t145.5 59.5q87 0 143.5 -55.5t56.5 -137.5q0 -48 -19 -87q-17 -38 -41.5 -69.5t-79.5 -88.5z"></glyph><glyph glyph-name="three" unicode="3" d="M475 205q0 -97 -66.5 -156t-160.5 -59q-136 0 -217 130l38 27q67 -108 179 -108q77 0 124 46q49 46 49 120q0 72 -48.5 114t-134.5 42h-56v16l190 235h-299v48h383v-17l-192 -237q85 0 148 -53t63 -148z"></glyph><glyph glyph-name="four" unicode="4" d="M509 175v-46h-101v-129h-52v129h-332v17l221 514h54l-209 -485h266v238h52v-238h101z"></glyph><glyph glyph-name="five" unicode="5" d="M493 205q0 -97 -66.5 -156t-157.5 -59q-141 0 -222 129l37 27q67 -108 184 -108q75 0 123 46.5t48 120.5q0 73 -48 114.5t-135 41.5h-147v299h348v-47h-296v-212q51 6 105 6q98 0 162.5 -52.5t64.5 -149.5z"></glyph><glyph glyph-name="six" unicode="6" d="M490 205q0 -90 -63 -152.5t-154 -62.5t-154 62.5t-63 153.5q0 50 18 91q19 39 60 100l13 20l164 243h62l-179 -262q38 20 83 20q89 0 151 -62t62 -151zM438 204q0 71 -47.5 119.5t-117.5 48.5t-118 -48.5t-48 -119.5q0 -72 48 -119.5t118 -47.5t117.5 48t47.5 119z"></glyph><glyph glyph-name="seven" unicode="7" d="M33 660h431v-17l-349 -643h-56l334 613h-360v47z"></glyph><glyph glyph-name="eight" unicode="8" d="M511 165q0 -77 -61.5 -126t-163.5 -49t-163.5 49.5t-61.5 126.5q0 122 170 181q-138 56 -138 165q0 74 55 116q56 42 138 42t138 -42q55 -42 55 -117q0 -110 -138 -164q170 -59 170 -182zM286 372q74 29 107.5 59.5t33.5 78.5q0 52 -39.5 83.5t-101.5 31.5t-102 -31.5 t-40 -83.5q0 -47 34 -78.5t108 -59.5zM458 166q-2 61 -42 93t-130 63q-90 -31 -130 -63t-42 -93q0 -60 46 -95.5t126 -35.5t126 35.5t46 95.5z"></glyph><glyph glyph-name="nine" unicode="9" d="M490 454q0 -51 -20 -93q-21 -44 -60 -100l-12 -18l-164 -243h-61l180 263q-35 -20 -84 -20q-89 0 -151 61.5t-62 150.5q0 90 63 152.5t154 62.5t154 -62.5t63 -153.5zM438 456q0 72 -47.5 119.5t-117.5 47.5t-118 -47.5t-48 -119.5q0 -71 48 -119.5t118 -48.5t117.5 48.5 t47.5 119.5z"></glyph><glyph glyph-name="colon" unicode=":" d="M91 436q0 22 14 36t34 14q22 0 36 -13.5t14 -36.5q0 -21 -14.5 -34.5t-35.5 -13.5q-19 0 -33.5 14t-14.5 34zM91 38q0 22 14 36t34 14q22 0 36 -13.5t14 -36.5q0 -21 -14.5 -34.5t-35.5 -13.5q-19 0 -33.5 14t-14.5 34z"></glyph><glyph glyph-name="semicolon" unicode=";" d="M91 436q0 22 14 36t34 14q22 0 36 -13.5t14 -36.5q0 -21 -14.5 -34.5t-35.5 -13.5q-19 0 -33.5 14t-14.5 34zM100 -180l17 255h62l-36 -255h-43z"></glyph><glyph glyph-name="less" unicode="&lt;" d="M484 500v-48l-335 -139l335 -140v-49l-426 180v17z"></glyph><glyph glyph-name="equal" unicode="=" d="M72 390v46h416v-46h-416zM72 187v45h416v-45h-416z"></glyph><glyph glyph-name="greater" unicode="&gt;" d="M76 500l426 -179v-17l-426 -180v49l335 140l-335 139v48z"></glyph><glyph glyph-name="question" unicode="?" d="M170 237q0 32 18 58.5t64 68.5q45 43 68 74q19 28 19 67q0 51 -33 84.5t-82 33.5q-94 0 -125 -104l-44 17q17 62 62 98t107 36q70 0 119 -46.5t49 -115.5q0 -46 -23.5 -82.5t-78.5 -87.5q-41 -39 -55.5 -59.5t-14.5 -46.5q0 -14 6 -38h-46q-10 17 -10 43zM159 39 q0 21 14.5 35t35.5 14t35.5 -14t14.5 -35t-14.5 -35t-35.5 -14t-35.5 14t-14.5 35z"></glyph><glyph glyph-name="at" unicode="@" d="M859 289q0 -113 -67.5 -181t-174.5 -68h-14v78q-22 -41 -66 -65t-96 -24q-84 0 -141.5 61t-57.5 149t57.5 148.5t142.5 60.5q51 0 93.5 -22t64.5 -60v74h48v-355q74 6 118 60t44 143q2 132 -97.5 226.5t-244.5 92.5q-152 3 -260.5 -102t-105.5 -254q-3 -149 105.5 -254.5 t259.5 -102.5q73 0 138 24l11 -40q-69 -29 -154 -29q-110 -2 -205 52.5t-150.5 148t-53.5 201.5q-2 109 54 202.5t152 147t207 51.5q163 2 279.5 -106.5t113.5 -256.5zM598 240q0 80 -44 121t-106 41q-66 0 -109.5 -46.5t-43.5 -116.5q0 -69 43.5 -116t109.5 -47 q63 0 106.5 42.5t43.5 121.5z"></glyph><glyph glyph-name="A" unicode="A" d="M570 0l-65 157h-347l-65 -157h-54l283 670h21l282 -670h-55zM332 577l-154 -373h307z"></glyph><glyph glyph-name="B" unicode="B" d="M565 188q0 -83 -55 -135.5t-150 -52.5h-262v660h224q82 0 130 -44.5t48 -116.5q0 -91 -76 -134q66 -16 103.5 -63t37.5 -114zM317 614l-167 -1v-234h167q62 0 95.5 32t33.5 85q0 54 -33 86t-96 32zM512 189q0 64 -41.5 103.5t-115.5 39.5h-205v-285h205q74 0 115.5 39 t41.5 103z"></glyph><glyph glyph-name="C" unicode="C" d="M53 330q-3 141 98 241.5t240 98.5q82 0 152 -35.5t115 -98.5l-39 -31q-83 117 -227 117q-119 2 -202.5 -84t-81.5 -207q-2 -122 81.5 -208t202.5 -84q144 0 227 116l39 -31q-45 -63 -115 -98.5t-152 -35.5q-139 -3 -240 98.5t-98 241.5z"></glyph><glyph glyph-name="D" unicode="D" d="M98 0v660h186q167 0 263 -91.5t96 -237.5q2 -144 -96 -238t-263 -93h-186zM150 47h134q141 0 223 80t82 204t-81.5 203t-223.5 79h-134v-566z"></glyph><glyph glyph-name="E" unicode="E" d="M98 0v660h413v-47h-361v-233h281v-47h-281v-286h373v-47h-425z"></glyph><glyph glyph-name="F" unicode="F" d="M98 0v660h403v-47h-351v-255h292v-47h-292v-311h-52z"></glyph><glyph glyph-name="G" unicode="G" d="M53 330q-3 141 98 241.5t240 98.5q81 0 150 -34.5t114 -96.5l-39 -31q-82 114 -224 114q-121 0 -202.5 -84t-81.5 -207q0 -124 81.5 -208.5t204.5 -84.5q76 0 139.5 34.5t100.5 95.5v109h-243v48h295v-168q-43 -78 -122 -122.5t-173 -44.5q-139 -3 -239.5 98.5 t-98.5 241.5z"></glyph><glyph glyph-name="H" unicode="H" d="M98 0v660h52v-280h406v280h52v-660h-52v333h-406v-333h-52z"></glyph><glyph glyph-name="I" unicode="I" d="M98 0v660h52v-660h-52z"></glyph><glyph glyph-name="J" unicode="J" d="M28 0v46q35 -7 74 -7q58 0 86.5 24.5t28.5 82.5v514h52v-517q0 -76 -42.5 -114.5t-117.5 -38.5q-41 0 -81 10z"></glyph><glyph glyph-name="K" unicode="K" d="M98 0v660h52v-660h-52zM233 356l344 -356h-67l-346 357l320 303h69z"></glyph><glyph glyph-name="L" unicode="L" d="M98 0v660h52v-613h325v-47h-377z"></glyph><glyph glyph-name="M" unicode="M" d="M667 670h20v-670h-52v536l-232 -330h-20l-233 330v-536h-52v670h20l275 -392z"></glyph><glyph glyph-name="N" unicode="N" d="M556 660h52v-670h-21l-437 559v-549h-52v670h20l438 -563v553z"></glyph><glyph glyph-name="O" unicode="O" d="M53 330q-3 141 98 241.5t240 98.5q138 2 240 -99t99 -241q3 -140 -99 -241.5t-240 -98.5q-139 -3 -240 98.5t-98 241.5zM675 331q2 121 -81.5 207t-201.5 84q-119 2 -202.5 -84t-81.5 -207q-2 -122 81.5 -208t202.5 -84q118 -2 201.5 84.5t81.5 207.5z"></glyph><glyph glyph-name="P" unicode="P" d="M98 0v660h224q91 0 145.5 -51t54.5 -130q0 -81 -54 -132t-146 -51h-172v-296h-52zM150 343h170q70 0 109 37t39 98t-39 98t-109 37h-170v-270z"></glyph><glyph glyph-name="Q" unicode="Q" d="M1033 -144v-42q-54 -10 -102 -10q-249 0 -403 214q-63 -28 -137 -28q-139 -3 -240 98.5t-98 241.5q-3 141 98 241.5t240 98.5q138 2 240 -99t99 -241q0 -90 -43 -167t-116 -122q144 -191 364 -191q49 0 98 6zM392 39q119 -2 202 84.5t81 207.5q2 121 -81.5 207t-202.5 84 q-119 2 -202 -84t-81 -207q-2 -122 81.5 -208t202.5 -84z"></glyph><glyph glyph-name="R" unicode="R" d="M594 0h-61l-222 296h-161v-296h-52v660h224q91 0 145.5 -51t54.5 -130q0 -70 -40 -118t-111 -61zM150 613v-270h170q70 0 109 37t39 98t-39 98t-109 37h-170z"></glyph><glyph glyph-name="S" unicode="S" d="M46 130l39 29q77 -120 199 -120q67 0 108.5 34t41.5 91q-2 50 -26.5 75t-95.5 61l-75 36q-73 33 -108 69t-38 102q0 74 55.5 118.5t136.5 44.5q62 0 113.5 -28t84.5 -77l-39 -29q-61 86 -159 86q-57 0 -97 -28q-41 -29 -41 -84q3 -49 26.5 -72t90.5 -56l74 -36 q81 -38 116.5 -78t35.5 -103q0 -77 -58.5 -126t-146.5 -49q-74 0 -136 37t-101 103z"></glyph><glyph glyph-name="T" unicode="T" d="M265 0v613h-241v47h535v-47h-242v-613h-52z"></glyph><glyph glyph-name="U" unicode="U" d="M88 256v404h52v-406q0 -101 55 -158t147 -57q91 0 146 57t55 158v406h52v-404q0 -124 -69 -195t-184 -71q-116 0 -185 71t-69 195z"></glyph><glyph glyph-name="V" unicode="V" d="M569 660h56l-282 -670h-21l-283 670h56l237 -571z"></glyph><glyph glyph-name="W" unicode="W" d="M966 660h55l-244 -670h-21l-220 577l-220 -577h-21l-244 670h56l200 -563l219 573h20l220 -573z"></glyph><glyph glyph-name="X" unicode="X" d="M552 0h-60l-198 296l-198 -296h-60l229 340l-213 320h60l183 -279l180 279h60l-210 -322z"></glyph><glyph glyph-name="Y" unicode="Y" d="M562 660l-230 -381v-279h-52v281l-229 379h57l199 -331l198 331h57z"></glyph><glyph glyph-name="Z" unicode="Z" d="M118 47h434v-47h-514v17l432 596h-389v47h470v-17z"></glyph><glyph glyph-name="bracketleft" unicode="[" d="M107 -131v860h177v-45h-127v-769h127v-46h-177z"></glyph><glyph glyph-name="backslash" unicode="\" d="M532 -121l-523 901h57l523 -901h-57z"></glyph><glyph glyph-name="bracketright" unicode="]" d="M56 -131v46h127v769h-127v45h176v-860h-176z"></glyph><glyph glyph-name="asciicircum" unicode="^" d="M436 289h-53l-132 289l-132 -289h-54l175 381h21z"></glyph><glyph glyph-name="underscore" unicode="_" d="M47 -124v44h408v-44h-408z"></glyph><glyph glyph-name="grave" unicode="`" d="M336 564l-113 207v9h62l91 -216h-40z"></glyph><glyph glyph-name="a" unicode="a" d="M436 303v-303h-48v76q-55 -86 -173 -86q-71 0 -118 34q-48 35 -48 97q0 59 46 94t122 35h168v55q0 68 -35.5 104.5t-97.5 36.5q-84 0 -147 -81l-35 28q70 100 185 100q83 0 132 -49.5t49 -140.5zM385 180v27h-163q-59 0 -90 -21.5t-31 -61.5q0 -43 34 -66.5t85 -23.5 q68 0 116.5 42t48.5 104z"></glyph><glyph glyph-name="b" unicode="b" d="M578 241q0 -105 -69.5 -178t-170.5 -73q-63 0 -116.5 29t-80.5 78v-97h-48v750h50v-361q28 48 80.5 76t114.5 28q101 0 170.5 -73t69.5 -179zM526 242q0 87 -55 145.5t-138 58.5q-80 0 -135 -53t-55 -152q0 -98 55 -151t135 -53q83 0 138 59t55 146z"></glyph><glyph glyph-name="c" unicode="c" d="M56 242q-2 103 72.5 178t177.5 73q122 0 195 -99l-36 -29q-61 81 -159 81q-84 0 -141 -59.5t-57 -144.5q0 -86 57 -145.5t140 -59.5q97 0 160 81l36 -29q-73 -99 -196 -99q-102 -2 -176.5 73.5t-72.5 178.5z"></glyph><glyph glyph-name="d" unicode="d" d="M491 750h50v-750h-48v98q-27 -50 -80.5 -79t-116.5 -29q-101 0 -170.5 73t-69.5 178q0 106 68.5 179t171.5 73q62 0 114.5 -28t80.5 -76v361zM491 241q0 99 -55 152t-135 53q-83 0 -138 -58.5t-55 -145.5t55 -146t138 -59q80 0 135 53t55 151z"></glyph><glyph glyph-name="e" unicode="e" d="M512 230h-404q4 -84 60.5 -138.5t138.5 -54.5q97 0 161 76l32 -33q-77 -90 -194 -90q-103 -2 -177.5 73t-72.5 178q-2 103 71 178.5t173 73.5q91 0 153.5 -60t62.5 -155q0 -33 -4 -48zM110 275h354q3 77 -45.5 124.5t-120.5 47.5q-73 0 -125 -49q-53 -48 -63 -123z"></glyph><glyph glyph-name="f" unicode="f" d="M151 613v-130h127v-46h-127v-437h-50v437h-70v46h70v132q0 73 38.5 109t107.5 36q29 0 55 -6v-44q-20 4 -46 4q-105 0 -105 -101z"></glyph><glyph glyph-name="g" unicode="g" d="M499 483h48v-440q0 -107 -64 -170t-167 -63q-136 0 -222 94l31 34q81 -81 190 -81q83 0 132.5 48.5t49.5 135.5v64q-28 -47 -81 -75t-115 -28q-101 0 -170 71.5t-69 174.5t69 174t170 71q63 0 117 -28.5t81 -77.5v96zM497 248q0 94 -55 145.5t-134 51.5q-83 0 -138.5 -57 t-55.5 -141t55.5 -141t138.5 -57q79 0 134 52t55 147z"></glyph><glyph glyph-name="h" unicode="h" d="M472 305v-305h-50v301q0 66 -36.5 105.5t-98.5 39.5q-63 0 -103.5 -41t-40.5 -104v-301h-50v750h50v-333q52 76 153 76q81 0 128.5 -51.5t47.5 -136.5z"></glyph><glyph glyph-name="i" unicode="i" d="M93 0v483h50v-483h-50zM74 669q0 18 12.5 31t31.5 13q18 0 31 -13t13 -31t-13 -31t-31 -13q-19 0 -31.5 13t-12.5 31z"></glyph><glyph glyph-name="j" unicode="j" d="M-58 -184v44q20 -4 46 -4q52 0 78.5 23.5t26.5 77.5v526h50v-528q0 -73 -38.5 -109t-107.5 -36q-29 0 -55 6zM74 669q0 18 12.5 31t31.5 13q18 0 31 -13t13 -31t-13 -31t-31 -13q-19 0 -31.5 13t-12.5 31z"></glyph><glyph glyph-name="k" unicode="k" d="M93 0v750h50v-750h-50zM222 271l243 -271h-66l-241 272l217 211h68z"></glyph><glyph glyph-name="l" unicode="l" d="M93 0v750h50v-750h-50z"></glyph><glyph glyph-name="m" unicode="m" d="M781 305v-305h-51v301q0 66 -34.5 105.5t-93.5 39.5q-60 0 -100 -40t-40 -97v-309h-50v301q0 66 -34.5 105.5t-94.5 39.5q-62 0 -101 -41t-39 -104v-301h-50v483h48v-63q50 73 149 73q112 0 152 -94q54 94 167 94q80 0 126 -51t46 -137z"></glyph><glyph glyph-name="n" unicode="n" d="M472 305v-305h-50v302q0 64 -36.5 104t-98.5 40q-63 0 -104 -41q-40 -40 -40 -103v-302h-50v483h48v-65q52 75 154 75q82 0 129.5 -51.5t47.5 -136.5z"></glyph><glyph glyph-name="o" unicode="o" d="M56 242q-2 104 72.5 178.5t177.5 72.5q104 0 177 -73.5t73 -177.5q2 -103 -73 -178.5t-178 -73.5q-102 -2 -176.5 73.5t-72.5 178.5zM504 241q0 87 -57.5 146t-140.5 59q-84 0 -141 -59t-57 -146q0 -86 57 -145t140 -59t141 59.5t58 144.5z"></glyph><glyph glyph-name="p" unicode="p" d="M578 242q0 -106 -69.5 -179t-170.5 -73q-61 0 -114 27.5t-81 75.5v-273h-50v663h48v-97q27 49 80.5 78t116.5 29q101 0 170.5 -73t69.5 -178zM526 241q0 87 -55 146t-138 59q-80 0 -135 -53t-55 -151q0 -99 55 -152t135 -53q83 0 138 58.5t55 145.5z"></glyph><glyph glyph-name="q" unicode="q" d="M493 483h48v-663h-50v273q-28 -48 -81 -75.5t-114 -27.5q-103 0 -171.5 73t-68.5 179q0 105 69.5 178t170.5 73q63 0 116.5 -29t80.5 -79v98zM491 242q0 98 -55 151t-135 53q-83 0 -138 -59t-55 -146t55 -145.5t138 -58.5q80 0 135 53t55 152z"></glyph><glyph glyph-name="r" unicode="r" d="M332 483v-44h-25q-66 0 -115 -42.5t-49 -112.5v-284h-50v483h48v-82q53 85 160 85q7 0 18 -1.5t13 -1.5z"></glyph><glyph glyph-name="s" unicode="s" d="M46 90l35 33q68 -86 151 -86q47 0 77.5 22.5t30.5 62.5q-3 37 -22.5 54t-76.5 43l-44 19q-61 27 -90 55.5t-29 73.5q0 57 45 92q44 34 109 34q97 0 156 -77l-33 -32q-56 62 -126 62q-43 0 -70.5 -20t-27.5 -56q0 -29 19.5 -47t71.5 -40l45 -20q65 -29 95 -60t30 -79 q0 -64 -47 -99t-114 -35q-117 0 -185 100z"></glyph><glyph glyph-name="t" unicode="t" d="M335 44v-44q-36 -10 -75 -10q-70 0 -109 36t-39 109v302h-84v46h84v137h51v-137h156v-46h-156v-300q0 -101 105 -101q27 0 67 8z"></glyph><glyph glyph-name="u" unicode="u" d="M86 183v300h50v-302q0 -65 39.5 -104.5t100.5 -39.5q60 0 99.5 39.5t39.5 104.5v302h50v-300q0 -86 -54 -139.5t-135 -53.5q-82 0 -136 53.5t-54 139.5z"></glyph><glyph glyph-name="v" unicode="v" d="M441 483h54l-220 -493h-21l-222 493h54l178 -407z"></glyph><glyph glyph-name="w" unicode="w" d="M759 483h54l-194 -493h-21l-176 407l-175 -407h-20l-195 493h54l152 -401l174 411h21l175 -409z"></glyph><glyph glyph-name="x" unicode="x" d="M454 0h-60l-154 216l-154 -216h-60l183 254l-168 229h60l138 -194l140 194h60l-170 -231z"></glyph><glyph glyph-name="y" unicode="y" d="M441 483h54l-241 -562q-26 -59 -62.5 -85t-88.5 -26q-35 0 -68 9v44q29 -7 61 -7q78 0 112 83l31 71l-207 473h55l179 -416z"></glyph><glyph glyph-name="z" unicode="z" d="M110 46h308v-46h-385v17l303 420h-280v46h357v-17z"></glyph><glyph glyph-name="braceleft" unicode="{" d="M200 590q0 -29 14 -108q14 -75 14 -99q0 -64 -56 -84q56 -23 56 -84q0 -24 -14 -99q-14 -76 -14 -107q0 -95 91 -95h48v-45h-54q-134 0 -134 130q0 44 16 124l6 37q6 32 6 52q0 64 -65 64h-57v46h57q65 0 65 64q0 20 -6 51l-6 38q-16 81 -16 125q0 129 134 129h54v-45 h-48q-91 0 -91 -94z"></glyph><glyph glyph-name="bar" unicode="|" d="M143 -121v901h46v-901h-46z"></glyph><glyph glyph-name="braceright" unicode="}" d="M281 322h57v-46h-57q-66 0 -66 -64q0 -17 5 -52l7 -37q16 -80 16 -124q0 -130 -134 -130h-53v45h48q91 0 91 95q0 31 -14 107q-14 75 -14 99q0 65 56 84q-56 20 -56 84q0 24 14 99q14 79 14 108q0 94 -91 94h-48v45h53q134 0 134 -129q0 -44 -16 -125l-7 -38 q-5 -35 -5 -51q0 -64 66 -64z"></glyph><glyph glyph-name="asciitilde" unicode="~" d="M320 260l-97 58q-40 25 -64 25q-20 0 -31 -13t-11 -35v-30h-44l-1 34q0 38 23 64t60 26t84 -29l97 -59q40 -24 64 -24q20 0 31 13t11 34v31h44l2 -34q0 -38 -23.5 -64t-60.5 -26t-84 29z"></glyph><glyph glyph-name="uni00A0" unicode=" "></glyph><glyph glyph-name="exclamdown" unicode="¡" d="M93 445q0 21 14 34.5t35 13.5t35.5 -13.5t14.5 -34.5t-14.5 -35.5t-35.5 -14.5q-20 0 -34.5 14.5t-14.5 35.5zM111 -180l10 469h43l10 -469h-63z"></glyph><glyph glyph-name="cent" unicode="¢" d="M447 206l35 -29q-31 -44 -77.5 -70t-101.5 -29v-170h-51v171q-92 12 -153.5 84t-61.5 166t61.5 166t153.5 84v172h51v-170q116 -8 180 -100l-36 -29q-57 75 -144 81v-408q85 6 144 81zM252 127v404q-70 -12 -117 -69q-45 -55 -45 -133q0 -76 45 -133q47 -56 117 -69z"></glyph><glyph glyph-name="sterling" unicode="£" d="M171 46h293v-46h-401v15q134 78 134 193q0 19 -5 44h-119v46h104q-6 14 -15 32.5t-12 23.5q-49 87 -49 149q0 74 50 121q49 46 129 46q72 0 121 -40t71 -115l-47 -16q-39 123 -144 123q-58 0 -92 -35.5t-34 -90.5q0 -30 9.5 -57t34.5 -74q26 -51 32 -67h161v-46h-147 q4 -25 4 -43q0 -48 -21 -91.5t-57 -71.5z"></glyph><glyph glyph-name="currency" unicode="¤" d="M500 186l125 -124l-31 -32l-126 126q-62 -51 -143 -51q-80 0 -141 49l-121 -124l-31 31l121 124q-52 61 -52 145t52 145l-121 124l31 31l121 -124q61 49 142 49q80 0 142 -50l125 125l32 -31l-125 -126q51 -62 51 -143q0 -82 -51 -144zM498 330q0 76 -49.5 127.5 t-122.5 51.5t-122.5 -52t-49.5 -127t49.5 -126.5t121.5 -51.5q74 0 123.5 51.5t49.5 126.5z"></glyph><glyph glyph-name="yen" unicode="¥" d="M522 660l-222 -312h194v-45h-202v-109h202v-45h-202v-149h-52v149h-201v45h201v109h-201v45h194l-222 312h57l198 -280l198 280h58z"></glyph><glyph glyph-name="brokenbar" unicode="¦" d="M143 480v300h46v-300h-46zM143 -121v300h46v-300h-46z"></glyph><glyph glyph-name="section" unicode="§" d="M395 46q3 -13 3 -26q0 -58 -40 -95.5t-103 -37.5q-94 0 -153 83l37 29q52 -64 117 -64q41 0 65 23t24 61q0 33 -19.5 59t-70.5 67l-97 76q-66 50 -93 87t-27 80q0 51 34.5 85t93.5 41q-2 24 -2 26q0 58 40 95.5t103 37.5q91 0 153 -82l-38 -30q-53 65 -117 65 q-40 0 -64.5 -23t-24.5 -61q0 -33 19.5 -59t71.5 -67l97 -77q65 -50 92 -86.5t27 -80.5q0 -51 -34.5 -85t-93.5 -41zM471 171q0 30 -20 57t-68 64l-100 80q-74 57 -101 101q-43 -6 -67.5 -27.5t-24.5 -56.5q0 -29 19 -54.5t69 -65.5l97 -77q83 -66 104 -105q43 5 67.5 27 t24.5 57z"></glyph><glyph glyph-name="dieresis" unicode="¨" d="M156 669q0 18 13 30.5t30 12.5q18 0 31 -12.5t13 -30.5q0 -17 -13 -29.5t-31 -12.5q-17 0 -30 12.5t-13 29.5zM356 669q0 18 13 30.5t31 12.5t30.5 -12.5t12.5 -30.5q0 -17 -12.5 -29.5t-30.5 -12.5t-31 12.5t-13 29.5z"></glyph><glyph glyph-name="copyright" unicode="©" d="M53 330q-3 140 99 241t239 99q138 2 240 -99t99 -241q3 -140 -99 -241.5t-240 -98.5q-137 -3 -239 98.5t-99 241.5zM686 331q3 124 -85 212.5t-210 86.5q-121 2 -208.5 -86t-85.5 -213q-2 -125 85.5 -214t208.5 -87q121 -2 209 87t86 214zM204 330q0 83 57 140t139 57 q94 0 153 -77l-33 -29q-48 61 -120 61q-62 0 -104 -44t-42 -108q0 -63 42 -107t103 -44q72 0 121 60l33 -28q-59 -77 -154 -77q-81 0 -138 57t-57 139z"></glyph><glyph glyph-name="ordfeminine" unicode="ª" d="M289 434v-190h-43v41q-37 -47 -104 -47q-47 0 -76 23t-29 62t29.5 62t78.5 23h98v28q0 38 -20.5 58.5t-57.5 20.5q-50 0 -89 -45l-26 29q49 58 119 58q55 0 87.5 -32.5t32.5 -90.5zM243 357v15h-92q-67 0 -67 -48q0 -23 19 -35.5t48 -12.5q39 0 65.5 23t26.5 58z"></glyph><glyph glyph-name="guillemotleft" unicode="«" d="M212 82l-169 179v17l169 179l34 -30l-144 -157l144 -159zM382 82l-169 179v17l169 179l34 -30l-144 -157l144 -159z"></glyph><glyph glyph-name="logicalnot" unicode="¬" d="M417 92v197h-356v45h406v-242h-50z"></glyph><glyph glyph-name="uni00AD" unicode="­" d="M57 289v44h228v-44h-228z"></glyph><glyph glyph-name="registered" unicode="®" d="M521 435q2 -96 -69.5 -168.5t-166.5 -70.5q-97 0 -167 71t-70 168q-2 97 70 169.5t167 70.5q95 2 166.5 -70.5t69.5 -169.5zM483 435q0 85 -58 143.5t-140 58.5t-140 -59t-58 -143q0 -83 58 -141.5t140 -58.5t140 58.5t58 141.5zM332 413l78 -103h-50l-73 95h-50v-95h-42 l-1 251h97q39 0 63 -21.5t24 -56.5q0 -51 -46 -70zM236 442h54q21 0 33 11t12 29q0 19 -12 30.5t-33 11.5h-54v-82z"></glyph><glyph glyph-name="overscore" unicode="¯" d="M169 648v43h262v-43h-262z"></glyph><glyph glyph-name="degree" unicode="°" d="M35 527q0 59 42.5 101t102.5 42t102.5 -42t42.5 -101t-42.5 -101.5t-102.5 -42.5t-102.5 42.5t-42.5 101.5zM279 527q0 43 -29 72t-70 29t-70 -29.5t-29 -71.5q0 -43 29 -72t70 -29q42 0 70.5 29t28.5 72z"></glyph><glyph glyph-name="plusminus" unicode="±" d="M255 134v176h-183v46h183v175h50v-175h183v-46h-183v-176h-50zM72 0v46h416v-46h-416z"></glyph><glyph glyph-name="uni00B2" unicode="²" d="M119 406h204v-42h-287v12l151 157q38 39 54.5 67t16.5 59q0 36 -23 60.5t-60 24.5q-38 0 -61.5 -25.5t-23.5 -63.5q0 -15 3 -33h-45q-4 15 -4 36q0 52 37 90t94 38t93.5 -35t36.5 -89q0 -40 -20 -72.5t-69 -84.5z"></glyph><glyph glyph-name="uni00B3" unicode="³" d="M309 495q0 -62 -42.5 -99.5t-103.5 -37.5q-90 0 -140 84l33 24q44 -66 107 -66q43 0 70.5 26.5t27.5 68.5t-28 65t-79 23h-38v13l111 142h-177v42h248v-14l-112 -143q52 -4 87.5 -38t35.5 -90z"></glyph><glyph glyph-name="acute" unicode="´" d="M223 564l91 216h62v-9l-113 -207h-40z"></glyph><glyph glyph-name="uni00B5" unicode="µ" d="M560 44v-44q-28 -5 -42 -5q-74 0 -90 70q-48 -75 -144 -75q-93 0 -141 73v-243h-50v663h50v-294q0 -66 39 -109t100 -43t100 43q40 43 40 109v294h50v-364q0 -78 58 -78q10 0 30 3z"></glyph><glyph glyph-name="paragraph" unicode="¶" d="M43 454q0 93 65 149.5t168 56.5h60v-416h-60q-100 0 -166.5 58.5t-66.5 151.5zM220 -180v45q43 -8 66 -8q54 0 81 25t27 85v693h51v-695q0 -155 -151 -155q-38 0 -74 10z"></glyph><glyph glyph-name="middot" unicode="·" d="M91 310q0 22 14 36t34 14q22 0 36 -13.5t14 -36.5q0 -21 -14.5 -34.5t-35.5 -13.5q-19 0 -33.5 14t-14.5 34z"></glyph><glyph glyph-name="cedilla" unicode="¸" d="M206 -180v39q29 -7 60 -7q36 0 58 18.5t22 53.5q0 43 -43 80l19 15q71 -33 71 -101q0 -47 -33 -77.5t-87 -30.5q-34 0 -67 10z"></glyph><glyph glyph-name="uni00B9" unicode="¹" d="M49 364v42h109v332h-107v42h154v-374h96v-42h-252z"></glyph><glyph glyph-name="ordmasculine" unicode="º" d="M42 397q0 66 47 112.5t113 46.5t113 -46.5t47 -112.5t-47 -112.5t-113 -46.5t-113 46.5t-47 112.5zM316 397q0 50 -32.5 83.5t-81.5 33.5t-81 -33.5t-32 -83.5t32 -83.5t81 -33.5t81.5 33.5t32.5 83.5z"></glyph><glyph glyph-name="guillemotright" unicode="»" d="M78 82l-34 29l144 159l-144 157l34 30l169 -179v-17zM248 82l-34 29l144 159l-144 157l34 30l169 -179v-17z"></glyph><glyph glyph-name="onequarter" unicode="¼" d="M49 244v42h109v332h-107v42h154v-374h96v-42h-252zM248 0l379 660h48l-380 -660h-47zM848 118v-40h-61v-78h-44v78h-208v14l135 324h48l-125 -298h150v142h44v-142h61z"></glyph><glyph glyph-name="onehalf" unicode="½" d="M49 244v42h109v332h-107v42h154v-374h96v-42h-252zM248 0l379 660h48l-380 -660h-47zM661 42h204v-42h-287v12l151 157q38 39 54.5 67t16.5 59q0 36 -23 60.5t-60 24.5q-38 0 -61.5 -25.5t-23.5 -63.5q0 -15 3 -33h-45q-4 15 -4 36q0 52 37 90t94 38t93.5 -35t36.5 -89 q0 -40 -20 -72.5t-69 -84.5z"></glyph><glyph glyph-name="threequarters" unicode="¾" d="M309 375q0 -62 -42.5 -99.5t-103.5 -37.5q-90 0 -140 84l33 24q44 -66 107 -66q43 0 70.5 26.5t27.5 68.5t-28 65t-79 23h-38v13l111 142h-177v42h248v-14l-112 -143q52 -4 87.5 -38t35.5 -90zM219 0l379 660h48l-380 -660h-47zM819 118v-40h-61v-78h-44v78h-208v14 l135 324h48l-125 -298h150v142h44v-142h61z"></glyph><glyph glyph-name="questiondown" unicode="¿" d="M182 445q0 21 14.5 34.5t35.5 13.5t35 -13.5t14 -34.5q0 -23 -14 -37t-35 -14q-20 0 -35 15t-15 36zM50 -27q0 47 22.5 83t78.5 88q42 38 56.5 59.5t14.5 47.5q0 14 -6 38h46q10 -21 10 -43q0 -32 -18.5 -59t-63.5 -69q-50 -49 -68 -76q-20 -29 -20 -67q0 -51 33.5 -84.5 t82.5 -33.5q94 0 125 104l44 -17q-17 -62 -62 -98t-107 -36q-70 0 -119 46.5t-49 116.5z"></glyph><glyph glyph-name="Agrave" unicode="À" d="M570 0l-65 157h-347l-65 -157h-54l283 670h21l282 -670h-55zM332 577l-154 -373h307zM313 724l-113 177v9h62l91 -186h-40z"></glyph><glyph glyph-name="Aacute" unicode="Á" d="M570 0l-65 157h-347l-65 -157h-54l283 670h21l282 -670h-55zM332 577l-154 -373h307zM312 724l91 186h62v-9l-113 -177h-40z"></glyph><glyph glyph-name="Acircumflex" unicode="Â" d="M570 0l-65 157h-347l-65 -157h-54l283 670h21l282 -670h-55zM332 577l-154 -373h307zM494 724h-42l-119 129l-120 -129h-41l146 186h29z"></glyph><glyph glyph-name="Atilde" unicode="Ã" d="M570 0l-65 157h-347l-65 -157h-54l283 670h21l282 -670h-55zM332 577l-154 -373h307zM342 776l-36 23q-32 21 -47 21t-24 -11.5t-9 -30.5v-19h-45q-1 4 -1 22q0 37 20 61.5t53 24.5q30 0 70 -27l37 -24q35 -21 48 -21q33 0 33 42v20h44q1 -5 1 -22q0 -38 -20 -62t-52 -24 q-29 0 -72 27z"></glyph><glyph glyph-name="Adieresis" unicode="Ä" d="M570 0l-65 157h-347l-65 -157h-54l283 670h21l282 -670h-55zM332 577l-154 -373h307zM176 808q0 18 13 30t31 12t30.5 -12t12.5 -30t-12.5 -30.5t-30.5 -12.5t-31 12.5t-13 30.5zM402 807q0 18 13 30.5t31 12.5t30.5 -12.5t12.5 -30.5q0 -17 -12.5 -29.5t-30.5 -12.5 t-31 12.5t-13 29.5z"></glyph><glyph glyph-name="Aring" unicode="Å" d="M570 0l-65 157h-347l-65 -157h-54l283 670h21l282 -670h-55zM332 577l-154 -373h307zM229 810q0 43 30 72.5t74 29.5q43 0 73 -29.5t30 -72.5t-30 -72.5t-73 -29.5q-44 0 -74 29.5t-30 72.5zM393 810q0 26 -17 43.5t-43 17.5t-43 -17.5t-17 -43.5t17 -43.5t43 -17.5 q25 0 42.5 17.5t17.5 43.5z"></glyph><glyph glyph-name="AE" unicode="Æ" d="M520 47h247v-47h-293l-27 158h-291l-83 -158h-56l344 660h394v-47h-334l41 -233h213v-47h-205zM374 583l-194 -378h259z"></glyph><glyph glyph-name="Ccedilla" unicode="Ç" d="M53 330q-3 141 98 241.5t240 98.5q82 0 152 -35.5t115 -98.5l-39 -31q-83 117 -227 117q-119 2 -202.5 -84t-81.5 -207q-2 -122 81.5 -208t202.5 -84q144 0 227 116l39 -31q-45 -63 -115 -98.5t-152 -35.5q-139 -3 -240 98.5t-98 241.5zM278 -180v39q29 -7 60 -7 q36 0 58 18.5t22 53.5q0 43 -43 80l19 15q71 -33 71 -101q0 -47 -33 -77.5t-87 -30.5q-34 0 -67 10z"></glyph><glyph glyph-name="Egrave" unicode="È" d="M98 0v660h413v-47h-361v-233h281v-47h-281v-286h373v-47h-425zM282 724l-113 177v9h62l91 -186h-40z"></glyph><glyph glyph-name="Eacute" unicode="É" d="M98 0v660h413v-47h-361v-233h281v-47h-281v-286h373v-47h-425zM281 724l91 186h62v-9l-113 -177h-40z"></glyph><glyph glyph-name="Ecircumflex" unicode="Ê" d="M98 0v660h413v-47h-361v-233h281v-47h-281v-286h373v-47h-425zM463 724h-42l-119 129l-120 -129h-41l146 186h29z"></glyph><glyph glyph-name="Edieresis" unicode="Ë" d="M98 0v660h413v-47h-361v-233h281v-47h-281v-286h373v-47h-425zM145 808q0 18 13 30t31 12t30.5 -12t12.5 -30t-12.5 -30.5t-30.5 -12.5t-31 12.5t-13 30.5zM371 807q0 18 13 30.5t31 12.5t30.5 -12.5t12.5 -30.5q0 -17 -12.5 -29.5t-30.5 -12.5t-31 12.5t-13 29.5z"></glyph><glyph glyph-name="Igrave" unicode="Ì" d="M98 0v660h52v-660h-52zM105 724l-113 177v9h62l91 -186h-40z"></glyph><glyph glyph-name="Iacute" unicode="Í" d="M98 0v660h52v-660h-52zM103 724l91 186h62v-9l-113 -177h-40z"></glyph><glyph glyph-name="Icircumflex" unicode="Î" d="M98 0v660h52v-660h-52zM285 724h-42l-119 129l-120 -129h-41l146 186h29z"></glyph><glyph glyph-name="Idieresis" unicode="Ï" d="M98 0v660h52v-660h-52zM-33 808q0 18 13 30t31 12t30.5 -12t12.5 -30t-12.5 -30.5t-30.5 -12.5t-31 12.5t-13 30.5zM193 807q0 18 13 30.5t31 12.5t30.5 -12.5t12.5 -30.5q0 -17 -12.5 -29.5t-30.5 -12.5t-31 12.5t-13 29.5z"></glyph><glyph glyph-name="Eth" unicode="Ð" d="M643 331q2 -144 -96 -238t-263 -93h-186v281h-100v45h100v334h186q167 0 263 -91.5t96 -237.5zM589 331q0 124 -81.5 203t-223.5 79h-134v-287h142v-45h-142v-234h134q141 0 223 80t82 204z"></glyph><glyph glyph-name="Ntilde" unicode="Ñ" d="M556 660h52v-670h-21l-437 559v-549h-52v670h20l438 -563v553zM362 776l-36 23q-32 21 -47 21t-24 -11.5t-9 -30.5v-19h-45q-1 4 -1 22q0 37 20 61.5t53 24.5q30 0 70 -27l37 -24q35 -21 48 -21q33 0 33 42v20h44q1 -5 1 -22q0 -38 -20 -62t-52 -24q-29 0 -72 27z"></glyph><glyph glyph-name="Ograve" unicode="Ò" d="M53 330q-3 141 98 241.5t240 98.5q138 2 240 -99t99 -241q3 -140 -99 -241.5t-240 -98.5q-139 -3 -240 98.5t-98 241.5zM675 331q2 121 -81.5 207t-201.5 84q-119 2 -202.5 -84t-81.5 -207q-2 -122 81.5 -208t202.5 -84q118 -2 201.5 84.5t81.5 207.5zM372 724l-113 177 v9h62l91 -186h-40z"></glyph><glyph glyph-name="Oacute" unicode="Ó" d="M53 330q-3 141 98 241.5t240 98.5q138 2 240 -99t99 -241q3 -140 -99 -241.5t-240 -98.5q-139 -3 -240 98.5t-98 241.5zM675 331q2 121 -81.5 207t-201.5 84q-119 2 -202.5 -84t-81.5 -207q-2 -122 81.5 -208t202.5 -84q118 -2 201.5 84.5t81.5 207.5zM371 724l91 186h62 v-9l-113 -177h-40z"></glyph><glyph glyph-name="Ocircumflex" unicode="Ô" d="M53 330q-3 141 98 241.5t240 98.5q138 2 240 -99t99 -241q3 -140 -99 -241.5t-240 -98.5q-139 -3 -240 98.5t-98 241.5zM675 331q2 121 -81.5 207t-201.5 84q-119 2 -202.5 -84t-81.5 -207q-2 -122 81.5 -208t202.5 -84q118 -2 201.5 84.5t81.5 207.5zM553 724h-42 l-119 129l-120 -129h-41l146 186h29z"></glyph><glyph glyph-name="Otilde" unicode="Õ" d="M53 330q-3 141 98 241.5t240 98.5q138 2 240 -99t99 -241q3 -140 -99 -241.5t-240 -98.5q-139 -3 -240 98.5t-98 241.5zM675 331q2 121 -81.5 207t-201.5 84q-119 2 -202.5 -84t-81.5 -207q-2 -122 81.5 -208t202.5 -84q118 -2 201.5 84.5t81.5 207.5zM401 776l-36 23 q-32 21 -47 21t-24 -11.5t-9 -30.5v-19h-45q-1 4 -1 22q0 37 20 61.5t53 24.5q30 0 70 -27l37 -24q35 -21 48 -21q33 0 33 42v20h44q1 -5 1 -22q0 -38 -20 -62t-52 -24q-29 0 -72 27z"></glyph><glyph glyph-name="Odieresis" unicode="Ö" d="M53 330q-3 141 98 241.5t240 98.5q138 2 240 -99t99 -241q3 -140 -99 -241.5t-240 -98.5q-139 -3 -240 98.5t-98 241.5zM675 331q2 121 -81.5 207t-201.5 84q-119 2 -202.5 -84t-81.5 -207q-2 -122 81.5 -208t202.5 -84q118 -2 201.5 84.5t81.5 207.5zM235 808 q0 18 13 30t31 12t30.5 -12t12.5 -30t-12.5 -30.5t-30.5 -12.5t-31 12.5t-13 30.5zM461 807q0 18 13 30.5t31 12.5t30.5 -12.5t12.5 -30.5q0 -17 -12.5 -29.5t-30.5 -12.5t-31 12.5t-13 29.5z"></glyph><glyph glyph-name="multiply" unicode="×" d="M120 119l-32 31l161 162l-161 161l31 31l161 -160l161 160l31 -31l-160 -161l160 -161l-30 -32l-161 161z"></glyph><glyph glyph-name="Oslash" unicode="Ø" d="M735 641l-87 -87q82 -95 82 -224q3 -140 -99 -241.5t-240 -98.5q-129 0 -223 83l-87 -87l-33 33l87 87q-82 95 -82 224q-3 141 98 241.5t240 98.5q130 0 224 -83l87 87zM106 331q0 -109 64 -190l411 411q-80 71 -189 71q-120 2 -204 -84.5t-82 -207.5zM676 331 q0 106 -64 188l-410 -411q77 -71 190 -71q120 0 202 85.5t82 208.5z"></glyph><glyph glyph-name="Ugrave" unicode="Ù" d="M88 256v404h52v-406q0 -101 55 -158t147 -57q91 0 146 57t55 158v406h52v-404q0 -124 -69 -195t-184 -71q-116 0 -185 71t-69 195zM322 724l-113 177v9h62l91 -186h-40z"></glyph><glyph glyph-name="Uacute" unicode="Ú" d="M88 256v404h52v-406q0 -101 55 -158t147 -57q91 0 146 57t55 158v406h52v-404q0 -124 -69 -195t-184 -71q-116 0 -185 71t-69 195zM320 724l91 186h62v-9l-113 -177h-40z"></glyph><glyph glyph-name="Ucircumflex" unicode="Û" d="M88 256v404h52v-406q0 -101 55 -158t147 -57q91 0 146 57t55 158v406h52v-404q0 -124 -69 -195t-184 -71q-116 0 -185 71t-69 195zM502 724h-42l-119 129l-120 -129h-41l146 186h29z"></glyph><glyph glyph-name="Udieresis" unicode="Ü" d="M88 256v404h52v-406q0 -101 55 -158t147 -57q91 0 146 57t55 158v406h52v-404q0 -124 -69 -195t-184 -71q-116 0 -185 71t-69 195zM184 808q0 18 13 30t31 12t30.5 -12t12.5 -30t-12.5 -30.5t-30.5 -12.5t-31 12.5t-13 30.5zM410 807q0 18 13 30.5t31 12.5t30.5 -12.5 t12.5 -30.5q0 -17 -12.5 -29.5t-30.5 -12.5t-31 12.5t-13 29.5z"></glyph><glyph glyph-name="Yacute" unicode="Ý" d="M562 660l-230 -381v-279h-52v281l-229 379h57l199 -331l198 331h57zM284 724l91 186h62v-9l-113 -177h-40z"></glyph><glyph glyph-name="Thorn" unicode="Þ" d="M98 0v660h52v-126h172q92 0 146 -51.5t54 -135.5t-54 -135.5t-146 -51.5h-172v-160h-52zM150 207h170q70 0 109 37.5t39 101.5t-39 102.5t-109 38.5h-170v-280z"></glyph><glyph glyph-name="germandbls" unicode="ß" d="M242 61l29 35q56 -59 136 -59q47 0 75.5 20t28.5 58q0 31 -20 49q-16 16 -74 50q-59 32 -82 56.5t-23 59.5q0 30 18 81l45 135q13 36 13 72q0 44 -27.5 69.5t-75.5 25.5q-64 0 -103 -43.5t-39 -122.5v-547h-50v548q0 98 54.5 155t140.5 57q69 0 110.5 -36.5t41.5 -99.5 q0 -39 -14 -79l-45 -138q-17 -53 -17 -71t9 -31q8 -11 21 -20t54 -33q65 -38 90 -65.5t25 -70.5q0 -58 -47 -93q-46 -33 -114 -33q-95 0 -160 71z"></glyph><glyph glyph-name="agrave" unicode="à" d="M436 303v-303h-48v76q-55 -86 -173 -86q-71 0 -118 34q-48 35 -48 97q0 59 46 94t122 35h168v55q0 68 -35.5 104.5t-97.5 36.5q-84 0 -147 -81l-35 28q70 100 185 100q83 0 132 -49.5t49 -140.5zM385 180v27h-163q-59 0 -90 -21.5t-31 -61.5q0 -43 34 -66.5t85 -23.5 q68 0 116.5 42t48.5 104zM236 564l-113 207v9h62l91 -216h-40z"></glyph><glyph glyph-name="aacute" unicode="á" d="M436 303v-303h-48v76q-55 -86 -173 -86q-71 0 -118 34q-48 35 -48 97q0 59 46 94t122 35h168v55q0 68 -35.5 104.5t-97.5 36.5q-84 0 -147 -81l-35 28q70 100 185 100q83 0 132 -49.5t49 -140.5zM385 180v27h-163q-59 0 -90 -21.5t-31 -61.5q0 -43 34 -66.5t85 -23.5 q68 0 116.5 42t48.5 104zM235 564l91 216h62v-9l-113 -207h-40z"></glyph><glyph glyph-name="acircumflex" unicode="â" d="M436 303v-303h-48v76q-55 -86 -173 -86q-71 0 -118 34q-48 35 -48 97q0 59 46 94t122 35h168v55q0 68 -35.5 104.5t-97.5 36.5q-84 0 -147 -81l-35 28q70 100 185 100q83 0 132 -49.5t49 -140.5zM385 180v27h-163q-59 0 -90 -21.5t-31 -61.5q0 -43 34 -66.5t85 -23.5 q68 0 116.5 42t48.5 104zM404 564h-41l-109 152l-109 -152h-42l136 216h30z"></glyph><glyph glyph-name="atilde" unicode="ã" d="M436 303v-303h-48v76q-55 -86 -173 -86q-71 0 -118 34q-48 35 -48 97q0 59 46 94t122 35h168v55q0 68 -35.5 104.5t-97.5 36.5q-84 0 -147 -81l-35 28q70 100 185 100q83 0 132 -49.5t49 -140.5zM385 180v27h-163q-59 0 -90 -21.5t-31 -61.5q0 -43 34 -66.5t85 -23.5 q68 0 116.5 42t48.5 104zM258 633l-25 25q-24 24 -43 24q-31 0 -31 -45v-20h-44q-1 5 -1 22q0 40 19 65t53 25t64 -30l25 -25q24 -24 43 -24q32 0 32 46v19h44q1 -5 1 -22q0 -39 -19 -64.5t-53 -25.5q-35 0 -65 30z"></glyph><glyph glyph-name="adieresis" unicode="ä" d="M436 303v-303h-48v76q-55 -86 -173 -86q-71 0 -118 34q-48 35 -48 97q0 59 46 94t122 35h168v55q0 68 -35.5 104.5t-97.5 36.5q-84 0 -147 -81l-35 28q70 100 185 100q83 0 132 -49.5t49 -140.5zM385 180v27h-163q-59 0 -90 -21.5t-31 -61.5q0 -43 34 -66.5t85 -23.5 q68 0 116.5 42t48.5 104zM110 669q0 18 13 30.5t30 12.5q18 0 31 -12.5t13 -30.5q0 -17 -13 -29.5t-31 -12.5q-17 0 -30 12.5t-13 29.5zM310 669q0 18 13 30.5t31 12.5t30.5 -12.5t12.5 -30.5q0 -17 -12.5 -29.5t-30.5 -12.5t-31 12.5t-13 29.5z"></glyph><glyph glyph-name="aring" unicode="å" d="M436 303v-303h-48v76q-55 -86 -173 -86q-71 0 -118 34q-48 35 -48 97q0 59 46 94t122 35h168v55q0 68 -35.5 104.5t-97.5 36.5q-84 0 -147 -81l-35 28q70 100 185 100q83 0 132 -49.5t49 -140.5zM385 180v27h-163q-59 0 -90 -21.5t-31 -61.5q0 -43 34 -66.5t85 -23.5 q68 0 116.5 42t48.5 104zM150 667q0 43 30 72.5t74 29.5q43 0 73 -29.5t30 -72.5t-30 -72.5t-73 -29.5q-44 0 -74 29.5t-30 72.5zM314 667q0 26 -17.5 43.5t-42.5 17.5q-26 0 -43 -17.5t-17 -43.5t17 -43.5t43 -17.5t43 17.5t17 43.5z"></glyph><glyph glyph-name="ae" unicode="æ" d="M842 221h-403q6 -80 62 -132t136 -52q96 0 160 76l33 -33q-76 -90 -194 -90q-71 0 -129 35.5t-89 95.5q-21 -60 -76 -95.5t-125 -35.5q-74 0 -121 37t-47 101q0 63 46 100t122 37h168v40q0 68 -35.5 104.5t-96.5 36.5q-85 0 -147 -81l-35 28q70 100 185 100 q63 0 107 -30.5t61 -87.5q33 55 87.5 86.5t118.5 31.5q91 0 153.5 -60t62.5 -156q0 -36 -4 -56zM439 265h355q4 80 -45 131t-123 51t-126.5 -51.5t-60.5 -130.5zM385 180v41h-163q-121 0 -121 -88q0 -47 34 -73t87 -26q66 0 114.5 42.5t48.5 103.5z"></glyph><glyph glyph-name="ccedilla" unicode="ç" d="M56 242q-2 103 72.5 178t177.5 73q122 0 195 -99l-36 -29q-61 81 -159 81q-84 0 -141 -59.5t-57 -144.5q0 -86 57 -145.5t140 -59.5q97 0 160 81l36 -29q-73 -99 -196 -99q-102 -2 -176.5 73.5t-72.5 178.5zM186 -180v39q29 -7 60 -7q36 0 58 18.5t22 53.5q0 43 -43 80 l19 15q71 -33 71 -101q0 -47 -33 -77.5t-87 -30.5q-34 0 -67 10z"></glyph><glyph glyph-name="egrave" unicode="è" d="M512 230h-404q4 -84 60.5 -138.5t138.5 -54.5q97 0 161 76l32 -33q-77 -90 -194 -90q-103 -2 -177.5 73t-72.5 178q-2 103 71 178.5t173 73.5q91 0 153.5 -60t62.5 -155q0 -33 -4 -48zM110 275h354q3 77 -45.5 124.5t-120.5 47.5q-73 0 -125 -49q-53 -48 -63 -123z M275 564l-113 207v9h62l91 -216h-40z"></glyph><glyph glyph-name="eacute" unicode="é" d="M512 230h-404q4 -84 60.5 -138.5t138.5 -54.5q97 0 161 76l32 -33q-77 -90 -194 -90q-103 -2 -177.5 73t-72.5 178q-2 103 71 178.5t173 73.5q91 0 153.5 -60t62.5 -155q0 -33 -4 -48zM110 275h354q3 77 -45.5 124.5t-120.5 47.5q-73 0 -125 -49q-53 -48 -63 -123z M274 564l91 216h62v-9l-113 -207h-40z"></glyph><glyph glyph-name="ecircumflex" unicode="ê" d="M512 230h-404q4 -84 60.5 -138.5t138.5 -54.5q97 0 161 76l32 -33q-77 -90 -194 -90q-103 -2 -177.5 73t-72.5 178q-2 103 71 178.5t173 73.5q91 0 153.5 -60t62.5 -155q0 -33 -4 -48zM110 275h354q3 77 -45.5 124.5t-120.5 47.5q-73 0 -125 -49q-53 -48 -63 -123z M444 564h-41l-109 152l-109 -152h-42l136 216h30z"></glyph><glyph glyph-name="edieresis" unicode="ë" d="M512 230h-404q4 -84 60.5 -138.5t138.5 -54.5q97 0 161 76l32 -33q-77 -90 -194 -90q-103 -2 -177.5 73t-72.5 178q-2 103 71 178.5t173 73.5q91 0 153.5 -60t62.5 -155q0 -33 -4 -48zM110 275h354q3 77 -45.5 124.5t-120.5 47.5q-73 0 -125 -49q-53 -48 -63 -123z M150 669q0 18 13 30.5t30 12.5q18 0 31 -12.5t13 -30.5q0 -17 -13 -29.5t-31 -12.5q-17 0 -30 12.5t-13 29.5zM350 669q0 18 13 30.5t31 12.5t30.5 -12.5t12.5 -30.5q0 -17 -12.5 -29.5t-30.5 -12.5t-31 12.5t-13 29.5z"></glyph><glyph glyph-name="igrave" unicode="ì" d="M93 0v483h50v-483h-50zM100 564l-83 207v9h62l61 -216h-40z"></glyph><glyph glyph-name="iacute" unicode="í" d="M93 0v483h50v-483h-50zM97 564l61 216h62v-9l-83 -207h-40z"></glyph><glyph glyph-name="icircumflex" unicode="î" d="M93 0v483h50v-483h-50zM268 564h-41l-109 152l-109 -152h-42l136 216h30z"></glyph><glyph glyph-name="idieresis" unicode="ï" d="M93 0v483h50v-483h-50zM-11 669q0 18 13 30.5t30 12.5q18 0 31 -12.5t13 -30.5q0 -17 -13 -29.5t-31 -12.5q-17 0 -30 12.5t-13 29.5zM159 669q0 18 13 30.5t31 12.5t30.5 -12.5t12.5 -30.5q0 -17 -12.5 -29.5t-30.5 -12.5t-31 12.5t-13 29.5z"></glyph><glyph glyph-name="eth" unicode="ð" d="M511 220q0 -97 -65 -163.5t-163 -66.5t-162.5 65t-64.5 160q0 94 64.5 160t155.5 66q50 0 89 -19l-124 172l-155 -73l-19 39l148 70l-74 102l39 28l80 -109l153 72l19 -38l-147 -69l122 -167q38 -52 59 -86q45 -67 45 -143zM458 216q0 76 -50.5 127t-125.5 51 q-74 0 -124 -51.5t-50 -127.5q0 -75 50 -126.5t125 -51.5q74 0 124.5 51.5t50.5 127.5z"></glyph><glyph glyph-name="ntilde" unicode="ñ" d="M472 305v-305h-50v302q0 64 -36.5 104t-98.5 40q-63 0 -104 -41q-40 -40 -40 -103v-302h-50v483h48v-65q52 75 154 75q82 0 129.5 -51.5t47.5 -136.5zM288 633l-25 25q-24 24 -43 24q-31 0 -31 -45v-20h-44q-1 5 -1 22q0 40 19 65t53 25t64 -30l25 -25q24 -24 43 -24 q32 0 32 46v19h44q1 -5 1 -22q0 -39 -19 -64.5t-53 -25.5q-35 0 -65 30z"></glyph><glyph glyph-name="ograve" unicode="ò" d="M56 242q-2 104 72.5 178.5t177.5 72.5q104 0 177 -73.5t73 -177.5q2 -103 -73 -178.5t-178 -73.5q-102 -2 -176.5 73.5t-72.5 178.5zM504 241q0 87 -57.5 146t-140.5 59q-84 0 -141 -59t-57 -146q0 -86 57 -145t140 -59t141 59.5t58 144.5zM288 564l-113 207v9h62 l91 -216h-40z"></glyph><glyph glyph-name="oacute" unicode="ó" d="M56 242q-2 104 72.5 178.5t177.5 72.5q104 0 177 -73.5t73 -177.5q2 -103 -73 -178.5t-178 -73.5q-102 -2 -176.5 73.5t-72.5 178.5zM504 241q0 87 -57.5 146t-140.5 59q-84 0 -141 -59t-57 -146q0 -86 57 -145t140 -59t141 59.5t58 144.5zM287 564l91 216h62v-9 l-113 -207h-40z"></glyph><glyph glyph-name="ocircumflex" unicode="ô" d="M56 242q-2 104 72.5 178.5t177.5 72.5q104 0 177 -73.5t73 -177.5q2 -103 -73 -178.5t-178 -73.5q-102 -2 -176.5 73.5t-72.5 178.5zM504 241q0 87 -57.5 146t-140.5 59q-84 0 -141 -59t-57 -146q0 -86 57 -145t140 -59t141 59.5t58 144.5zM456 564h-41l-109 152 l-109 -152h-42l136 216h30z"></glyph><glyph glyph-name="otilde" unicode="õ" d="M56 242q-2 104 72.5 178.5t177.5 72.5q104 0 177 -73.5t73 -177.5q2 -103 -73 -178.5t-178 -73.5q-102 -2 -176.5 73.5t-72.5 178.5zM504 241q0 87 -57.5 146t-140.5 59q-84 0 -141 -59t-57 -146q0 -86 57 -145t140 -59t141 59.5t58 144.5zM310 633l-25 25q-24 24 -43 24 q-31 0 -31 -45v-20h-44q-1 5 -1 22q0 40 19 65t53 25t64 -30l25 -25q24 -24 43 -24q32 0 32 46v19h44q1 -5 1 -22q0 -39 -19 -64.5t-53 -25.5q-35 0 -65 30z"></glyph><glyph glyph-name="odieresis" unicode="ö" d="M56 242q-2 104 72.5 178.5t177.5 72.5q104 0 177 -73.5t73 -177.5q2 -103 -73 -178.5t-178 -73.5q-102 -2 -176.5 73.5t-72.5 178.5zM504 241q0 87 -57.5 146t-140.5 59q-84 0 -141 -59t-57 -146q0 -86 57 -145t140 -59t141 59.5t58 144.5zM162 669q0 18 13 30.5t30 12.5 q18 0 31 -12.5t13 -30.5q0 -17 -13 -29.5t-31 -12.5q-17 0 -30 12.5t-13 29.5zM362 669q0 18 13 30.5t31 12.5t30.5 -12.5t12.5 -30.5q0 -17 -12.5 -29.5t-30.5 -12.5t-31 12.5t-13 29.5z"></glyph><glyph glyph-name="divide" unicode="÷" d="M234 484q0 19 12.5 31t30.5 12q19 0 31.5 -12t12.5 -31q0 -18 -12.5 -30t-31.5 -12q-18 0 -30.5 12t-12.5 30zM62 289v45h435v-45h-435zM234 137q0 18 12.5 30.5t30.5 12.5q19 0 31.5 -12.5t12.5 -30.5t-12.5 -30.5t-31.5 -12.5q-18 0 -30.5 12.5t-12.5 30.5z"></glyph><glyph glyph-name="oslash" unicode="ø" d="M567 464l-62 -62q57 -72 57 -161q2 -101 -74 -177t-177 -74q-91 0 -160 58l-61 -62l-33 33l62 61q-57 70 -57 161q-2 103 73.5 178.5t176.5 73.5q90 0 160 -59l62 62zM112 241q0 -72 41 -128l288 288q-53 47 -129 47q-85 0 -142.5 -60t-57.5 -147zM512 241q0 72 -41 128 l-288 -288q55 -46 128 -46q84 0 142.5 60t58.5 146z"></glyph><glyph glyph-name="ugrave" unicode="ù" d="M86 183v300h50v-302q0 -65 39.5 -104.5t100.5 -39.5q60 0 99.5 39.5t39.5 104.5v302h50v-300q0 -86 -54 -139.5t-135 -53.5q-82 0 -136 53.5t-54 139.5zM257 564l-113 207v9h62l91 -216h-40z"></glyph><glyph glyph-name="uacute" unicode="ú" d="M86 183v300h50v-302q0 -65 39.5 -104.5t100.5 -39.5q60 0 99.5 39.5t39.5 104.5v302h50v-300q0 -86 -54 -139.5t-135 -53.5q-82 0 -136 53.5t-54 139.5zM256 564l91 216h62v-9l-113 -207h-40z"></glyph><glyph glyph-name="ucircumflex" unicode="û" d="M86 183v300h50v-302q0 -65 39.5 -104.5t100.5 -39.5q60 0 99.5 39.5t39.5 104.5v302h50v-300q0 -86 -54 -139.5t-135 -53.5q-82 0 -136 53.5t-54 139.5zM425 564h-41l-109 152l-109 -152h-42l136 216h30z"></glyph><glyph glyph-name="udieresis" unicode="ü" d="M86 183v300h50v-302q0 -65 39.5 -104.5t100.5 -39.5q60 0 99.5 39.5t39.5 104.5v302h50v-300q0 -86 -54 -139.5t-135 -53.5q-82 0 -136 53.5t-54 139.5zM131 669q0 18 13 30.5t30 12.5q18 0 31 -12.5t13 -30.5q0 -17 -13 -29.5t-31 -12.5q-17 0 -30 12.5t-13 29.5z M331 669q0 18 13 30.5t31 12.5t30.5 -12.5t12.5 -30.5q0 -17 -12.5 -29.5t-30.5 -12.5t-31 12.5t-13 29.5z"></glyph><glyph glyph-name="yacute" unicode="ý" d="M441 483h54l-241 -562q-26 -59 -62.5 -85t-88.5 -26q-35 0 -68 9v44q29 -7 61 -7q78 0 112 83l31 71l-207 473h55l179 -416zM243 564l91 216h62v-9l-113 -207h-40z"></glyph><glyph glyph-name="thorn" unicode="þ" d="M578 242q0 -106 -69.5 -179t-170.5 -73q-61 0 -114 27.5t-81 75.5v-273h-50v930h50v-360q28 48 80.5 75.5t114.5 27.5q101 0 170.5 -73t69.5 -178zM526 241q0 87 -55 146t-138 59q-80 0 -135 -53t-55 -151q0 -99 55 -152t135 -53q83 0 138 58.5t55 145.5z"></glyph><glyph glyph-name="ydieresis" unicode="ÿ" d="M441 483h54l-241 -562q-26 -59 -62.5 -85t-88.5 -26q-35 0 -68 9v44q29 -7 61 -7q78 0 112 83l31 71l-207 473h55l179 -416zM118 669q0 18 13 30.5t30 12.5q18 0 31 -12.5t13 -30.5q0 -17 -13 -29.5t-31 -12.5q-17 0 -30 12.5t-13 29.5zM318 669q0 18 13 30.5t31 12.5 t30.5 -12.5t12.5 -30.5q0 -17 -12.5 -29.5t-30.5 -12.5t-31 12.5t-13 29.5z"></glyph><glyph glyph-name="Amacron" unicode="Ā" d="M570 0l-65 157h-347l-65 -157h-54l283 670h21l282 -670h-55zM332 577l-154 -373h307zM192 777v43h282v-43h-282z"></glyph><glyph glyph-name="amacron" unicode="ā" d="M436 303v-303h-48v76q-55 -86 -173 -86q-71 0 -118 34q-48 35 -48 97q0 59 46 94t122 35h168v55q0 68 -35.5 104.5t-97.5 36.5q-84 0 -147 -81l-35 28q70 100 185 100q83 0 132 -49.5t49 -140.5zM385 180v27h-163q-59 0 -90 -21.5t-31 -61.5q0 -43 34 -66.5t85 -23.5 q68 0 116.5 42t48.5 104zM123 648v43h262v-43h-262z"></glyph><glyph glyph-name="Abreve" unicode="Ă" d="M570 0l-65 157h-347l-65 -157h-54l283 670h21l282 -670h-55zM332 577l-154 -373h307zM191 880v30h44v-29q0 -50 26 -79.5t72 -29.5t72 29t26 80v29h44v-30q0 -68 -39 -109t-103 -41q-65 0 -103.5 40.5t-38.5 109.5z"></glyph><glyph glyph-name="abreve" unicode="ă" d="M436 303v-303h-48v76q-55 -86 -173 -86q-71 0 -118 34q-48 35 -48 97q0 59 46 94t122 35h168v55q0 68 -35.5 104.5t-97.5 36.5q-84 0 -147 -81l-35 28q70 100 185 100q83 0 132 -49.5t49 -140.5zM385 180v27h-163q-59 0 -90 -21.5t-31 -61.5q0 -43 34 -66.5t85 -23.5 q68 0 116.5 42t48.5 104zM112 724v33h44v-31q0 -51 26 -80.5t72 -29.5t72 29.5t26 80.5v31h44v-33q0 -67 -39 -108.5t-103 -41.5t-103 41t-39 109z"></glyph><glyph glyph-name="Aogonek" unicode="Ą" d="M570 0l-65 157h-347l-65 -157h-54l283 670h21l282 -670h-55zM332 577l-154 -373h307zM459 -110q0 35 32 64q33 30 115 73l19 -27l-54 -35q-35 -23 -48 -36.5t-13 -31.5q0 -21 15.5 -33t41.5 -12q18 0 58 8v-40q-34 -10 -66 -10q-44 0 -72 22t-28 58z"></glyph><glyph glyph-name="aogonek" unicode="ą" d="M436 303v-303h-48v76q-55 -86 -173 -86q-71 0 -118 34q-48 35 -48 97q0 59 46 94t122 35h168v55q0 68 -35.5 104.5t-97.5 36.5q-84 0 -147 -81l-35 28q70 100 185 100q83 0 132 -49.5t49 -140.5zM385 180v27h-163q-59 0 -90 -21.5t-31 -61.5q0 -43 34 -66.5t85 -23.5 q68 0 116.5 42t48.5 104zM270 -110q0 35 32 64q33 30 115 73l19 -27l-54 -35q-35 -23 -48 -36.5t-13 -31.5q0 -21 15.5 -33t41.5 -12q18 0 58 8v-40q-34 -10 -66 -10q-44 0 -72 22t-28 58z"></glyph><glyph glyph-name="Cacute" unicode="Ć" d="M53 330q-3 141 98 241.5t240 98.5q82 0 152 -35.5t115 -98.5l-39 -31q-83 117 -227 117q-119 2 -202.5 -84t-81.5 -207q-2 -122 81.5 -208t202.5 -84q144 0 227 116l39 -31q-45 -63 -115 -98.5t-152 -35.5q-139 -3 -240 98.5t-98 241.5zM372 724l91 186h62v-9l-113 -177 h-40z"></glyph><glyph glyph-name="cacute" unicode="ć" d="M56 242q-2 103 72.5 178t177.5 73q122 0 195 -99l-36 -29q-61 81 -159 81q-84 0 -141 -59.5t-57 -144.5q0 -86 57 -145.5t140 -59.5q97 0 160 81l36 -29q-73 -99 -196 -99q-102 -2 -176.5 73.5t-72.5 178.5zM286 564l91 216h62v-9l-113 -207h-40z"></glyph><glyph glyph-name="Ccircumflex" unicode="Ĉ" d="M53 330q-3 141 98 241.5t240 98.5q82 0 152 -35.5t115 -98.5l-39 -31q-83 117 -227 117q-119 2 -202.5 -84t-81.5 -207q-2 -122 81.5 -208t202.5 -84q144 0 227 116l39 -31q-45 -63 -115 -98.5t-152 -35.5q-139 -3 -240 98.5t-98 241.5zM553 724h-42l-119 129l-120 -129 h-41l146 186h29z"></glyph><glyph glyph-name="ccircumflex" unicode="ĉ" d="M56 242q-2 103 72.5 178t177.5 73q122 0 195 -99l-36 -29q-61 81 -159 81q-84 0 -141 -59.5t-57 -144.5q0 -86 57 -145.5t140 -59.5q97 0 160 81l36 -29q-73 -99 -196 -99q-102 -2 -176.5 73.5t-72.5 178.5zM455 564h-41l-109 152l-109 -152h-42l136 216h30z"></glyph><glyph glyph-name="Cdotaccent" unicode="Ċ" d="M53 330q-3 141 98 241.5t240 98.5q82 0 152 -35.5t115 -98.5l-39 -31q-83 117 -227 117q-119 2 -202.5 -84t-81.5 -207q-2 -122 81.5 -208t202.5 -84q144 0 227 116l39 -31q-45 -63 -115 -98.5t-152 -35.5q-139 -3 -240 98.5t-98 241.5zM348 808q0 18 12.5 30.5 t31.5 12.5q18 0 31 -12.5t13 -30.5q0 -19 -13 -31.5t-31 -12.5q-19 0 -31.5 12.5t-12.5 31.5z"></glyph><glyph glyph-name="cdotaccent" unicode="ċ" d="M56 242q-2 103 72.5 178t177.5 73q122 0 195 -99l-36 -29q-61 81 -159 81q-84 0 -141 -59.5t-57 -144.5q0 -86 57 -145.5t140 -59.5q97 0 160 81l36 -29q-73 -99 -196 -99q-102 -2 -176.5 73.5t-72.5 178.5zM261 669q0 18 12.5 31t31.5 13q18 0 31 -13t13 -31t-13 -31 t-31 -13q-19 0 -31.5 13t-12.5 31z"></glyph><glyph glyph-name="Ccaron" unicode="Č" d="M53 330q-3 141 98 241.5t240 98.5q82 0 152 -35.5t115 -98.5l-39 -31q-83 117 -227 117q-119 2 -202.5 -84t-81.5 -207q-2 -122 81.5 -208t202.5 -84q144 0 227 116l39 -31q-45 -63 -115 -98.5t-152 -35.5q-139 -3 -240 98.5t-98 241.5zM511 910h42l-147 -186h-29 l-146 186h41l120 -129z"></glyph><glyph glyph-name="ccaron" unicode="č" d="M56 242q-2 103 72.5 178t177.5 73q122 0 195 -99l-36 -29q-61 81 -159 81q-84 0 -141 -59.5t-57 -144.5q0 -86 57 -145.5t140 -59.5q97 0 160 81l36 -29q-73 -99 -196 -99q-102 -2 -176.5 73.5t-72.5 178.5zM414 780h41l-135 -216h-30l-136 216h42l109 -152z"></glyph><glyph glyph-name="Dcaron" unicode="Ď" d="M98 0v660h186q167 0 263 -91.5t96 -237.5q2 -144 -96 -238t-263 -93h-186zM150 47h134q141 0 223 80t82 204t-81.5 203t-223.5 79h-134v-566zM402 910h42l-147 -186h-29l-146 186h41l120 -129z"></glyph><glyph glyph-name="dcaron" unicode="ď" d="M491 750h50v-750h-48v98q-27 -50 -80.5 -79t-116.5 -29q-101 0 -170.5 73t-69.5 178q0 106 68.5 179t171.5 73q62 0 114.5 -28t80.5 -76v361zM491 241q0 99 -55 152t-135 53q-83 0 -138 -58.5t-55 -145.5t55 -146t138 -59q80 0 135 53t55 151zM648 540l17 210h57 l-35 -210h-39z"></glyph><glyph glyph-name="Dcroat" unicode="Đ" d="M643 331q2 -144 -96 -238t-263 -93h-186v281h-100v45h100v334h186q167 0 263 -91.5t96 -237.5zM589 331q0 124 -81.5 203t-223.5 79h-134v-287h142v-45h-142v-234h134q141 0 223 80t82 204z"></glyph><glyph glyph-name="dslash" unicode="đ" d="M624 638v-44h-85v-594h-48v98q-27 -50 -80.5 -79t-117.5 -29q-99 -2 -170 72t-69 176q-2 103 69 177.5t170 72.5q62 0 115 -28.5t81 -76.5v211h-225v44h225v112h50v-112h85zM489 238q0 98 -55 150.5t-135 52.5q-83 0 -137.5 -58t-54.5 -145q0 -86 54.5 -144t137.5 -58 q81 0 135.5 52t54.5 150z"></glyph><glyph glyph-name="Emacron" unicode="Ē" d="M98 0v660h413v-47h-361v-233h281v-47h-281v-286h373v-47h-425zM161 777v43h282v-43h-282z"></glyph><glyph glyph-name="emacron" unicode="ē" d="M512 230h-404q4 -84 60.5 -138.5t138.5 -54.5q97 0 161 76l32 -33q-77 -90 -194 -90q-103 -2 -177.5 73t-72.5 178q-2 103 71 178.5t173 73.5q91 0 153.5 -60t62.5 -155q0 -33 -4 -48zM110 275h354q3 77 -45.5 124.5t-120.5 47.5q-73 0 -125 -49q-53 -48 -63 -123z M163 648v43h262v-43h-262z"></glyph><glyph glyph-name="Ebreve" unicode="Ĕ" d="M98 0v660h413v-47h-361v-233h281v-47h-281v-286h373v-47h-425zM160 880v30h44v-29q0 -50 26 -79.5t72 -29.5t72 29t26 80v29h44v-30q0 -68 -39 -109t-103 -41q-65 0 -103.5 40.5t-38.5 109.5z"></glyph><glyph glyph-name="ebreve" unicode="ĕ" d="M512 230h-404q4 -84 60.5 -138.5t138.5 -54.5q97 0 161 76l32 -33q-77 -90 -194 -90q-103 -2 -177.5 73t-72.5 178q-2 103 71 178.5t173 73.5q91 0 153.5 -60t62.5 -155q0 -33 -4 -48zM110 275h354q3 77 -45.5 124.5t-120.5 47.5q-73 0 -125 -49q-53 -48 -63 -123z M152 724v33h44v-31q0 -51 26 -80.5t72 -29.5t72 29.5t26 80.5v31h44v-33q0 -67 -39 -108.5t-103 -41.5t-103 41t-39 109z"></glyph><glyph glyph-name="Edotaccent" unicode="Ė" d="M98 0v660h413v-47h-361v-233h281v-47h-281v-286h373v-47h-425zM258 808q0 18 12.5 30.5t31.5 12.5q18 0 31 -12.5t13 -30.5q0 -19 -13 -31.5t-31 -12.5q-19 0 -31.5 12.5t-12.5 31.5z"></glyph><glyph glyph-name="edotaccent" unicode="ė" d="M512 230h-404q4 -84 60.5 -138.5t138.5 -54.5q97 0 161 76l32 -33q-77 -90 -194 -90q-103 -2 -177.5 73t-72.5 178q-2 103 71 178.5t173 73.5q91 0 153.5 -60t62.5 -155q0 -33 -4 -48zM110 275h354q3 77 -45.5 124.5t-120.5 47.5q-73 0 -125 -49q-53 -48 -63 -123z M250 669q0 18 12.5 31t31.5 13q18 0 31 -13t13 -31t-13 -31t-31 -13q-19 0 -31.5 13t-12.5 31z"></glyph><glyph glyph-name="Eogonek" unicode="Ę" d="M98 0v660h413v-47h-361v-233h281v-47h-281v-286h373v-47h-425zM357 -110q0 35 32 64q33 30 115 73l19 -27l-54 -35q-35 -23 -48 -36.5t-13 -31.5q0 -21 15.5 -33t41.5 -12q18 0 58 8v-40q-34 -10 -66 -10q-44 0 -72 22t-28 58z"></glyph><glyph glyph-name="eogonek" unicode="ę" d="M512 230h-404q4 -84 60.5 -138.5t138.5 -54.5q97 0 161 76l32 -33q-77 -90 -194 -90q-103 -2 -177.5 73t-72.5 178q-2 103 71 178.5t173 73.5q91 0 153.5 -60t62.5 -155q0 -33 -4 -48zM110 275h354q3 77 -45.5 124.5t-120.5 47.5q-73 0 -125 -49q-53 -48 -63 -123z M307 -110q3 40 22 66t116 124h55l-95 -103q-46 -49 -46 -80q0 -21 15 -33t42 -12q23 0 57 8v-40q-27 -10 -65 -10q-45 0 -73 22t-28 58z"></glyph><glyph glyph-name="Ecaron" unicode="Ě" d="M98 0v660h413v-47h-361v-233h281v-47h-281v-286h373v-47h-425zM421 910h42l-147 -186h-29l-146 186h41l120 -129z"></glyph><glyph glyph-name="ecaron" unicode="ě" d="M512 230h-404q4 -84 60.5 -138.5t138.5 -54.5q97 0 161 76l32 -33q-77 -90 -194 -90q-103 -2 -177.5 73t-72.5 178q-2 103 71 178.5t173 73.5q91 0 153.5 -60t62.5 -155q0 -33 -4 -48zM110 275h354q3 77 -45.5 124.5t-120.5 47.5q-73 0 -125 -49q-53 -48 -63 -123z M403 780h41l-135 -216h-30l-136 216h42l109 -152z"></glyph><glyph glyph-name="Gcircumflex" unicode="Ĝ" d="M53 330q-3 141 98 241.5t240 98.5q81 0 150 -34.5t114 -96.5l-39 -31q-82 114 -224 114q-121 0 -202.5 -84t-81.5 -207q0 -124 81.5 -208.5t204.5 -84.5q76 0 139.5 34.5t100.5 95.5v109h-243v48h295v-168q-43 -78 -122 -122.5t-173 -44.5q-139 -3 -239.5 98.5 t-98.5 241.5zM553 724h-42l-119 129l-120 -129h-41l146 186h29z"></glyph><glyph glyph-name="gcircumflex" unicode="ĝ" d="M499 483h48v-440q0 -107 -64 -170t-167 -63q-136 0 -222 94l31 34q81 -81 190 -81q83 0 132.5 48.5t49.5 135.5v64q-28 -47 -81 -75t-115 -28q-101 0 -170 71.5t-69 174.5t69 174t170 71q63 0 117 -28.5t81 -77.5v96zM497 248q0 94 -55 145.5t-134 51.5q-83 0 -138.5 -57 t-55.5 -141t55.5 -141t138.5 -57q79 0 134 52t55 147zM461 564h-41l-109 152l-109 -152h-42l136 216h30z"></glyph><glyph glyph-name="Gbreve" unicode="Ğ" d="M53 330q-3 141 98 241.5t240 98.5q81 0 150 -34.5t114 -96.5l-39 -31q-82 114 -224 114q-121 0 -202.5 -84t-81.5 -207q0 -124 81.5 -208.5t204.5 -84.5q76 0 139.5 34.5t100.5 95.5v109h-243v48h295v-168q-43 -78 -122 -122.5t-173 -44.5q-139 -3 -239.5 98.5 t-98.5 241.5zM250 880v30h44v-29q0 -50 26 -79.5t72 -29.5t72 29t26 80v29h44v-30q0 -68 -39 -109t-103 -41q-65 0 -103.5 40.5t-38.5 109.5z"></glyph><glyph glyph-name="gbreve" unicode="ğ" d="M499 483h48v-440q0 -107 -64 -170t-167 -63q-136 0 -222 94l31 34q81 -81 190 -81q83 0 132.5 48.5t49.5 135.5v64q-28 -47 -81 -75t-115 -28q-101 0 -170 71.5t-69 174.5t69 174t170 71q63 0 117 -28.5t81 -77.5v96zM497 248q0 94 -55 145.5t-134 51.5q-83 0 -138.5 -57 t-55.5 -141t55.5 -141t138.5 -57q79 0 134 52t55 147zM169 724v33h44v-31q0 -51 26 -80.5t72 -29.5t72 29.5t26 80.5v31h44v-33q0 -67 -39 -108.5t-103 -41.5t-103 41t-39 109z"></glyph><glyph glyph-name="Gdotaccent" unicode="Ġ" d="M53 330q-3 141 98 241.5t240 98.5q81 0 150 -34.5t114 -96.5l-39 -31q-82 114 -224 114q-121 0 -202.5 -84t-81.5 -207q0 -124 81.5 -208.5t204.5 -84.5q76 0 139.5 34.5t100.5 95.5v109h-243v48h295v-168q-43 -78 -122 -122.5t-173 -44.5q-139 -3 -239.5 98.5 t-98.5 241.5zM348 808q0 18 12.5 30.5t31.5 12.5q18 0 31 -12.5t13 -30.5q0 -19 -13 -31.5t-31 -12.5q-19 0 -31.5 12.5t-12.5 31.5z"></glyph><glyph glyph-name="gdotaccent" unicode="ġ" d="M499 483h48v-440q0 -107 -64 -170t-167 -63q-136 0 -222 94l31 34q81 -81 190 -81q83 0 132.5 48.5t49.5 135.5v64q-28 -47 -81 -75t-115 -28q-101 0 -170 71.5t-69 174.5t69 174t170 71q63 0 117 -28.5t81 -77.5v96zM497 248q0 94 -55 145.5t-134 51.5q-83 0 -138.5 -57 t-55.5 -141t55.5 -141t138.5 -57q79 0 134 52t55 147zM267 669q0 18 12.5 31t31.5 13q18 0 31 -13t13 -31t-13 -31t-31 -13q-19 0 -31.5 13t-12.5 31z"></glyph><glyph glyph-name="uni0122" unicode="Ģ" d="M53 330q-3 141 98 241.5t240 98.5q81 0 150 -34.5t114 -96.5l-39 -31q-82 114 -224 114q-121 0 -202.5 -84t-81.5 -207q0 -124 81.5 -208.5t204.5 -84.5q76 0 139.5 34.5t100.5 95.5v109h-243v48h295v-168q-43 -78 -122 -122.5t-173 -44.5q-139 -3 -239.5 98.5 t-98.5 241.5zM353 -220l12 169h54l-25 -169h-41z"></glyph><glyph glyph-name="uni0123" unicode="ģ" d="M499 483h48v-440q0 -107 -64 -170t-167 -63q-136 0 -222 94l31 34q81 -81 190 -81q83 0 132.5 48.5t49.5 135.5v64q-28 -47 -81 -75t-115 -28q-101 0 -170 71.5t-69 174.5t69 174t170 71q63 0 117 -28.5t81 -77.5v96zM497 248q0 94 -55 145.5t-134 51.5q-83 0 -138.5 -57 t-55.5 -141t55.5 -141t138.5 -57q79 0 134 52t55 147zM284 564l30 216h41l-18 -216h-53z"></glyph><glyph glyph-name="Hcircumflex" unicode="Ĥ" d="M98 0v660h52v-280h406v280h52v-660h-52v333h-406v-333h-52zM514 724h-42l-119 129l-120 -129h-41l146 186h29z"></glyph><glyph glyph-name="hcircumflex" unicode="ĥ" d="M472 305v-305h-50v301q0 66 -36.5 105.5t-98.5 39.5q-63 0 -103.5 -41t-40.5 -104v-301h-50v750h50v-333q52 76 153 76q81 0 128.5 -51.5t47.5 -136.5zM310 814h-42l-119 129l-120 -129h-41l146 186h29z"></glyph><glyph glyph-name="Hbar" unicode="Ħ" d="M101 0v471h-103v45h103v144h52v-144h407v144h52v-144h103v-45h-103v-471h-52v272h-407v-272h-52zM153 319h407v152h-407v-152z"></glyph><glyph glyph-name="hbar" unicode="ħ" d="M474 300v-300h-51v296q0 65 -36 104.5t-98 39.5q-63 0 -104 -40.5t-41 -103.5v-296h-50v593h-84v46h84v111h50v-111h207v-46h-207v-183q51 78 153 78q81 0 129 -51.5t48 -136.5z"></glyph><glyph glyph-name="Itilde" unicode="Ĩ" d="M98 0v660h52v-660h-52zM133 776l-36 23q-32 21 -47 21t-24 -11.5t-9 -30.5v-19h-45q-1 4 -1 22q0 37 20 61.5t53 24.5q30 0 70 -27l37 -24q35 -21 48 -21q33 0 33 42v20h44q1 -5 1 -22q0 -38 -20 -62t-52 -24q-29 0 -72 27z"></glyph><glyph glyph-name="itilde" unicode="ĩ" d="M93 0v483h50v-483h-50zM119 636l-20 22q-23 24 -38 24q-30 0 -30 -45v-20h-44q-2 14 -2 21q0 38 19 64.5t52 26.5q32 0 61 -32l20 -22q24 -25 38 -25q30 0 30 46v19h43q2 -10 2 -21q0 -38 -19 -64.5t-51 -26.5q-31 0 -61 33z"></glyph><glyph glyph-name="Imacron" unicode="Ī" d="M98 0v660h52v-660h-52zM-17 777v43h282v-43h-282z"></glyph><glyph glyph-name="imacron" unicode="ī" d="M93 0v483h50v-483h-50zM16 647v44h204v-44h-204z"></glyph><glyph glyph-name="Ibreve" unicode="Ĭ" d="M98 0v660h52v-660h-52zM-18 880v30h44v-29q0 -50 26 -79.5t72 -29.5t72 29t26 80v29h44v-30q0 -68 -39 -109t-103 -41q-65 0 -103.5 40.5t-38.5 109.5z"></glyph><glyph glyph-name="ibreve" unicode="ĭ" d="M93 0v483h50v-483h-50zM-24 724v33h44v-31q0 -51 26 -80.5t72 -29.5t72 29.5t26 80.5v31h44v-33q0 -67 -39 -108.5t-103 -41.5t-103 41t-39 109z"></glyph><glyph glyph-name="Iogonek" unicode="Į" d="M98 0v660h52v-660h-52zM-16 -110q0 35 32 64q33 30 115 73l19 -27l-54 -35q-35 -23 -48 -36.5t-13 -31.5q0 -21 15.5 -33t41.5 -12q18 0 58 8v-40q-34 -10 -66 -10q-44 0 -72 22t-28 58z"></glyph><glyph glyph-name="iogonek" unicode="į" d="M93 0v483h50v-483h-50zM74 669q0 18 12.5 31t31.5 13q18 0 31 -13t13 -31t-13 -31t-31 -13q-19 0 -31.5 13t-12.5 31zM-23 -110q0 35 32 64q33 30 115 73l19 -27l-54 -35q-35 -23 -48 -36.5t-13 -31.5q0 -21 15.5 -33t41.5 -12q18 0 58 8v-40q-34 -10 -66 -10 q-44 0 -72 22t-28 58z"></glyph><glyph glyph-name="Idot" unicode="İ" d="M98 0v660h52v-660h-52zM80 808q0 18 12.5 30.5t31.5 12.5q18 0 31 -12.5t13 -30.5q0 -19 -13 -31.5t-31 -12.5q-19 0 -31.5 12.5t-12.5 31.5z"></glyph><glyph glyph-name="dotlessi" unicode="ı" d="M93 0v483h50v-483h-50z"></glyph><glyph glyph-name="IJ" unicode="Ĳ" d="M98 0v660h52v-660h-52zM275 0v46q35 -7 74 -7q58 0 86.5 24.5t28.5 82.5v514h52v-517q0 -76 -42.5 -114.5t-117.5 -38.5q-41 0 -81 10z"></glyph><glyph glyph-name="ij" unicode="ĳ" d="M93 0v483h50v-483h-50zM74 669q0 18 12.5 31t31.5 13q18 0 31 -13t13 -31t-13 -31t-31 -13q-19 0 -31.5 13t-12.5 31zM178 -184v44q20 -4 46 -4q52 0 78.5 23.5t26.5 77.5v526h50v-528q0 -73 -38.5 -109t-107.5 -36q-29 0 -55 6zM310 669q0 18 12.5 31t31.5 13 q18 0 31 -13t13 -31t-13 -31t-31 -13q-19 0 -31.5 13t-12.5 31z"></glyph><glyph glyph-name="Jcircumflex" unicode="Ĵ" d="M28 0v46q35 -7 74 -7q58 0 86.5 24.5t28.5 82.5v514h52v-517q0 -76 -42.5 -114.5t-117.5 -38.5q-41 0 -81 10zM398 724h-42l-119 129l-120 -129h-41l146 186h29z"></glyph><glyph glyph-name="jcircumflex" unicode="ĵ" d="M-58 -184v44q20 -4 46 -4q52 0 78.5 23.5t26.5 77.5v526h50v-528q0 -73 -38.5 -109t-107.5 -36q-29 0 -55 6zM268 564h-41l-109 152l-109 -152h-42l136 216h30z"></glyph><glyph glyph-name="uni0136" unicode="Ķ" d="M98 0v660h52v-660h-52zM233 356l344 -356h-67l-346 357l320 303h69zM252 -220l12 169h54l-25 -169h-41z"></glyph><glyph glyph-name="uni0137" unicode="ķ" d="M93 0v750h50v-750h-50zM222 271l243 -271h-66l-241 272l217 211h68zM202 -220l12 169h54l-25 -169h-41z"></glyph><glyph glyph-name="Lacute" unicode="Ĺ" d="M98 0v660h52v-613h325v-47h-377zM103 724l91 186h62v-9l-113 -177h-40z"></glyph><glyph glyph-name="lacute" unicode="ĺ" d="M93 0v750h50v-750h-50zM98 814l91 186h62v-9l-113 -177h-40z"></glyph><glyph glyph-name="uni013B" unicode="Ļ" d="M98 0v660h52v-613h325v-47h-377zM242 -220l12 169h54l-25 -169h-41z"></glyph><glyph glyph-name="uni013C" unicode="ļ" d="M93 0v750h50v-750h-50zM79 -220l12 169h54l-25 -169h-41z"></glyph><glyph glyph-name="Lcaron" unicode="Ľ" d="M98 0v660h52v-613h325v-47h-377zM366 510l17 210h57l-35 -210h-39z"></glyph><glyph glyph-name="lcaron" unicode="ľ" d="M93 0v750h50v-750h-50zM251 540l17 210h57l-35 -210h-39z"></glyph><glyph glyph-name="Ldot" unicode="Ŀ" d="M98 0v660h52v-613h325v-47h-377zM330 363q0 22 14 36t34 14q22 0 36 -13.5t14 -36.5q0 -21 -14.5 -34.5t-35.5 -13.5q-19 0 -33.5 14t-14.5 34z"></glyph><glyph glyph-name="ldot" unicode="ŀ" d="M93 0v750h50v-750h-50zM202 310q0 22 14 36t34 14q22 0 36 -13.5t14 -36.5q0 -21 -14.5 -34.5t-35.5 -13.5q-19 0 -33.5 14t-14.5 34z"></glyph><glyph glyph-name="Lslash" unicode="Ł" d="M150 47h325v-47h-377v276l-81 -37v49l81 37v335h52v-315l232 105v-49l-232 -105v-249z"></glyph><glyph glyph-name="lslash" unicode="ł" d="M251 448v-49l-86 -40v-359h-51v341l-82 -38v49l82 38v360h51v-342z"></glyph><glyph glyph-name="Nacute" unicode="Ń" d="M556 660h52v-670h-21l-437 559v-549h-52v670h20l438 -563v553zM332 724l91 186h62v-9l-113 -177h-40z"></glyph><glyph glyph-name="nacute" unicode="ń" d="M472 305v-305h-50v302q0 64 -36.5 104t-98.5 40q-63 0 -104 -41q-40 -40 -40 -103v-302h-50v483h48v-65q52 75 154 75q82 0 129.5 -51.5t47.5 -136.5zM265 564l91 216h62v-9l-113 -207h-40z"></glyph><glyph glyph-name="uni0145" unicode="Ņ" d="M556 660h52v-670h-21l-437 559v-549h-52v670h20l438 -563v553zM314 -220l12 169h54l-25 -169h-41z"></glyph><glyph glyph-name="uni0146" unicode="ņ" d="M472 305v-305h-50v302q0 64 -36.5 104t-98.5 40q-63 0 -104 -41q-40 -40 -40 -103v-302h-50v483h48v-65q52 75 154 75q82 0 129.5 -51.5t47.5 -136.5zM245 -220l12 169h54l-25 -169h-41z"></glyph><glyph glyph-name="Ncaron" unicode="Ň" d="M556 660h52v-670h-21l-437 559v-549h-52v670h20l438 -563v553zM472 910h42l-147 -186h-29l-146 186h41l120 -129z"></glyph><glyph glyph-name="ncaron" unicode="ň" d="M472 305v-305h-50v302q0 64 -36.5 104t-98.5 40q-63 0 -104 -41q-40 -40 -40 -103v-302h-50v483h48v-65q52 75 154 75q82 0 129.5 -51.5t47.5 -136.5zM393 780h41l-135 -216h-30l-136 216h42l109 -152z"></glyph><glyph glyph-name="Eng" unicode="Ŋ" d="M556 660h52v-705q0 -73 -38.5 -109t-107.5 -36q-30 0 -55 6v44q20 -4 46 -4q51 0 77 23.5t26 77.5v46l-406 541v-544h-52v670h20l438 -583v573z"></glyph><glyph glyph-name="eng" unicode="ŋ" d="M472 305v-350q0 -73 -38.5 -109t-107.5 -36q-30 0 -55 6v44q20 -4 46 -4q105 0 105 101v344q0 66 -36.5 105.5t-98.5 39.5q-63 0 -103.5 -41t-40.5 -104v-301h-50v483h48v-65q52 75 154 75q82 0 129.5 -51.5t47.5 -136.5z"></glyph><glyph glyph-name="Omacron" unicode="Ō" d="M53 330q-3 141 98 241.5t240 98.5q138 2 240 -99t99 -241q3 -140 -99 -241.5t-240 -98.5q-139 -3 -240 98.5t-98 241.5zM675 331q2 121 -81.5 207t-201.5 84q-119 2 -202.5 -84t-81.5 -207q-2 -122 81.5 -208t202.5 -84q118 -2 201.5 84.5t81.5 207.5zM251 777v43h282 v-43h-282z"></glyph><glyph glyph-name="omacron" unicode="ō" d="M56 242q-2 104 72.5 178.5t177.5 72.5q104 0 177 -73.5t73 -177.5q2 -103 -73 -178.5t-178 -73.5q-102 -2 -176.5 73.5t-72.5 178.5zM504 241q0 87 -57.5 146t-140.5 59q-84 0 -141 -59t-57 -146q0 -86 57 -145t140 -59t141 59.5t58 144.5zM175 648v43h262v-43h-262z"></glyph><glyph glyph-name="Obreve" unicode="Ŏ" d="M53 330q-3 141 98 241.5t240 98.5q138 2 240 -99t99 -241q3 -140 -99 -241.5t-240 -98.5q-139 -3 -240 98.5t-98 241.5zM675 331q2 121 -81.5 207t-201.5 84q-119 2 -202.5 -84t-81.5 -207q-2 -122 81.5 -208t202.5 -84q118 -2 201.5 84.5t81.5 207.5zM250 880v30h44v-29 q0 -50 26 -79.5t72 -29.5t72 29t26 80v29h44v-30q0 -68 -39 -109t-103 -41q-65 0 -103.5 40.5t-38.5 109.5z"></glyph><glyph glyph-name="obreve" unicode="ŏ" d="M56 242q-2 104 72.5 178.5t177.5 72.5q104 0 177 -73.5t73 -177.5q2 -103 -73 -178.5t-178 -73.5q-102 -2 -176.5 73.5t-72.5 178.5zM504 241q0 87 -57.5 146t-140.5 59q-84 0 -141 -59t-57 -146q0 -86 57 -145t140 -59t141 59.5t58 144.5zM164 724v33h44v-31 q0 -51 26 -80.5t72 -29.5t72 29.5t26 80.5v31h44v-33q0 -67 -39 -108.5t-103 -41.5t-103 41t-39 109z"></glyph><glyph glyph-name="Ohungarumlaut" unicode="Ő" d="M53 330q-3 141 98 241.5t240 98.5q138 2 240 -99t99 -241q3 -140 -99 -241.5t-240 -98.5q-139 -3 -240 98.5t-98 241.5zM675 331q2 121 -81.5 207t-201.5 84q-119 2 -202.5 -84t-81.5 -207q-2 -122 81.5 -208t202.5 -84q118 -2 201.5 84.5t81.5 207.5zM255 724l92 186h57 v-9l-110 -177h-39zM466 724l91 186h57v-9l-110 -177h-38z"></glyph><glyph glyph-name="ohungarumlaut" unicode="ő" d="M56 242q-2 104 72.5 178.5t177.5 72.5q104 0 177 -73.5t73 -177.5q2 -103 -73 -178.5t-178 -73.5q-102 -2 -176.5 73.5t-72.5 178.5zM504 241q0 87 -57.5 146t-140.5 59q-84 0 -141 -59t-57 -146q0 -86 57 -145t140 -59t141 59.5t58 144.5zM186 564l92 216h57v-9 l-110 -207h-39zM377 564l91 216h57v-9l-110 -207h-38z"></glyph><glyph glyph-name="OE" unicode="Œ" d="M727 47h374v-47h-426v158q-37 -76 -115 -123q-76 -45 -170 -45q-139 -3 -239.5 98.5t-97.5 241.5q-3 141 98 242t240 98q94 0 170 -46q76 -45 114 -122v158h414v-47h-362v-233h281v-47h-281v-286zM675 331q2 121 -81.5 207t-202.5 84q-119 2 -202 -84t-81 -207 q0 -124 81 -208t202 -84q119 -2 202.5 84t81.5 208z"></glyph><glyph glyph-name="oe" unicode="œ" d="M940 229h-396q3 -83 57 -137.5t134 -54.5q98 0 160 76l33 -33q-77 -90 -194 -90q-71 0 -128 37.5t-87 101.5q-30 -64 -87 -101.5t-128 -37.5q-103 0 -175.5 73.5t-72.5 177.5q-2 103 73 178.5t176 73.5q71 0 128 -37.5t85 -101.5q28 64 84.5 101.5t126.5 37.5 q89 0 152 -60.5t63 -154.5q0 -17 -4 -49zM494 241q0 88 -53 146.5t-136 58.5q-84 0 -140.5 -59t-56.5 -146q0 -86 56.5 -145t139.5 -59q82 0 136 59t54 145zM546 275h346q3 76 -45.5 123.5t-120.5 47.5t-121 -48q-48 -45 -59 -123z"></glyph><glyph glyph-name="Racute" unicode="Ŕ" d="M594 0h-61l-222 296h-161v-296h-52v660h224q91 0 145.5 -51t54.5 -130q0 -70 -40 -118t-111 -61zM150 613v-270h170q70 0 109 37t39 98t-39 98t-109 37h-170zM243 724l91 186h62v-9l-113 -177h-40z"></glyph><glyph glyph-name="racute" unicode="ŕ" d="M332 483v-44h-25q-66 0 -115 -42.5t-49 -112.5v-284h-50v483h48v-82q53 85 160 85q7 0 18 -1.5t13 -1.5zM139 564l91 216h62v-9l-113 -207h-40z"></glyph><glyph glyph-name="uni0156" unicode="Ŗ" d="M594 0h-61l-222 296h-161v-296h-52v660h224q91 0 145.5 -51t54.5 -130q0 -70 -40 -118t-111 -61zM150 613v-270h170q70 0 109 37t39 98t-39 98t-109 37h-170zM268 -220l12 169h54l-25 -169h-41z"></glyph><glyph glyph-name="uni0157" unicode="ŗ" d="M332 483v-44h-25q-66 0 -115 -42.5t-49 -112.5v-284h-50v483h48v-82q53 85 160 85q7 0 18 -1.5t13 -1.5zM79 -220l12 169h54l-25 -169h-41z"></glyph><glyph glyph-name="Rcaron" unicode="Ř" d="M594 0h-61l-222 296h-161v-296h-52v660h224q91 0 145.5 -51t54.5 -130q0 -70 -40 -118t-111 -61zM150 613v-270h170q70 0 109 37t39 98t-39 98t-109 37h-170zM382 910h42l-147 -186h-29l-146 186h41l120 -129z"></glyph><glyph glyph-name="rcaron" unicode="ř" d="M332 483v-44h-25q-66 0 -115 -42.5t-49 -112.5v-284h-50v483h48v-82q53 85 160 85q7 0 18 -1.5t13 -1.5zM267 780h41l-135 -216h-30l-136 216h42l109 -152z"></glyph><glyph glyph-name="Sacute" unicode="Ś" d="M46 130l39 29q77 -120 199 -120q67 0 108.5 34t41.5 91q-2 50 -26.5 75t-95.5 61l-75 36q-73 33 -108 69t-38 102q0 74 55.5 118.5t136.5 44.5q62 0 113.5 -28t84.5 -77l-39 -29q-61 86 -159 86q-57 0 -97 -28q-41 -29 -41 -84q3 -49 26.5 -72t90.5 -56l74 -36 q81 -38 116.5 -78t35.5 -103q0 -77 -58.5 -126t-146.5 -49q-74 0 -136 37t-101 103zM262 724l91 186h62v-9l-113 -177h-40z"></glyph><glyph glyph-name="sacute" unicode="ś" d="M46 90l35 33q68 -86 151 -86q47 0 77.5 22.5t30.5 62.5q-3 37 -22.5 54t-76.5 43l-44 19q-61 27 -90 55.5t-29 73.5q0 57 45 92q44 34 109 34q97 0 156 -77l-33 -32q-56 62 -126 62q-43 0 -70.5 -20t-27.5 -56q0 -29 19.5 -47t71.5 -40l45 -20q65 -29 95 -60t30 -79 q0 -64 -47 -99t-114 -35q-117 0 -185 100zM212 564l91 216h62v-9l-113 -207h-40z"></glyph><glyph glyph-name="Scircumflex" unicode="Ŝ" d="M46 130l39 29q77 -120 199 -120q67 0 108.5 34t41.5 91q-2 50 -26.5 75t-95.5 61l-75 36q-73 33 -108 69t-38 102q0 74 55.5 118.5t136.5 44.5q62 0 113.5 -28t84.5 -77l-39 -29q-61 86 -159 86q-57 0 -97 -28q-41 -29 -41 -84q3 -49 26.5 -72t90.5 -56l74 -36 q81 -38 116.5 -78t35.5 -103q0 -77 -58.5 -126t-146.5 -49q-74 0 -136 37t-101 103zM444 724h-42l-119 129l-120 -129h-41l146 186h29z"></glyph><glyph glyph-name="scircumflex" unicode="ŝ" d="M46 90l35 33q68 -86 151 -86q47 0 77.5 22.5t30.5 62.5q-3 37 -22.5 54t-76.5 43l-44 19q-61 27 -90 55.5t-29 73.5q0 57 45 92q44 34 109 34q97 0 156 -77l-33 -32q-56 62 -126 62q-43 0 -70.5 -20t-27.5 -56q0 -29 19.5 -47t71.5 -40l45 -20q65 -29 95 -60t30 -79 q0 -64 -47 -99t-114 -35q-117 0 -185 100zM381 564h-41l-109 152l-109 -152h-42l136 216h30z"></glyph><glyph glyph-name="Scedilla" unicode="Ş" d="M46 130l39 29q77 -120 199 -120q67 0 108.5 34t41.5 91q-2 50 -26.5 75t-95.5 61l-75 36q-73 33 -108 69t-38 102q0 74 55.5 118.5t136.5 44.5q62 0 113.5 -28t84.5 -77l-39 -29q-61 86 -159 86q-57 0 -97 -28q-41 -29 -41 -84q3 -49 26.5 -72t90.5 -56l74 -36 q81 -38 116.5 -78t35.5 -103q0 -77 -58.5 -126t-146.5 -49q-74 0 -136 37t-101 103zM168 -180v39q29 -7 60 -7q36 0 58 18.5t22 53.5q0 43 -43 80l19 15q71 -33 71 -101q0 -47 -33 -77.5t-87 -30.5q-34 0 -67 10z"></glyph><glyph glyph-name="scedilla" unicode="ş" d="M46 90l35 33q68 -86 151 -86q47 0 77.5 22.5t30.5 62.5q-3 37 -22.5 54t-76.5 43l-44 19q-61 27 -90 55.5t-29 73.5q0 57 45 92q44 34 109 34q97 0 156 -77l-33 -32q-56 62 -126 62q-43 0 -70.5 -20t-27.5 -56q0 -29 19.5 -47t71.5 -40l45 -20q65 -29 95 -60t30 -79 q0 -64 -47 -99t-114 -35q-117 0 -185 100zM121 -180v39q29 -7 60 -7q36 0 58 18.5t22 53.5q0 43 -43 80l19 15q71 -33 71 -101q0 -47 -33 -77.5t-87 -30.5q-34 0 -67 10z"></glyph><glyph glyph-name="Scaron" unicode="Š" d="M46 130l39 29q77 -120 199 -120q67 0 108.5 34t41.5 91q-2 50 -26.5 75t-95.5 61l-75 36q-73 33 -108 69t-38 102q0 74 55.5 118.5t136.5 44.5q62 0 113.5 -28t84.5 -77l-39 -29q-61 86 -159 86q-57 0 -97 -28q-41 -29 -41 -84q3 -49 26.5 -72t90.5 -56l74 -36 q81 -38 116.5 -78t35.5 -103q0 -77 -58.5 -126t-146.5 -49q-74 0 -136 37t-101 103zM402 910h42l-147 -186h-29l-146 186h41l120 -129z"></glyph><glyph glyph-name="scaron" unicode="š" d="M46 90l35 33q68 -86 151 -86q47 0 77.5 22.5t30.5 62.5q-3 37 -22.5 54t-76.5 43l-44 19q-61 27 -90 55.5t-29 73.5q0 57 45 92q44 34 109 34q97 0 156 -77l-33 -32q-56 62 -126 62q-43 0 -70.5 -20t-27.5 -56q0 -29 19.5 -47t71.5 -40l45 -20q65 -29 95 -60t30 -79 q0 -64 -47 -99t-114 -35q-117 0 -185 100zM340 780h41l-135 -216h-30l-136 216h42l109 -152z"></glyph><glyph glyph-name="uni0162" unicode="Ţ" d="M265 0v613h-241v47h535v-47h-242v-613h-52zM173 -180v39q29 -7 60 -7q36 0 58 18.5t22 53.5q0 43 -43 80l19 15q71 -33 71 -101q0 -47 -33 -77.5t-87 -30.5q-34 0 -67 10z"></glyph><glyph glyph-name="uni0163" unicode="ţ" d="M335 44v-44q-36 -10 -75 -10q-70 0 -109 36t-39 109v302h-84v46h84v137h51v-137h156v-46h-156v-300q0 -101 105 -101q27 0 67 8zM96 -180v39q29 -7 60 -7q36 0 58 18.5t22 53.5q0 43 -43 80l19 15q71 -33 71 -101q0 -47 -33 -77.5t-87 -30.5q-34 0 -67 10z"></glyph><glyph glyph-name="Tcaron" unicode="Ť" d="M265 0v613h-241v47h535v-47h-242v-613h-52zM411 910h42l-147 -186h-29l-146 186h41l120 -129z"></glyph><glyph glyph-name="tcaron" unicode="ť" d="M335 44v-44q-36 -10 -75 -10q-70 0 -109 36t-39 109v302h-84v46h84v137h51v-137h156v-46h-156v-300q0 -101 105 -101q27 0 67 8zM256 540l17 210h57l-35 -210h-39z"></glyph><glyph glyph-name="Tbar" unicode="Ŧ" d="M265 0v275h-203v44h203v294h-241v47h535v-47h-242v-294h204v-44h-204v-275h-52z"></glyph><glyph glyph-name="tbar" unicode="ŧ" d="M344 44v-44q-36 -10 -75 -10q-69 0 -108 36t-39 109v94h-85v44h85v165h-85v45h85v137h50v-137h156v-45h-156v-165h156v-44h-156v-92q0 -101 104 -101q28 0 68 8z"></glyph><glyph glyph-name="Utilde" unicode="Ũ" d="M88 256v404h52v-406q0 -101 55 -158t147 -57q91 0 146 57t55 158v406h52v-404q0 -124 -69 -195t-184 -71q-116 0 -185 71t-69 195zM350 776l-36 23q-32 21 -47 21t-24 -11.5t-9 -30.5v-19h-45q-1 4 -1 22q0 37 20 61.5t53 24.5q30 0 70 -27l37 -24q35 -21 48 -21 q33 0 33 42v20h44q1 -5 1 -22q0 -38 -20 -62t-52 -24q-29 0 -72 27z"></glyph><glyph glyph-name="utilde" unicode="ũ" d="M86 183v300h50v-302q0 -65 39.5 -104.5t100.5 -39.5q60 0 99.5 39.5t39.5 104.5v302h50v-300q0 -86 -54 -139.5t-135 -53.5q-82 0 -136 53.5t-54 139.5zM279 633l-25 25q-24 24 -43 24q-31 0 -31 -45v-20h-44q-1 5 -1 22q0 40 19 65t53 25t64 -30l25 -25q24 -24 43 -24 q32 0 32 46v19h44q1 -5 1 -22q0 -39 -19 -64.5t-53 -25.5q-35 0 -65 30z"></glyph><glyph glyph-name="Umacron" unicode="Ū" d="M88 256v404h52v-406q0 -101 55 -158t147 -57q91 0 146 57t55 158v406h52v-404q0 -124 -69 -195t-184 -71q-116 0 -185 71t-69 195zM200 777v43h282v-43h-282z"></glyph><glyph glyph-name="umacron" unicode="ū" d="M86 183v300h50v-302q0 -65 39.5 -104.5t100.5 -39.5q60 0 99.5 39.5t39.5 104.5v302h50v-300q0 -86 -54 -139.5t-135 -53.5q-82 0 -136 53.5t-54 139.5zM144 648v43h262v-43h-262z"></glyph><glyph glyph-name="Ubreve" unicode="Ŭ" d="M88 256v404h52v-406q0 -101 55 -158t147 -57q91 0 146 57t55 158v406h52v-404q0 -124 -69 -195t-184 -71q-116 0 -185 71t-69 195zM199 880v30h44v-29q0 -50 26 -79.5t72 -29.5t72 29t26 80v29h44v-30q0 -68 -39 -109t-103 -41q-65 0 -103.5 40.5t-38.5 109.5z"></glyph><glyph glyph-name="ubreve" unicode="ŭ" d="M86 183v300h50v-302q0 -65 39.5 -104.5t100.5 -39.5q60 0 99.5 39.5t39.5 104.5v302h50v-300q0 -86 -54 -139.5t-135 -53.5q-82 0 -136 53.5t-54 139.5zM133 724v33h44v-31q0 -51 26 -80.5t72 -29.5t72 29.5t26 80.5v31h44v-33q0 -67 -39 -108.5t-103 -41.5t-103 41 t-39 109z"></glyph><glyph glyph-name="Uring" unicode="Ů" d="M88 256v404h52v-406q0 -101 55 -158t147 -57q91 0 146 57t55 158v406h52v-404q0 -124 -69 -195t-184 -71q-116 0 -185 71t-69 195zM237 810q0 43 30 72.5t74 29.5q43 0 73 -29.5t30 -72.5t-30 -72.5t-73 -29.5q-44 0 -74 29.5t-30 72.5zM401 810q0 26 -17 43.5t-43 17.5 t-43 -17.5t-17 -43.5t17 -43.5t43 -17.5q25 0 42.5 17.5t17.5 43.5z"></glyph><glyph glyph-name="uring" unicode="ů" d="M86 183v300h50v-302q0 -65 39.5 -104.5t100.5 -39.5q60 0 99.5 39.5t39.5 104.5v302h50v-300q0 -86 -54 -139.5t-135 -53.5q-82 0 -136 53.5t-54 139.5zM171 667q0 43 30 72.5t74 29.5q43 0 73 -29.5t30 -72.5t-30 -72.5t-73 -29.5q-44 0 -74 29.5t-30 72.5zM335 667 q0 26 -17.5 43.5t-42.5 17.5q-26 0 -43 -17.5t-17 -43.5t17 -43.5t43 -17.5t43 17.5t17 43.5z"></glyph><glyph glyph-name="Uhungarumlaut" unicode="Ű" d="M88 256v404h52v-406q0 -101 55 -158t147 -57q91 0 146 57t55 158v406h52v-404q0 -124 -69 -195t-184 -71q-116 0 -185 71t-69 195zM204 724l92 186h57v-9l-110 -177h-39zM415 724l91 186h57v-9l-110 -177h-38z"></glyph><glyph glyph-name="uhungarumlaut" unicode="ű" d="M86 183v300h50v-302q0 -65 39.5 -104.5t100.5 -39.5q60 0 99.5 39.5t39.5 104.5v302h50v-300q0 -86 -54 -139.5t-135 -53.5q-82 0 -136 53.5t-54 139.5zM156 564l92 216h57v-9l-110 -207h-39zM347 564l91 216h57v-9l-110 -207h-38z"></glyph><glyph glyph-name="Uogonek" unicode="Ų" d="M88 256v404h52v-406q0 -101 55 -158t147 -57q91 0 146 57t55 158v406h52v-404q0 -124 -69 -195t-184 -71q-116 0 -185 71t-69 195zM348 -110q3 40 22 66t116 124h55l-95 -103q-46 -49 -46 -80q0 -21 15 -33t42 -12q23 0 57 8v-40q-27 -10 -65 -10q-45 0 -73 22t-28 58z "></glyph><glyph glyph-name="uogonek" unicode="ų" d="M415 483h50v-300q0 -43 -12 -75q-11 -29 -29.5 -50.5t-62.5 -60.5l-19 -17q-32 -29 -44 -46t-12 -37q0 -46 58 -46q26 0 58 8v-38q-33 -11 -68 -11q-44 0 -70.5 20t-26.5 58q0 53 66 104q-24 -2 -27 -2q-82 0 -136 53.5t-54 139.5v300h50v-302q0 -65 39.5 -104.5 t100.5 -39.5q60 0 99.5 39.5t39.5 104.5v302z"></glyph><glyph glyph-name="Wcircumflex" unicode="Ŵ" d="M966 660h55l-244 -670h-21l-220 577l-220 -577h-21l-244 670h56l200 -563l219 573h20l220 -573zM698 724h-42l-119 129l-120 -129h-41l146 186h29z"></glyph><glyph glyph-name="wcircumflex" unicode="ŵ" d="M759 483h54l-194 -493h-21l-176 407l-175 -407h-20l-195 493h54l152 -401l174 411h21l175 -409zM572 564h-41l-109 152l-109 -152h-42l136 216h30z"></glyph><glyph glyph-name="Ycircumflex" unicode="Ŷ" d="M562 660l-230 -381v-279h-52v281l-229 379h57l199 -331l198 331h57zM466 724h-42l-119 129l-120 -129h-41l146 186h29z"></glyph><glyph glyph-name="ycircumflex" unicode="ŷ" d="M441 483h54l-241 -562q-26 -59 -62.5 -85t-88.5 -26q-35 0 -68 9v44q29 -7 61 -7q78 0 112 83l31 71l-207 473h55l179 -416zM412 564h-41l-109 152l-109 -152h-42l136 216h30z"></glyph><glyph glyph-name="Ydieresis" unicode="Ÿ" d="M562 660l-230 -381v-279h-52v281l-229 379h57l199 -331l198 331h57zM148 808q0 18 13 30t31 12t30.5 -12t12.5 -30t-12.5 -30.5t-30.5 -12.5t-31 12.5t-13 30.5zM374 807q0 18 13 30.5t31 12.5t30.5 -12.5t12.5 -30.5q0 -17 -12.5 -29.5t-30.5 -12.5t-31 12.5t-13 29.5z "></glyph><glyph glyph-name="Zacute" unicode="Ź" d="M118 47h434v-47h-514v17l432 596h-389v47h470v-17zM278 724l91 186h62v-9l-113 -177h-40z"></glyph><glyph glyph-name="zacute" unicode="ź" d="M110 46h308v-46h-385v17l303 420h-280v46h357v-17zM216 564l91 216h62v-9l-113 -207h-40z"></glyph><glyph glyph-name="Zdotaccent" unicode="Ż" d="M118 47h434v-47h-514v17l432 596h-389v47h470v-17zM255 808q0 18 12.5 30.5t31.5 12.5q18 0 31 -12.5t13 -30.5q0 -19 -13 -31.5t-31 -12.5q-19 0 -31.5 12.5t-12.5 31.5z"></glyph><glyph glyph-name="zdotaccent" unicode="ż" d="M110 46h308v-46h-385v17l303 420h-280v46h357v-17zM191 669q0 18 12.5 31t31.5 13q18 0 31 -13t13 -31t-13 -31t-31 -13q-19 0 -31.5 13t-12.5 31z"></glyph><glyph glyph-name="Zcaron" unicode="Ž" d="M118 47h434v-47h-514v17l432 596h-389v47h470v-17zM418 910h42l-147 -186h-29l-146 186h41l120 -129z"></glyph><glyph glyph-name="zcaron" unicode="ž" d="M110 46h308v-46h-385v17l303 420h-280v46h357v-17zM344 780h41l-135 -216h-30l-136 216h42l109 -152z"></glyph><glyph glyph-name="uni018F" unicode="Ə" d="M677 332q3 -141 -92 -242.5t-228 -99.5q-125 -2 -215.5 81t-88.5 211q0 26 5 59h565q-3 121 -78 201t-186 80q-73 0 -135.5 -30.5t-102.5 -84.5l-36 31q46 62 118 97t157 35q133 3 226 -97.5t91 -240.5zM621 294h-515q-9 -112 68 -184.5t185 -70.5q104 0 177 72t85 183z "></glyph><glyph glyph-name="florin" unicode="ƒ" d="M430 664v-42q-10 0 -20.5 0.5t-16 1t-7.5 0.5q-51 0 -77 -23t-33 -78l-16 -129h111v-46h-117l-41 -336q-18 -145 -152 -145q-28 0 -52 6v43q27 -3 44 -3q52 0 77.5 24t32.5 77l41 334h-100v46h106l16 131q18 145 152 145q28 0 52 -6z"></glyph><glyph glyph-name="uni01D4" unicode="ǔ" d="M86 183v300h50v-302q0 -65 39.5 -104.5t100.5 -39.5q60 0 99.5 39.5t39.5 104.5v302h50v-300q0 -86 -54 -139.5t-135 -53.5q-82 0 -136 53.5t-54 139.5zM384 780h41l-135 -216h-30l-136 216h42l109 -152z"></glyph><glyph glyph-name="AEacute" unicode="Ǽ" d="M520 47h247v-47h-293l-27 158h-291l-83 -158h-56l344 660h394v-47h-334l41 -233h213v-47h-205zM374 583l-194 -378h259zM383 724l91 186h62v-9l-113 -177h-40z"></glyph><glyph glyph-name="aeacute" unicode="ǽ" d="M842 221h-403q6 -80 62 -132t136 -52q96 0 160 76l33 -33q-76 -90 -194 -90q-71 0 -129 35.5t-89 95.5q-21 -60 -76 -95.5t-125 -35.5q-74 0 -121 37t-47 101q0 63 46 100t122 37h168v40q0 68 -35.5 104.5t-96.5 36.5q-85 0 -147 -81l-35 28q70 100 185 100 q63 0 107 -30.5t61 -87.5q33 55 87.5 86.5t118.5 31.5q91 0 153.5 -60t62.5 -156q0 -36 -4 -56zM439 265h355q4 80 -45 131t-123 51t-126.5 -51.5t-60.5 -130.5zM385 180v41h-163q-121 0 -121 -88q0 -47 34 -73t87 -26q66 0 114.5 42.5t48.5 103.5zM410 564l91 216h62v-9 l-113 -207h-40z"></glyph><glyph glyph-name="Oslashacute" unicode="Ǿ" d="M735 641l-87 -87q82 -95 82 -224q3 -140 -99 -241.5t-240 -98.5q-129 0 -223 83l-87 -87l-33 33l87 87q-82 95 -82 224q-3 141 98 241.5t240 98.5q130 0 224 -83l87 87zM106 331q0 -109 64 -190l411 411q-80 71 -189 71q-120 2 -204 -84.5t-82 -207.5zM676 331 q0 106 -64 188l-410 -411q77 -71 190 -71q120 0 202 85.5t82 208.5zM371 724l91 186h62v-9l-113 -177h-40z"></glyph><glyph glyph-name="oslashacute" unicode="ǿ" d="M567 464l-62 -62q57 -72 57 -161q2 -101 -74 -177t-177 -74q-91 0 -160 58l-61 -62l-33 33l62 61q-57 70 -57 161q-2 103 73.5 178.5t176.5 73.5q90 0 160 -59l62 62zM112 241q0 -72 41 -128l288 288q-53 47 -129 47q-85 0 -142.5 -60t-57.5 -147zM512 241q0 72 -41 128 l-288 -288q55 -46 128 -46q84 0 142.5 60t58.5 146zM294 564l91 216h62v-9l-113 -207h-40z"></glyph><glyph glyph-name="uni0218" unicode="Ș" d="M46 130l39 29q77 -120 199 -120q67 0 108.5 34t41.5 91q-2 50 -26.5 75t-95.5 61l-75 36q-73 33 -108 69t-38 102q0 74 55.5 118.5t136.5 44.5q62 0 113.5 -28t84.5 -77l-39 -29q-61 86 -159 86q-57 0 -97 -28q-41 -29 -41 -84q3 -49 26.5 -72t90.5 -56l74 -36 q81 -38 116.5 -78t35.5 -103q0 -77 -58.5 -126t-146.5 -49q-74 0 -136 37t-101 103zM248 -220l12 169h54l-25 -169h-41z"></glyph><glyph glyph-name="uni0219" unicode="ș" d="M46 90l35 33q68 -86 151 -86q47 0 77.5 22.5t30.5 62.5q-3 37 -22.5 54t-76.5 43l-44 19q-61 27 -90 55.5t-29 73.5q0 57 45 92q44 34 109 34q97 0 156 -77l-33 -32q-56 62 -126 62q-43 0 -70.5 -20t-27.5 -56q0 -29 19.5 -47t71.5 -40l45 -20q65 -29 95 -60t30 -79 q0 -64 -47 -99t-114 -35q-117 0 -185 100zM201 -220l12 169h54l-25 -169h-41z"></glyph><glyph glyph-name="uni021A" unicode="Ț" d="M265 0v613h-241v47h535v-47h-242v-613h-52zM252 -220l12 169h54l-25 -169h-41z"></glyph><glyph glyph-name="uni021B" unicode="ț" d="M335 44v-44q-36 -10 -75 -10q-70 0 -109 36t-39 109v302h-84v46h84v137h51v-137h156v-46h-156v-300q0 -101 105 -101q27 0 67 8zM175 -220l12 169h54l-25 -169h-41z"></glyph><glyph glyph-name="uni0237" unicode="ȷ" d="M-58 -184v44q20 -4 46 -4q52 0 78.5 23.5t26.5 77.5v526h50v-528q0 -73 -38.5 -109t-107.5 -36q-29 0 -55 6z"></glyph><glyph glyph-name="uni0259" unicode="ə" d="M516 242q0 -107 -67.5 -179.5t-170.5 -72.5q-94 0 -158 60t-64 155q0 20 4 48h404q-3 85 -57 139t-136 54q-103 0 -167 -76l-32 33q76 90 200 90q105 0 174.5 -72.5t69.5 -178.5zM462 208h-354q-1 -77 48.5 -124.5t123.5 -47.5q72 0 122 48t60 124z"></glyph><glyph glyph-name="circumflex" unicode="ˆ" d="M450 564h-41l-109 152l-109 -152h-42l136 216h30z"></glyph><glyph glyph-name="caron" unicode="ˇ" d="M409 780h41l-135 -216h-30l-136 216h42l109 -152z"></glyph><glyph glyph-name="breve" unicode="˘" d="M158 724v33h44v-31q0 -51 26 -80.5t72 -29.5t72 29.5t26 80.5v31h44v-33q0 -67 -39 -108.5t-103 -41.5t-103 41t-39 109z"></glyph><glyph glyph-name="dotaccent" unicode="˙" d="M256 669q0 18 12.5 31t31.5 13q18 0 31 -13t13 -31t-13 -31t-31 -13q-19 0 -31.5 13t-12.5 31z"></glyph><glyph glyph-name="ring" unicode="˚" d="M196 667q0 43 30 72.5t74 29.5q43 0 73 -29.5t30 -72.5t-30 -72.5t-73 -29.5q-44 0 -74 29.5t-30 72.5zM360 667q0 26 -17.5 43.5t-42.5 17.5q-26 0 -43 -17.5t-17 -43.5t17 -43.5t43 -17.5t43 17.5t17 43.5z"></glyph><glyph glyph-name="ogonek" unicode="˛" d="M217 -110q0 35 32 64q33 30 115 73l19 -27l-54 -35q-35 -23 -48 -36.5t-13 -31.5q0 -21 15.5 -33t41.5 -12q18 0 58 8v-40q-34 -10 -66 -10q-44 0 -72 22t-28 58z"></glyph><glyph glyph-name="tilde" unicode="˜" d="M304 633l-25 25q-24 24 -43 24q-31 0 -31 -45v-20h-44q-1 5 -1 22q0 40 19 65t53 25t64 -30l25 -25q24 -24 43 -24q32 0 32 46v19h44q1 -5 1 -22q0 -39 -19 -64.5t-53 -25.5q-35 0 -65 30z"></glyph><glyph glyph-name="hungarumlaut" unicode="˝" d="M130 564l92 216h57v-9l-110 -207h-39zM321 564l91 216h57v-9l-110 -207h-38z"></glyph><glyph glyph-name="gravecomb" unicode="̀" d="M-214 564l-113 207v9h62l91 -216h-40z"></glyph><glyph glyph-name="acutecomb" unicode="́" d="M-327 564l91 216h62v-9l-113 -207h-40z"></glyph><glyph glyph-name="uni0302" unicode="̂" d="M-100 564h-41l-109 152l-109 -152h-42l136 216h30z"></glyph><glyph glyph-name="tildecomb" unicode="̃" d="M-246 633l-25 25q-24 24 -43 24q-31 0 -31 -45v-20h-44q-1 5 -1 22q0 40 19 65t53 25t64 -30l25 -25q24 -24 43 -24q32 0 32 46v19h44q1 -5 1 -22q0 -39 -19 -64.5t-53 -25.5q-35 0 -65 30z"></glyph><glyph glyph-name="uni0304" unicode="̄" d="M-381 648v43h262v-43h-262z"></glyph><glyph glyph-name="uni0306" unicode="̆" d="M-392 724v33h44v-31q0 -51 26 -80.5t72 -29.5t72 29.5t26 80.5v31h44v-33q0 -67 -39 -108.5t-103 -41.5t-103 41t-39 109z"></glyph><glyph glyph-name="uni0307" unicode="̇" d="M-294 669q0 18 12.5 31t31.5 13q18 0 31 -13t13 -31t-13 -31t-31 -13q-19 0 -31.5 13t-12.5 31z"></glyph><glyph glyph-name="uni0308" unicode="̈" d="M-394 669q0 18 13 30.5t30 12.5q18 0 31 -12.5t13 -30.5q0 -17 -13 -29.5t-31 -12.5q-17 0 -30 12.5t-13 29.5zM-194 669q0 18 13 30.5t31 12.5t30.5 -12.5t12.5 -30.5q0 -17 -12.5 -29.5t-30.5 -12.5t-31 12.5t-13 29.5z"></glyph><glyph glyph-name="uni030A" unicode="̊" d="M-354 667q0 43 30 72.5t74 29.5q43 0 73 -29.5t30 -72.5t-30 -72.5t-73 -29.5q-44 0 -74 29.5t-30 72.5zM-190 667q0 26 -17.5 43.5t-42.5 17.5q-26 0 -43 -17.5t-17 -43.5t17 -43.5t43 -17.5t43 17.5t17 43.5z"></glyph><glyph glyph-name="uni030B" unicode="̋" d="M-420 564l92 216h57v-9l-110 -207h-39zM-229 564l91 216h57v-9l-110 -207h-38z"></glyph><glyph glyph-name="uni030C" unicode="̌" d="M-141 780h41l-135 -216h-30l-136 216h42l109 -152z"></glyph><glyph glyph-name="uni0326" unicode="̦" d="M-283 -220l12 169h54l-25 -169h-41z"></glyph><glyph glyph-name="uni0327" unicode="̧" d="M-344 -180v39q29 -7 60 -7q36 0 58 18.5t22 53.5q0 43 -43 80l19 15q71 -33 71 -101q0 -47 -33 -77.5t-87 -30.5q-34 0 -67 10z"></glyph><glyph glyph-name="uni0328" unicode="̨" d="M-333 -110q0 35 32 64q33 30 115 73l19 -27l-54 -35q-35 -23 -48 -36.5t-13 -31.5q0 -21 15.5 -33t41.5 -12q18 0 58 8v-40q-34 -10 -66 -10q-44 0 -72 22t-28 58z"></glyph><glyph glyph-name="tonos" unicode="΄" d="M201 564l35 216h62v-9l-56 -207h-41z"></glyph><glyph glyph-name="dieresistonos" unicode="΅" d="M212 564l28 216h62v-9l-49 -207h-41zM73 669q0 18 13 30.5t30 12.5q18 0 30.5 -12.5t12.5 -30.5q0 -17 -12.5 -29.5t-30.5 -12.5q-17 0 -30 12.5t-13 29.5zM340 669q0 18 13 30.5t30 12.5q18 0 31 -12.5t13 -30.5q0 -17 -13 -29.5t-31 -12.5q-17 0 -30 12.5t-13 29.5z "></glyph><glyph glyph-name="Alphatonos" unicode="Ά" d="M570 0l-65 157h-347l-65 -157h-54l283 670h21l282 -670h-55zM332 577l-154 -373h307zM61 450l17 210h57l-35 -210h-39z"></glyph><glyph glyph-name="anoteleia" unicode="·" d="M91 310q0 22 14 36t34 14q22 0 36 -13.5t14 -36.5q0 -21 -14.5 -34.5t-35.5 -13.5q-19 0 -33.5 14t-14.5 34z"></glyph><glyph glyph-name="Epsilontonos" unicode="Έ" d="M98 0v660h413v-47h-361v-233h281v-47h-281v-286h373v-47h-425zM-74 450l17 210h57l-35 -210h-39z"></glyph><glyph glyph-name="Etatonos" unicode="Ή" d="M98 0v660h52v-280h406v280h52v-660h-52v333h-406v-333h-52zM-74 450l17 210h57l-35 -210h-39z"></glyph><glyph glyph-name="Iotatonos" unicode="Ί" d="M98 0v660h52v-660h-52zM-74 450l17 210h57l-35 -210h-39z"></glyph><glyph glyph-name="Omicrontonos" unicode="Ό" d="M53 330q-3 141 98 241.5t240 98.5q138 2 240 -99t99 -241q3 -140 -99 -241.5t-240 -98.5q-139 -3 -240 98.5t-98 241.5zM675 331q2 121 -81.5 207t-201.5 84q-119 2 -202.5 -84t-81.5 -207q-2 -122 81.5 -208t202.5 -84q118 -2 201.5 84.5t81.5 207.5zM-37 450l17 210h57 l-35 -210h-39z"></glyph><glyph glyph-name="Upsilontonos" unicode="Ύ" d="M562 660l-230 -381v-279h-52v281l-229 379h57l199 -331l198 331h57zM-95 450l17 210h57l-35 -210h-39z"></glyph><glyph glyph-name="Omegatonos" unicode="Ώ" d="M551 47h174v-47h-261v46q216 104 216 294q0 121 -81 201.5t-203 80.5t-202.5 -80t-80.5 -201q0 -192 216 -295v-46h-261v47h171q-181 114 -181 294q-3 137 96.5 234.5t241.5 94.5q140 3 240.5 -94.5t98.5 -234.5q0 -176 -184 -294zM-37 450l17 210h57l-35 -210h-39z"></glyph><glyph glyph-name="iotadieresistonos" unicode="ΐ" d="M89 133v350h51v-346q0 -52 20.5 -76.5t64.5 -24.5q24 0 67 8v-44q-36 -10 -75 -10q-62 0 -95 36.5t-33 106.5zM80 564l28 216h62v-9l-49 -207h-41zM-59 669q0 18 13 30.5t30 12.5q18 0 30.5 -12.5t12.5 -30.5q0 -17 -12.5 -29.5t-30.5 -12.5q-17 0 -30 12.5t-13 29.5z M208 669q0 18 13 30.5t30 12.5q18 0 31 -12.5t13 -30.5q0 -17 -13 -29.5t-31 -12.5q-17 0 -30 12.5t-13 29.5z"></glyph><glyph glyph-name="Alpha" unicode="Α" d="M570 0l-65 157h-347l-65 -157h-54l283 670h21l282 -670h-55zM332 577l-154 -373h307z"></glyph><glyph glyph-name="Beta" unicode="Β" d="M565 188q0 -83 -55 -135.5t-150 -52.5h-262v660h224q82 0 130 -44.5t48 -116.5q0 -91 -76 -134q66 -16 103.5 -63t37.5 -114zM317 614l-167 -1v-234h167q62 0 95.5 32t33.5 85q0 54 -33 86t-96 32zM512 189q0 64 -41.5 103.5t-115.5 39.5h-205v-285h205q74 0 115.5 39 t41.5 103z"></glyph><glyph glyph-name="Gamma" unicode="Γ" d="M98 0v660h377v-47h-325v-613h-52z"></glyph><glyph glyph-name="uni0394" unicode="Δ" d="M343 670l275 -653v-17h-572v17l276 653h21zM332 573l-219 -526h438z"></glyph><glyph glyph-name="Epsilon" unicode="Ε" d="M98 0v660h413v-47h-361v-233h281v-47h-281v-286h373v-47h-425z"></glyph><glyph glyph-name="Zeta" unicode="Ζ" d="M118 47h434v-47h-514v17l432 596h-389v47h470v-17z"></glyph><glyph glyph-name="Eta" unicode="Η" d="M98 0v660h52v-280h406v280h52v-660h-52v333h-406v-333h-52z"></glyph><glyph glyph-name="Theta" unicode="Θ" d="M53 330q-3 141 98 241.5t240 98.5q138 2 240 -99t99 -241q3 -140 -99 -241.5t-240 -98.5q-139 -3 -240 98.5t-98 241.5zM677 331q2 121 -82.5 207.5t-203.5 84.5q-120 2 -203.5 -84t-81.5 -208q-2 -123 81.5 -209.5t203.5 -84.5q119 -2 203.5 85t82.5 209zM209 303v47 h359v-47h-359z"></glyph><glyph glyph-name="Iota" unicode="Ι" d="M98 0v660h52v-660h-52z"></glyph><glyph glyph-name="Kappa" unicode="Κ" d="M98 0v660h52v-660h-52zM233 356l344 -356h-67l-346 357l320 303h69z"></glyph><glyph glyph-name="Lambda" unicode="Λ" d="M625 0h-55l-238 573l-239 -573h-54l283 670h21z"></glyph><glyph glyph-name="Mu" unicode="Μ" d="M667 670h20v-670h-52v536l-232 -330h-20l-233 330v-536h-52v670h20l275 -392z"></glyph><glyph glyph-name="Nu" unicode="Ν" d="M556 660h52v-670h-21l-437 559v-549h-52v670h20l438 -563v553z"></glyph><glyph glyph-name="Xi" unicode="Ξ" d="M40 613v47h527v-47h-527zM115 310v47h377v-47h-377zM40 0v47h527v-47h-527z"></glyph><glyph glyph-name="Omicron" unicode="Ο" d="M53 330q-3 141 98 241.5t240 98.5q138 2 240 -99t99 -241q3 -140 -99 -241.5t-240 -98.5q-139 -3 -240 98.5t-98 241.5zM675 331q2 121 -81.5 207t-201.5 84q-119 2 -202.5 -84t-81.5 -207q-2 -122 81.5 -208t202.5 -84q118 -2 201.5 84.5t81.5 207.5z"></glyph><glyph glyph-name="Pi" unicode="Π" d="M98 0v660h482v-660h-52v613h-378v-613h-52z"></glyph><glyph glyph-name="Rho" unicode="Ρ" d="M98 0v660h224q91 0 145.5 -51t54.5 -130q0 -81 -54 -132t-146 -51h-172v-296h-52zM150 343h170q70 0 109 37t39 98t-39 98t-109 37h-170v-270z"></glyph><glyph glyph-name="Sigma" unicode="Σ" d="M140 47h376v-47h-457v17l248 321l-248 305v17h445v-47h-361l217 -267v-14z"></glyph><glyph glyph-name="Tau" unicode="Τ" d="M265 0v613h-241v47h535v-47h-242v-613h-52z"></glyph><glyph glyph-name="Upsilon" unicode="Υ" d="M562 660l-230 -381v-279h-52v281l-229 379h57l199 -331l198 331h57z"></glyph><glyph glyph-name="Phi" unicode="Φ" d="M426 25v-65h-52v65q-141 0 -231 85t-90 218q0 135 89.5 220.5t231.5 85.5v65h52v-65q143 0 231.5 -85.5t88.5 -220.5q0 -133 -89.5 -218t-230.5 -85zM374 73v513q-121 0 -193.5 -71.5t-72.5 -187.5q0 -113 73.5 -183.5t192.5 -70.5zM692 327q0 116 -73 187.5t-193 71.5 v-513q119 0 192.5 70.5t73.5 183.5z"></glyph><glyph glyph-name="Chi" unicode="Χ" d="M552 0h-60l-198 296l-198 -296h-60l229 340l-213 320h60l183 -279l180 279h60l-210 -322z"></glyph><glyph glyph-name="Psi" unicode="Ψ" d="M340 0v155q-129 7 -203.5 81t-74.5 205v219h52v-221q0 -109 61 -171t165 -64v456h52v-456q104 2 165.5 64t61.5 171v221h52v-219q0 -131 -74.5 -205t-204.5 -81v-155h-52z"></glyph><glyph glyph-name="uni03A9" unicode="Ω" d="M551 47h174v-47h-261v46q216 104 216 294q0 121 -81 201.5t-203 80.5t-202.5 -80t-80.5 -201q0 -192 216 -295v-46h-261v47h171q-181 114 -181 294q-3 137 96.5 234.5t241.5 94.5q140 3 240.5 -94.5t98.5 -234.5q0 -176 -184 -294z"></glyph><glyph glyph-name="Iotadieresis" unicode="Ϊ" d="M98 0v660h52v-660h-52zM-33 808q0 18 13 30t31 12t30.5 -12t12.5 -30t-12.5 -30.5t-30.5 -12.5t-31 12.5t-13 30.5zM193 807q0 18 13 30.5t31 12.5t30.5 -12.5t12.5 -30.5q0 -17 -12.5 -29.5t-30.5 -12.5t-31 12.5t-13 29.5z"></glyph><glyph glyph-name="Upsilondieresis" unicode="Ϋ" d="M562 660l-230 -381v-279h-52v281l-229 379h57l199 -331l198 331h57zM149 808q0 18 13 30t31 12t30.5 -12t12.5 -30t-12.5 -30.5t-30.5 -12.5t-31 12.5t-13 30.5zM375 807q0 18 13 30.5t31 12.5t30.5 -12.5t12.5 -30.5q0 -17 -12.5 -29.5t-30.5 -12.5t-31 12.5t-13 29.5z "></glyph><glyph glyph-name="alphatonos" unicode="ά" d="M621 44v-44q-28 -5 -43 -5q-87 0 -94 99q-27 -48 -79 -76t-113 -28q-101 0 -168.5 73t-67.5 179q0 105 67.5 178t168.5 73q65 0 118.5 -31t78.5 -83l6 104h48l-2 -41q-8 -154 -8 -192v-135q0 -74 58 -74q11 0 30 3zM483 241q0 96 -53.5 150.5t-132.5 54.5 q-82 0 -135.5 -58.5t-53.5 -145.5q0 -88 53.5 -146.5t135.5 -58.5q78 0 132 54.5t54 149.5zM270 564l35 216h62v-9l-56 -207h-41z"></glyph><glyph glyph-name="epsilontonos" unicode="έ" d="M415 114l36 -29q-64 -95 -199 -95q-95 0 -145.5 35.5t-50.5 101.5q0 46 25.5 77.5t72.5 42.5q-79 26 -79 110q0 63 49 99.5t134 36.5q127 0 182 -81l-35 -30q-46 64 -145 64q-63 0 -98 -25t-35 -70q0 -39 30 -61t86 -22h104v-46h-99q-140 0 -140 -90q0 -95 143 -95 q59 0 97 18t67 59zM237 564l35 216h62v-9l-56 -207h-41z"></glyph><glyph glyph-name="etatonos" unicode="ή" d="M492 305v-485h-51v481q0 66 -36.5 105.5t-97.5 39.5q-64 0 -104.5 -41t-40.5 -104v-301h-50v368q0 74 -58 74l-30 -1v42q28 5 44 5q74 0 90 -73q51 78 156 78q81 0 129.5 -51t48.5 -137zM281 564l35 216h62v-9l-56 -207h-41z"></glyph><glyph glyph-name="iotatonos" unicode="ί" d="M89 133v350h51v-346q0 -52 20.5 -76.5t64.5 -24.5q24 0 67 8v-44q-36 -10 -75 -10q-62 0 -95 36.5t-33 106.5zM89 564l35 216h62v-9l-56 -207h-41z"></glyph><glyph glyph-name="upsilondieresistonos" unicode="ΰ" d="M86 192v291h50v-293q0 -69 39.5 -111t104.5 -42t104.5 42t39.5 111v293h50v-291q0 -94 -52.5 -148t-141.5 -54t-141.5 54t-52.5 148zM243 564l28 216h62v-9l-49 -207h-41zM104 669q0 18 13 30.5t30 12.5q18 0 30.5 -12.5t12.5 -30.5q0 -17 -12.5 -29.5t-30.5 -12.5 q-17 0 -30 12.5t-13 29.5zM371 669q0 18 13 30.5t30 12.5q18 0 31 -12.5t13 -30.5q0 -17 -13 -29.5t-31 -12.5q-17 0 -30 12.5t-13 29.5z"></glyph><glyph glyph-name="alpha" unicode="α" d="M621 44v-44q-28 -5 -43 -5q-87 0 -94 99q-27 -48 -79 -76t-113 -28q-101 0 -168.5 73t-67.5 179q0 105 67.5 178t168.5 73q65 0 118.5 -31t78.5 -83l6 104h48l-2 -41q-8 -154 -8 -192v-135q0 -74 58 -74q11 0 30 3zM483 241q0 96 -53.5 150.5t-132.5 54.5 q-82 0 -135.5 -58.5t-53.5 -145.5q0 -88 53.5 -146.5t135.5 -58.5q78 0 132 54.5t54 149.5z"></glyph><glyph glyph-name="beta" unicode="β" d="M544 211q0 -97 -64 -159t-164 -62q-103 0 -173 64v-234h-50v740q0 87 57 144t145 57q82 0 136 -51.5t54 -129.5q0 -55 -26.5 -97t-74.5 -64q75 -20 117.5 -75t42.5 -133zM492 211q0 80 -52 129q-50 49 -135 49h-77v45h62q65 0 104 39t39 103q0 61 -38.5 99t-100.5 38 q-67 0 -109 -43t-42 -112v-448q64 -73 170 -73q79 0 129 48t50 126z"></glyph><glyph glyph-name="gamma" unicode="γ" d="M492 483l-205 -499v-164h-50v166l-205 497h54l176 -433l176 433h54z"></glyph><glyph glyph-name="delta" unicode="δ" d="M543 238q0 -107 -69 -177.5t-175 -70.5q-105 0 -174 69.5t-69 175.5q0 105 69 174.5t173 69.5q26 0 43 -4l-267 258v17h438v-48h-335l250 -241q64 -64 89 -110q27 -49 27 -113zM491 234q0 85 -55 141.5t-138 56.5q-82 0 -136 -56.5t-54 -141.5q0 -86 54 -141.5t137 -55.5 t137.5 56t54.5 141z"></glyph><glyph glyph-name="epsilon" unicode="ε" d="M415 114l36 -29q-64 -95 -199 -95q-95 0 -145.5 35.5t-50.5 101.5q0 46 25.5 77.5t72.5 42.5q-79 26 -79 110q0 63 49 99.5t134 36.5q127 0 182 -81l-35 -30q-46 64 -145 64q-63 0 -98 -25t-35 -70q0 -39 30 -61t86 -22h104v-46h-99q-140 0 -140 -90q0 -95 143 -95 q59 0 97 18t67 59z"></glyph><glyph glyph-name="zeta" unicode="ζ" d="M436 733l-185 -265q-81 -114 -111 -172q-32 -61 -32 -107q0 -56 33.5 -89.5t106.5 -50.5l37 -8q127 -28 127 -136q0 -45 -22 -85h-52q22 40 22 79q0 41 -23 63.5t-75 33.5l-37 8q-169 37 -169 182q0 39 15 78q16 42 46 90q47 74 95 142l143 207h-311v47h392v-17z"></glyph><glyph glyph-name="eta" unicode="η" d="M492 305v-485h-51v481q0 66 -36.5 105.5t-97.5 39.5q-64 0 -104.5 -41t-40.5 -104v-301h-50v368q0 74 -58 74l-30 -1v42q28 5 44 5q74 0 90 -73q51 78 156 78q81 0 129.5 -51t48.5 -137z"></glyph><glyph glyph-name="theta" unicode="θ" d="M549 375q0 -186 -66.5 -285.5t-179.5 -99.5q-112 0 -178.5 100t-66.5 285q0 186 66.5 285.5t178.5 99.5q113 0 179.5 -99.5t66.5 -285.5zM110 401h386q-5 150 -56.5 231t-136.5 81t-136.5 -81t-56.5 -231zM496 354h-386q3 -152 56 -234.5t137 -82.5t137 82.5t56 234.5z "></glyph><glyph glyph-name="iota" unicode="ι" d="M89 133v350h51v-346q0 -52 20.5 -76.5t64.5 -24.5q24 0 67 8v-44q-36 -10 -75 -10q-62 0 -95 36.5t-33 106.5z"></glyph><glyph glyph-name="kappa" unicode="κ" d="M93 0v483h50v-483h-50zM224 261l239 -261h-65l-240 261l226 222h67z"></glyph><glyph glyph-name="lambda" unicode="λ" d="M504 42h24v-42q-13 -4 -34 -4q-62 0 -90 77l-132 360l-193 -433h-54l223 492l-49 137q-18 47 -38.5 66t-57.5 19q-22 0 -42 -4v44q22 6 49 6q48 0 79.5 -26.5t53.5 -85.5l204 -555q11 -28 23.5 -39.5t33.5 -11.5z"></glyph><glyph glyph-name="uni03BC" unicode="μ" d="M560 44v-44q-28 -5 -42 -5q-74 0 -90 70q-48 -75 -144 -75q-93 0 -141 73v-243h-50v663h50v-294q0 -66 39 -109t100 -43t100 43q40 43 40 109v294h50v-364q0 -78 58 -78q10 0 30 3z"></glyph><glyph glyph-name="nu" unicode="ν" d="M441 483h54l-220 -493h-21l-222 493h54l178 -407z"></glyph><glyph glyph-name="xi" unicode="ξ" d="M154 557q0 -59 39.5 -102.5t101.5 -43.5h110v-47h-119q-78 0 -123 -43.5t-45 -118.5q0 -127 157 -155l44 -8q126 -23 126 -134q0 -47 -22 -85h-51q21 44 21 78q0 42 -22.5 65.5t-73.5 31.5l-48 8q-86 13 -134.5 65.5t-48.5 130.5q0 73 37.5 123.5t105.5 70.5 q-51 21 -79 63.5t-28 94.5q0 47 20.5 87.5t58.5 64.5h-112v47h379v-47h-148q-68 0 -107 -42t-39 -104z"></glyph><glyph glyph-name="omicron" unicode="ο" d="M56 242q-2 104 72.5 178.5t177.5 72.5q104 0 177 -73.5t73 -177.5q2 -103 -73 -178.5t-178 -73.5q-102 -2 -176.5 73.5t-72.5 178.5zM504 241q0 87 -57.5 146t-140.5 59q-84 0 -141 -59t-57 -146q0 -86 57 -145t140 -59t141 59.5t58 144.5z"></glyph><glyph glyph-name="pi" unicode="π" d="M109 0v434h-82v49h531v-49h-82v-434h-50v434h-266v-434h-51z"></glyph><glyph glyph-name="rho" unicode="ρ" d="M567 242q0 -106 -69 -179t-168 -73q-63 0 -115 28t-79 76v-274h-50v420q0 112 65.5 182.5t169.5 70.5q106 0 176 -71.5t70 -179.5zM515 241q0 88 -55.5 146.5t-138.5 58.5q-84 0 -135 -56t-51 -148q0 -90 52.5 -147.5t135.5 -57.5q82 0 137 58t55 146z"></glyph><glyph glyph-name="uni03C2" unicode="ς" d="M388 -102q0 40 -21 62t-70 35l-54 13q-90 23 -138.5 83.5t-48.5 150.5q0 109 67 180t170 71q129 0 201 -100l-36 -30q-63 83 -163 83q-81 0 -134 -57t-53 -145q0 -151 160 -192l55 -14q117 -28 117 -133q0 -45 -21 -85h-52q21 40 21 78z"></glyph><glyph glyph-name="sigma" unicode="σ" d="M617 483v-49h-172q49 -30 76.5 -81.5t27.5 -113.5q0 -104 -71.5 -176.5t-175.5 -72.5q-101 -2 -174.5 72.5t-71.5 177.5q-2 101 71.5 173t176.5 70h313zM303 436q-85 0 -140 -55.5t-55 -140.5q0 -86 56 -144.5t138 -58.5q83 0 139 59t56 145q0 85 -55 140t-139 55z"></glyph><glyph glyph-name="tau" unicode="τ" d="M440 434h-199v-297q0 -101 104 -101q28 0 68 8v-44q-36 -10 -75 -10q-71 0 -109 37.5t-38 107.5v299h-172v49h421v-49z"></glyph><glyph glyph-name="upsilon" unicode="υ" d="M86 192v291h50v-293q0 -69 39.5 -111t104.5 -42t104.5 42t39.5 111v293h50v-291q0 -94 -52.5 -148t-141.5 -54t-141.5 54t-52.5 148z"></glyph><glyph glyph-name="phi" unicode="φ" d="M386 -10v-170h-50v170q-123 3 -201.5 72t-78.5 179q0 109 78.5 179t201.5 73v167h50v-167q123 -3 202.5 -73t79.5 -179q0 -111 -79 -179.5t-203 -71.5zM337 35v412q-101 -1 -167 -58q-63 -55 -63 -149q0 -92 63 -148q65 -56 167 -57zM616 240q0 92 -64 148t-167 59v-412 q102 1 167 57q64 55 64 148z"></glyph><glyph glyph-name="chi" unicode="χ" d="M486 -138v-42q-17 -4 -38 -4q-34 0 -56 17t-41 54l-111 229l-149 -296h-56l177 345l-105 228q-13 27 -26 38t-37 11q-20 0 -29 -1v42q17 4 38 4q37 0 57.5 -16t39.5 -56l92 -206l140 274h55l-167 -324l122 -249q14 -28 28.5 -38.5t38.5 -10.5q21 0 27 1z"></glyph><glyph glyph-name="psi" unicode="ψ" d="M332 -180v170q-109 0 -177.5 67.5t-68.5 175.5v250h50v-248q0 -86 55.5 -142t140.5 -56v623h50v-623q85 0 140.5 56t55.5 142v248h50v-250q0 -108 -68.5 -175.5t-177.5 -67.5v-170h-50z"></glyph><glyph glyph-name="omega" unicode="ω" d="M719 229q0 -110 -50 -174.5t-136 -64.5q-108 0 -145 96q-37 -96 -146 -96q-86 0 -136 64.5t-50 174.5q0 194 156 260l20 -45q-124 -60 -124 -215q0 -88 36.5 -140t98.5 -52q55 0 87.5 39t32.5 106v134h49v-134q0 -67 32.5 -106t87.5 -39q61 0 98 52t37 139 q0 156 -123 216l19 45q156 -65 156 -260z"></glyph><glyph glyph-name="iotadieresis" unicode="ϊ" d="M89 133v350h51v-346q0 -52 20.5 -76.5t64.5 -24.5q24 0 67 8v-44q-36 -10 -75 -10q-62 0 -95 36.5t-33 106.5zM-14 669q0 18 13 30.5t30 12.5q18 0 31 -12.5t13 -30.5q0 -17 -13 -29.5t-31 -12.5q-17 0 -30 12.5t-13 29.5zM156 669q0 18 13 30.5t31 12.5t30.5 -12.5 t12.5 -30.5q0 -17 -12.5 -29.5t-30.5 -12.5t-31 12.5t-13 29.5z"></glyph><glyph glyph-name="upsilondieresis" unicode="ϋ" d="M86 192v291h50v-293q0 -69 39.5 -111t104.5 -42t104.5 42t39.5 111v293h50v-291q0 -94 -52.5 -148t-141.5 -54t-141.5 54t-52.5 148zM133 669q0 18 13 30.5t30 12.5q18 0 31 -12.5t13 -30.5q0 -17 -13 -29.5t-31 -12.5q-17 0 -30 12.5t-13 29.5zM333 669q0 18 13 30.5 t31 12.5t30.5 -12.5t12.5 -30.5q0 -17 -12.5 -29.5t-30.5 -12.5t-31 12.5t-13 29.5z"></glyph><glyph glyph-name="omicrontonos" unicode="ό" d="M56 242q-2 104 72.5 178.5t177.5 72.5q104 0 177 -73.5t73 -177.5q2 -103 -73 -178.5t-178 -73.5q-102 -2 -176.5 73.5t-72.5 178.5zM504 241q0 87 -57.5 146t-140.5 59q-84 0 -141 -59t-57 -146q0 -86 57 -145t140 -59t141 59.5t58 144.5zM281 564l35 216h62v-9 l-56 -207h-41z"></glyph><glyph glyph-name="upsilontonos" unicode="ύ" d="M86 192v291h50v-293q0 -69 39.5 -111t104.5 -42t104.5 42t39.5 111v293h50v-291q0 -94 -52.5 -148t-141.5 -54t-141.5 54t-52.5 148zM252 564l35 216h62v-9l-56 -207h-41z"></glyph><glyph glyph-name="omegatonos" unicode="ώ" d="M719 229q0 -110 -50 -174.5t-136 -64.5q-108 0 -145 96q-37 -96 -146 -96q-86 0 -136 64.5t-50 174.5q0 194 156 260l20 -45q-124 -60 -124 -215q0 -88 36.5 -140t98.5 -52q55 0 87.5 39t32.5 106v134h49v-134q0 -67 32.5 -106t87.5 -39q61 0 98 52t37 139 q0 156 -123 216l19 45q156 -65 156 -260zM363 564l35 216h62v-9l-56 -207h-41z"></glyph><glyph glyph-name="uni0400" unicode="Ѐ" d="M98 0v660h413v-47h-361v-233h281v-47h-281v-286h373v-47h-425zM282 724l-113 177v9h62l91 -186h-40z"></glyph><glyph glyph-name="uni0401" unicode="Ё" d="M98 0v660h413v-47h-361v-233h281v-47h-281v-286h373v-47h-425zM145 808q0 18 13 30t31 12t30.5 -12t12.5 -30t-12.5 -30.5t-30.5 -12.5t-31 12.5t-13 30.5zM371 807q0 18 13 30.5t31 12.5t30.5 -12.5t12.5 -30.5q0 -17 -12.5 -29.5t-30.5 -12.5t-31 12.5t-13 29.5z"></glyph><glyph glyph-name="uni0402" unicode="Ђ" d="M468 -10l-9 45q171 24 171 163q0 74 -47.5 114t-129.5 40q-87 0 -160 -33v-319h-52v613h-217v47h521v-47h-252v-247q72 34 162 34q105 0 166.5 -53.5t61.5 -149.5q0 -93 -61 -145t-154 -62z"></glyph><glyph glyph-name="uni0403" unicode="Ѓ" d="M98 0v660h377v-47h-325v-613h-52zM233 724l91 186h62v-9l-113 -177h-40z"></glyph><glyph glyph-name="uni0404" unicode="Є" d="M619 155l39 -31q-45 -63 -115 -98.5t-152 -35.5q-139 -3 -240 98.5t-98 241.5q-3 141 98 241.5t240 98.5q82 0 152 -35.5t115 -98.5l-39 -31q-83 117 -227 117q-113 0 -192.5 -74t-90.5 -186h341v-47h-342q4 -117 86 -197.5t198 -78.5q144 0 227 116z"></glyph><glyph glyph-name="uni0405" unicode="Ѕ" d="M46 130l39 29q77 -120 199 -120q67 0 108.5 34t41.5 91q-2 50 -26.5 75t-95.5 61l-75 36q-73 33 -108 69t-38 102q0 74 55.5 118.5t136.5 44.5q62 0 113.5 -28t84.5 -77l-39 -29q-61 86 -159 86q-57 0 -97 -28q-41 -29 -41 -84q3 -49 26.5 -72t90.5 -56l74 -36 q81 -38 116.5 -78t35.5 -103q0 -77 -58.5 -126t-146.5 -49q-74 0 -136 37t-101 103z"></glyph><glyph glyph-name="uni0406" unicode="І" d="M98 0v660h52v-660h-52z"></glyph><glyph glyph-name="uni0407" unicode="Ї" d="M98 0v660h52v-660h-52zM-33 808q0 18 13 30t31 12t30.5 -12t12.5 -30t-12.5 -30.5t-30.5 -12.5t-31 12.5t-13 30.5zM193 807q0 18 13 30.5t31 12.5t30.5 -12.5t12.5 -30.5q0 -17 -12.5 -29.5t-30.5 -12.5t-31 12.5t-13 29.5z"></glyph><glyph glyph-name="uni0408" unicode="Ј" d="M28 0v46q35 -7 74 -7q58 0 86.5 24.5t28.5 82.5v514h52v-517q0 -76 -42.5 -114.5t-117.5 -38.5q-41 0 -81 10z"></glyph><glyph glyph-name="uni0409" unicode="Љ" d="M918 191q0 -84 -57 -137.5t-152 -53.5h-221v613h-261l-2 -69q-7 -207 -27.5 -325t-58.5 -169.5t-101 -53.5q-19 0 -26 4v47q6 -3 21 -3q69 0 102.5 118t39.5 365l3 133h362v-278h169q96 0 152.5 -53t56.5 -138zM864 191q0 65 -41 104.5t-115 39.5h-168v-288h168 q73 0 114.5 39.5t41.5 104.5z"></glyph><glyph glyph-name="uni040A" unicode="Њ" d="M98 0v660h52v-275h343v275h52v-275h161q101 0 159 -53.5t58 -138.5t-58 -139t-159 -54h-213v338h-343v-338h-52zM545 47h160q76 0 120 40.5t44 104.5q0 65 -44 105.5t-120 40.5h-160v-291z"></glyph><glyph glyph-name="uni040B" unicode="Ћ" d="M687 159v-159h-52v156q0 94 -48.5 145t-133.5 51t-160 -33v-319h-52v613h-217v47h521v-47h-252v-246q75 33 162 33q107 0 169.5 -63.5t62.5 -177.5z"></glyph><glyph glyph-name="uni040C" unicode="Ќ" d="M98 0v660h52v-660h-52zM233 356l344 -356h-67l-346 357l320 303h69zM286 724l91 186h62v-9l-113 -177h-40z"></glyph><glyph glyph-name="uni040D" unicode="Ѝ" d="M597 670h21v-670h-52v563l-448 -573h-20v670h52v-563zM338 724l-113 177v9h62l91 -186h-40z"></glyph><glyph glyph-name="uni040E" unicode="Ў" d="M546 660h54l-238 -531q-33 -75 -71 -106t-98 -31q-26 0 -55 8v47q24 -7 54 -7q43 0 70 20.5t48 68.5l3 7l-262 524h57l233 -464zM180 880v30h45v-29q0 -52 25.5 -81.5t71.5 -29.5t71.5 29.5t25.5 81.5v29h45v-30q0 -69 -38.5 -109.5t-103.5 -40.5t-103.5 40.5 t-38.5 109.5z"></glyph><glyph glyph-name="uni040F" unicode="Џ" d="M598 660v-660h-224v-141h-52v141h-224v660h52v-613h396v613h52z"></glyph><glyph glyph-name="uni0410" unicode="А" d="M570 0l-65 157h-347l-65 -157h-54l283 670h21l282 -670h-55zM332 577l-154 -373h307z"></glyph><glyph glyph-name="uni0411" unicode="Б" d="M98 0v660h374v-47h-322v-235h166q95 0 152 -53t57 -136t-57 -136t-152 -53h-218zM150 47h164q74 0 115.5 39t41.5 103t-41.5 103t-115.5 39h-164v-284z"></glyph><glyph glyph-name="uni0412" unicode="В" d="M565 188q0 -83 -55 -135.5t-150 -52.5h-262v660h224q82 0 130 -44.5t48 -116.5q0 -91 -76 -134q66 -16 103.5 -63t37.5 -114zM317 614l-167 -1v-234h167q62 0 95.5 32t33.5 85q0 54 -33 86t-96 32zM512 189q0 64 -41.5 103.5t-115.5 39.5h-205v-285h205q74 0 115.5 39 t41.5 103z"></glyph><glyph glyph-name="uni0413" unicode="Г" d="M98 0v660h377v-47h-325v-613h-52z"></glyph><glyph glyph-name="uni0414" unicode="Д" d="M554 47h83v-188h-52v141h-523v-141h-52v188h57q52 56 74 165q23 107 28 326l2 122h383v-613zM126 47h376v566h-282l-3 -69q-5 -206 -25 -321q-21 -117 -66 -176z"></glyph><glyph glyph-name="uni0415" unicode="Е" d="M98 0v660h413v-47h-361v-233h281v-47h-281v-286h373v-47h-425z"></glyph><glyph glyph-name="uni0416" unicode="Ж" d="M59 660h70l299 -303l-325 -357h-67l325 356zM443 0v660h52v-660h-52zM577 357l325 -357h-67l-325 357l299 303h69z"></glyph><glyph glyph-name="uni0417" unicode="З" d="M528 189q0 -87 -63.5 -143t-163.5 -56q-170 0 -247 141l38 29q68 -121 208 -121q77 0 125 42q49 42 49 108q0 62 -44 102.5t-120 40.5h-96v47h93q62 0 95.5 32.5t33.5 87.5q0 56 -36.5 89.5t-102.5 33.5q-108 0 -170 -90l-38 29q69 109 208 109q88 0 140.5 -48t52.5 -121 q0 -97 -89 -141q59 -19 93 -65t34 -106z"></glyph><glyph glyph-name="uni0418" unicode="И" d="M597 670h21v-670h-52v563l-448 -573h-20v670h52v-563z"></glyph><glyph glyph-name="uni0419" unicode="Й" d="M597 670h21v-670h-52v563l-448 -573h-20v670h52v-563zM216 880v30h45v-29q0 -52 25.5 -81.5t71.5 -29.5t71.5 29.5t25.5 81.5v29h45v-30q0 -69 -38.5 -109.5t-103.5 -40.5t-103.5 40.5t-38.5 109.5z"></glyph><glyph glyph-name="uni041A" unicode="К" d="M98 0v660h52v-660h-52zM233 356l344 -356h-67l-346 357l320 303h69z"></glyph><glyph glyph-name="uni041B" unicode="Л" d="M178 660h386v-660h-52v613h-285l-2 -66q-7 -207 -28 -326t-59 -171t-100 -54q-19 0 -26 4v47q6 -3 21 -3q69 0 102.5 118t39.5 365z"></glyph><glyph glyph-name="uni041C" unicode="М" d="M667 670h20v-670h-52v536l-232 -330h-20l-233 330v-536h-52v670h20l275 -392z"></glyph><glyph glyph-name="uni041D" unicode="Н" d="M98 0v660h52v-280h406v280h52v-660h-52v333h-406v-333h-52z"></glyph><glyph glyph-name="uni041E" unicode="О" d="M53 330q-3 141 98 241.5t240 98.5q138 2 240 -99t99 -241q3 -140 -99 -241.5t-240 -98.5q-139 -3 -240 98.5t-98 241.5zM675 331q2 121 -81.5 207t-201.5 84q-119 2 -202.5 -84t-81.5 -207q-2 -122 81.5 -208t202.5 -84q118 -2 201.5 84.5t81.5 207.5z"></glyph><glyph glyph-name="uni041F" unicode="П" d="M98 0v660h500v-660h-52v613h-396v-613h-52z"></glyph><glyph glyph-name="uni0420" unicode="Р" d="M98 0v660h224q91 0 145.5 -51t54.5 -130q0 -81 -54 -132t-146 -51h-172v-296h-52zM150 343h170q70 0 109 37t39 98t-39 98t-109 37h-170v-270z"></glyph><glyph glyph-name="uni0421" unicode="С" d="M53 330q-3 141 98 241.5t240 98.5q82 0 152 -35.5t115 -98.5l-39 -31q-83 117 -227 117q-119 2 -202.5 -84t-81.5 -207q-2 -122 81.5 -208t202.5 -84q144 0 227 116l39 -31q-45 -63 -115 -98.5t-152 -35.5q-139 -3 -240 98.5t-98 241.5z"></glyph><glyph glyph-name="uni0422" unicode="Т" d="M265 0v613h-241v47h535v-47h-242v-613h-52z"></glyph><glyph glyph-name="uni0423" unicode="У" d="M546 660h54l-238 -531q-33 -75 -71 -106t-98 -31q-26 0 -55 8v47q24 -7 54 -7q43 0 70 20.5t48 68.5l3 7l-262 524h57l233 -464z"></glyph><glyph glyph-name="uni0424" unicode="Ф" d="M409 66v-86h-52v86q-139 2 -225.5 74.5t-86.5 193.5t86.5 192.5t225.5 73.5v80h52v-80q139 0 226 -72t87 -194t-87 -195t-226 -73zM357 114v439q-118 0 -187.5 -58.5t-69.5 -160.5q0 -104 70 -162t187 -58zM668 334q0 102 -71 161q-70 58 -188 58v-439q118 0 188 58 q71 59 71 162z"></glyph><glyph glyph-name="uni0425" unicode="Х" d="M552 0h-60l-198 296l-198 -296h-60l229 340l-213 320h60l183 -279l180 279h60l-210 -322z"></glyph><glyph glyph-name="uni0426" unicode="Ц" d="M629 -141v141h-531v660h52v-613h396v613h52v-613h83v-188h-52z"></glyph><glyph glyph-name="uni0427" unicode="Ч" d="M503 660h52v-660h-52v284q-75 -32 -183 -32q-118 0 -181.5 62t-63.5 183v163h52v-161q0 -199 194 -199q109 0 182 32v328z"></glyph><glyph glyph-name="uni0428" unicode="Ш" d="M98 0v660h52v-613h308v613h52v-613h308v613h52v-660h-772z"></glyph><glyph glyph-name="uni0429" unicode="Щ" d="M901 -141v141h-803v660h52v-613h308v613h52v-613h308v613h52v-613h83v-188h-52z"></glyph><glyph glyph-name="uni042A" unicode="Ъ" d="M177 0v613h-153v47h205v-278h169q95 0 151.5 -53t56.5 -138t-56.5 -138t-151.5 -53h-221zM229 47h167q74 0 115.5 40t41.5 104q0 65 -41.5 104.5t-115.5 39.5h-167v-288z"></glyph><glyph glyph-name="uni042B" unicode="Ы" d="M98 0v660h52v-278h169q95 0 151.5 -53t56.5 -138t-56.5 -138t-151.5 -53h-221zM150 47h167q74 0 115.5 40t41.5 104q0 65 -41.5 104.5t-115.5 39.5h-167v-288zM663 0v660h52v-660h-52z"></glyph><glyph glyph-name="uni042C" unicode="Ь" d="M98 0v660h52v-278h169q95 0 151.5 -53t56.5 -138t-56.5 -138t-151.5 -53h-221zM150 47h167q74 0 115.5 40t41.5 104q0 65 -41.5 104.5t-115.5 39.5h-167v-288z"></glyph><glyph glyph-name="uni042D" unicode="Э" d="M658 330q2 -140 -98.5 -241.5t-238.5 -98.5q-83 0 -153.5 35.5t-113.5 98.5l39 31q83 -116 227 -116q116 0 197 79t87 197h-338v47h337q-11 112 -90.5 186t-192.5 74q-144 0 -227 -117l-39 31q45 63 115 98.5t152 35.5q138 3 238.5 -98t98.5 -242z"></glyph><glyph glyph-name="uni042E" unicode="Ю" d="M933 330q2 -140 -95.5 -241.5t-231.5 -98.5q-134 -3 -230.5 98.5t-94.5 241.5v3h-131v-333h-52v660h52v-280h134q17 126 108 208t214 82q135 3 232 -98t95 -242zM879 331q0 123 -78 207t-194 84t-193.5 -83.5t-77.5 -207.5t77 -208t194 -84q116 0 194 84t78 208z"></glyph><glyph glyph-name="uni042F" unicode="Я" d="M292 660h214v-660h-52v276h-153l-192 -276h-61l196 281q-75 14 -119 65t-44 123q0 86 58 138.5t153 52.5zM454 323v290h-161q-73 0 -115.5 -39t-42.5 -106t42.5 -106t115.5 -39h161z"></glyph><glyph glyph-name="uni0430" unicode="а" d="M436 303v-303h-48v76q-55 -86 -173 -86q-71 0 -118 34q-48 35 -48 97q0 59 46 94t122 35h168v55q0 68 -35.5 104.5t-97.5 36.5q-84 0 -147 -81l-35 28q70 100 185 100q83 0 132 -49.5t49 -140.5zM385 180v27h-163q-59 0 -90 -21.5t-31 -61.5q0 -43 34 -66.5t85 -23.5 q68 0 116.5 42t48.5 104z"></glyph><glyph glyph-name="uni0431" unicode="б" d="M561 238q0 -103 -73.5 -175.5t-177.5 -72.5q-107 0 -177 74.5t-70 190.5v103q1 112 25 180t86 112t172 65q134 24 172 44v-49q-42 -22 -165 -42q-76 -14 -123.5 -36.5t-73.5 -60.5t-35 -83t-10 -117v-10q31 58 85 91.5t120 33.5q99 2 173 -72.5t72 -175.5zM509 238 q0 84 -57.5 142.5t-140.5 58.5q-82 0 -139 -58t-57 -143t57 -143t139 -58q83 0 140.5 58.5t57.5 142.5z"></glyph><glyph glyph-name="uni0432" unicode="в" d="M469 141q0 -63 -45 -102t-122 -39h-209v483h194q68 0 107 -33t39 -88q0 -71 -62 -104q98 -31 98 -117zM143 437v-162h142q47 0 72 23t25 62q0 77 -97 77h-142zM417 140q0 42 -31.5 66t-87.5 24h-155v-184h155q56 0 87.5 26t31.5 68z"></glyph><glyph glyph-name="uni0433" unicode="г" d="M93 0v483h309v-46h-259v-437h-50z"></glyph><glyph glyph-name="uni0434" unicode="д" d="M444 46h77v-187h-50v141h-413v-141h-50v187h49q35 38 51 109q16 72 21 206l4 122h311v-437zM114 46h280v391h-214l-3 -77q-9 -242 -63 -314z"></glyph><glyph glyph-name="uni0435" unicode="е" d="M512 230h-404q4 -84 60.5 -138.5t138.5 -54.5q97 0 161 76l32 -33q-77 -90 -194 -90q-103 -2 -177.5 73t-72.5 178q-2 103 71 178.5t173 73.5q91 0 153.5 -60t62.5 -155q0 -33 -4 -48zM110 275h354q3 77 -45.5 124.5t-120.5 47.5q-73 0 -125 -49q-53 -48 -63 -123z"></glyph><glyph glyph-name="uni0436" unicode="ж" d="M47 483h66l217 -221l-241 -262h-63l240 262zM345 0v483h50v-483h-50zM475 263l241 -263h-65l-240 262l216 221h66z"></glyph><glyph glyph-name="uni0437" unicode="з" d="M409 136q0 -66 -48 -106t-129 -40q-118 0 -181 95l36 30q52 -78 145 -78q59 0 91.5 27.5t32.5 73.5q0 44 -32 69.5t-93 25.5h-64v46h65q50 0 75.5 23t25.5 62q0 38 -27 60t-75 22q-77 0 -129 -64l-34 30q58 81 164 81q70 0 111 -34t41 -92q0 -78 -70 -109 q45 -15 70 -47.5t25 -74.5z"></glyph><glyph glyph-name="uni0438" unicode="и" d="M451 493h21v-493h-51v390l-307 -400h-21v493h50v-392z"></glyph><glyph glyph-name="uni0439" unicode="й" d="M451 493h21v-493h-51v390l-307 -400h-21v493h50v-392zM146 724v33h45v-31q0 -52 25.5 -81.5t71.5 -29.5t71.5 29.5t25.5 81.5v31h45v-33q0 -68 -38.5 -109t-103.5 -41t-103.5 41t-38.5 109z"></glyph><glyph glyph-name="uni043A" unicode="к" d="M93 0v483h50v-483h-50zM224 263l242 -263h-65l-243 262l219 221h66z"></glyph><glyph glyph-name="uni043B" unicode="л" d="M139 483h303v-483h-51v437h-205l-3 -73q-10 -211 -39.5 -287t-107.5 -80q-8 0 -20 3v44q4 -1 18 -1q53 4 73.5 76t27.5 247z"></glyph><glyph glyph-name="uni043C" unicode="м" d="M93 0v493h21l229 -286l229 286h21v-493h-51v380l-188 -235h-22l-189 236v-381h-50z"></glyph><glyph glyph-name="uni043D" unicode="н" d="M93 0v483h50v-199h269v199h50v-483h-50v237h-269v-237h-50z"></glyph><glyph glyph-name="uni043E" unicode="о" d="M56 242q-2 104 72.5 178.5t177.5 72.5q104 0 177 -73.5t73 -177.5q2 -103 -73 -178.5t-178 -73.5q-102 -2 -176.5 73.5t-72.5 178.5zM504 241q0 87 -57.5 146t-140.5 59q-84 0 -141 -59t-57 -146q0 -86 57 -145t140 -59t141 59.5t58 144.5z"></glyph><glyph glyph-name="uni043F" unicode="п" d="M93 0v483h362v-483h-51v437h-261v-437h-50z"></glyph><glyph glyph-name="uni0440" unicode="р" d="M578 242q0 -106 -69.5 -179t-170.5 -73q-61 0 -114 27.5t-81 75.5v-273h-50v663h48v-97q27 49 80.5 78t116.5 29q101 0 170.5 -73t69.5 -178zM526 241q0 87 -55 146t-138 59q-80 0 -135 -53t-55 -151q0 -99 55 -152t135 -53q83 0 138 58.5t55 145.5z"></glyph><glyph glyph-name="uni0441" unicode="с" d="M56 242q-2 103 72.5 178t177.5 73q122 0 195 -99l-36 -29q-61 81 -159 81q-84 0 -141 -59.5t-57 -144.5q0 -86 57 -145.5t140 -59.5q97 0 160 81l36 -29q-73 -99 -196 -99q-102 -2 -176.5 73.5t-72.5 178.5z"></glyph><glyph glyph-name="uni0442" unicode="т" d="M202 0v437h-177v46h403v-46h-176v-437h-50z"></glyph><glyph glyph-name="uni0443" unicode="у" d="M441 483h54l-241 -562q-26 -59 -62.5 -85t-88.5 -26q-35 0 -68 9v44q29 -7 61 -7q78 0 112 83l31 71l-207 473h55l179 -416z"></glyph><glyph glyph-name="uni0444" unicode="ф" d="M377 -10v-170h-51v170q-120 2 -195 71t-75 180q0 110 76 180t194 72v257h51v-257q120 -3 195.5 -72.5t75.5 -179.5q0 -111 -75.5 -180t-195.5 -71zM327 35v412q-99 -1 -159 -57.5t-60 -148.5q0 -93 59.5 -148.5t159.5 -57.5zM595 241q0 92 -60 148.5t-159 57.5v-412 q100 2 159.5 57.5t59.5 148.5z"></glyph><glyph glyph-name="uni0445" unicode="х" d="M454 0h-60l-154 216l-154 -216h-60l183 254l-168 229h60l138 -194l140 194h60l-170 -231z"></glyph><glyph glyph-name="uni0446" unicode="ц" d="M481 -141v141h-388v483h50v-437h261v437h50v-437h77v-187h-50z"></glyph><glyph glyph-name="uni0447" unicode="ч" d="M369 483h50v-483h-50v212q-50 -25 -128 -25q-86 0 -135.5 47.5t-49.5 136.5v112h50v-110q0 -140 141 -140q75 0 122 24v226z"></glyph><glyph glyph-name="uni0448" unicode="ш" d="M93 0v483h50v-437h237v437h51v-437h237v437h50v-483h-625z"></glyph><glyph glyph-name="uni0449" unicode="щ" d="M745 -141v141h-652v483h50v-437h237v437h51v-437h237v437h50v-437h77v-187h-50z"></glyph><glyph glyph-name="uni044A" unicode="ъ" d="M149 0v437h-124v46h175v-180h127q80 0 127 -41t47 -110t-46.5 -110.5t-127.5 -41.5h-178zM200 46h124q59 0 92 28.5t33 76.5t-33.5 77t-92.5 29h-123v-211z"></glyph><glyph glyph-name="uni044B" unicode="ы" d="M93 0v483h50v-180h127q81 0 128 -41t47 -110t-47 -110.5t-128 -41.5h-177zM542 0v483h50v-483h-50zM143 46h124q59 0 92 28t33 77t-33 77.5t-92 28.5h-124v-211z"></glyph><glyph glyph-name="uni044C" unicode="ь" d="M93 0v483h50v-180h127q81 0 128 -41t47 -110t-47 -110.5t-128 -41.5h-177zM143 46h124q59 0 92 28.5t33 76.5t-33 77t-92 29h-124v-211z"></glyph><glyph glyph-name="uni044D" unicode="э" d="M496 242q2 -103 -73 -178.5t-176 -73.5q-59 0 -110.5 26.5t-85.5 72.5l36 29q62 -81 160 -81q80 0 135.5 54.5t61.5 135.5h-237v46h235q-10 74 -66 124q-53 49 -130 49q-98 0 -159 -81l-36 29q73 99 196 99q101 2 176 -73t73 -178z"></glyph><glyph glyph-name="uni044E" unicode="ю" d="M743 242q2 -103 -72.5 -178.5t-174.5 -73.5q-100 0 -171.5 72t-72.5 175h-109v-237h-50v483h50v-199h112q14 89 82.5 149t159.5 60q101 0 173.5 -73.5t72.5 -177.5zM690 241q0 86 -56 145.5t-137 59.5q-83 0 -138 -59t-55 -146q0 -86 55.5 -145t136.5 -59q82 0 138 59 t56 145z"></glyph><glyph glyph-name="uni044F" unicode="я" d="M249 483h177v-483h-50v190h-115l-146 -190h-61l152 195q-60 11 -93.5 48.5t-33.5 92.5q0 67 46 107t124 40zM376 236v201h-124q-56 0 -88.5 -27t-32.5 -73q0 -47 32.5 -74t89.5 -27h123z"></glyph><glyph glyph-name="uni0450" unicode="ѐ" d="M512 230h-404q4 -84 60.5 -138.5t138.5 -54.5q97 0 161 76l32 -33q-77 -90 -194 -90q-103 -2 -177.5 73t-72.5 178q-2 103 71 178.5t173 73.5q91 0 153.5 -60t62.5 -155q0 -33 -4 -48zM110 275h354q3 77 -45.5 124.5t-120.5 47.5q-73 0 -125 -49q-53 -48 -63 -123z M275 564l-113 207v9h62l91 -216h-40z"></glyph><glyph glyph-name="uni0451" unicode="ё" d="M512 230h-404q4 -84 60.5 -138.5t138.5 -54.5q97 0 161 76l32 -33q-77 -90 -194 -90q-103 -2 -177.5 73t-72.5 178q-2 103 71 178.5t173 73.5q91 0 153.5 -60t62.5 -155q0 -33 -4 -48zM110 275h354q3 77 -45.5 124.5t-120.5 47.5q-73 0 -125 -49q-53 -48 -63 -123z M150 669q0 18 13 30.5t30 12.5q18 0 31 -12.5t13 -30.5q0 -17 -13 -29.5t-31 -12.5q-17 0 -30 12.5t-13 29.5zM350 669q0 18 13 30.5t31 12.5t30.5 -12.5t12.5 -30.5q0 -17 -12.5 -29.5t-30.5 -12.5t-31 12.5t-13 29.5z"></glyph><glyph glyph-name="uni0452" unicode="ђ" d="M474 300v-345q0 -73 -39 -109t-108 -36q-29 0 -55 6v44q20 -4 46 -4q52 0 78.5 23.5t26.5 77.5v339q0 65 -36 104.5t-98 39.5q-63 0 -104 -40.5t-41 -103.5v-296h-50v594h-84v45h84v111h50v-111h207v-45h-207v-184q51 78 153 78q81 0 129 -51.5t48 -136.5z"></glyph><glyph glyph-name="uni0453" unicode="ѓ" d="M93 0v483h309v-46h-259v-437h-50zM215 564l91 216h62v-9l-113 -207h-40z"></glyph><glyph glyph-name="uni0454" unicode="є" d="M465 118l36 -29q-34 -46 -85.5 -72.5t-110.5 -26.5q-101 -2 -176 73.5t-73 178.5q-2 103 73.5 178t176.5 73q122 0 195 -99l-35 -29q-63 81 -160 81q-76 0 -131 -49q-55 -50 -65 -124h235v-46h-237q6 -82 61.5 -136t135.5 -54q99 0 160 81z"></glyph><glyph glyph-name="uni0455" unicode="ѕ" d="M46 90l35 33q68 -86 151 -86q47 0 77.5 22.5t30.5 62.5q-3 37 -22.5 54t-76.5 43l-44 19q-61 27 -90 55.5t-29 73.5q0 57 45 92q44 34 109 34q97 0 156 -77l-33 -32q-56 62 -126 62q-43 0 -70.5 -20t-27.5 -56q0 -29 19.5 -47t71.5 -40l45 -20q65 -29 95 -60t30 -79 q0 -64 -47 -99t-114 -35q-117 0 -185 100z"></glyph><glyph glyph-name="uni0456" unicode="і" d="M88 669q0 18 12.5 31t31.5 13t31.5 -13t12.5 -31t-12.5 -31t-31.5 -13t-31.5 13t-12.5 31zM107 0v483h50v-483h-50z"></glyph><glyph glyph-name="uni0457" unicode="ї" d="M20 669q0 18 12 30.5t29 12.5t29 -12.5t12 -30.5t-12 -30t-29 -12t-29 12t-12 30zM141 669q0 18 12 30.5t29 12.5t29 -12.5t12 -30.5t-12 -30t-29 -12t-29 12t-12 30zM96 0v483h51v-483h-51z"></glyph><glyph glyph-name="uni0458" unicode="ј" d="M-58 -184v44q20 -4 46 -4q52 0 78.5 23.5t26.5 77.5v526h50v-528q0 -73 -38.5 -109t-107.5 -36q-29 0 -55 6zM74 669q0 18 12.5 31t31.5 13q18 0 31 -13t13 -31t-13 -31t-31 -13q-19 0 -31.5 13t-12.5 31z"></glyph><glyph glyph-name="uni0459" unicode="љ" d="M718 152q0 -69 -46.5 -110.5t-127.5 -41.5h-172v437h-186l-3 -73q-10 -211 -39.5 -287t-107.5 -80q-8 0 -20 3v44q4 -1 18 -1q53 4 73.5 76t27.5 247l4 117h284v-180h121q80 0 127 -41t47 -110zM666 151q0 48 -33.5 77t-92.5 29h-117v-211h118q59 0 92 28.5t33 76.5z"></glyph><glyph glyph-name="uni045A" unicode="њ" d="M745 150q0 -69 -47 -109.5t-130 -40.5h-180v251h-245v-251h-50v483h50v-187h245v187h50v-187h130q83 0 130 -39.5t47 -106.5zM692 149q0 48 -33.5 75t-93.5 27h-127v-205h127q60 0 93.5 27.5t33.5 75.5z"></glyph><glyph glyph-name="uni045B" unicode="ћ" d="M474 300v-300h-51v296q0 65 -36 104.5t-98 39.5q-63 0 -104 -40.5t-41 -103.5v-296h-50v593h-84v46h84v111h50v-111h207v-46h-207v-183q51 78 153 78q81 0 129 -51.5t48 -136.5z"></glyph><glyph glyph-name="uni045C" unicode="ќ" d="M93 0v483h50v-483h-50zM224 263l242 -263h-65l-243 262l219 221h66zM234 564l91 216h62v-9l-113 -207h-40z"></glyph><glyph glyph-name="uni045D" unicode="ѝ" d="M451 493h21v-493h-51v390l-307 -400h-21v493h50v-392zM270 564l-113 207v9h62l91 -216h-40z"></glyph><glyph glyph-name="uni045E" unicode="ў" d="M441 483h54l-241 -562q-26 -59 -62.5 -85t-88.5 -26q-35 0 -68 9v44q29 -7 61 -7q78 0 112 83l31 71l-207 473h55l179 -416zM120 724v33h45v-31q0 -52 25.5 -81.5t71.5 -29.5t71.5 29.5t25.5 81.5v31h45v-33q0 -68 -38.5 -109t-103.5 -41t-103.5 41t-38.5 109z"></glyph><glyph glyph-name="uni045F" unicode="џ" d="M455 483v-483h-156v-141h-50v141h-156v483h50v-437h261v437h51z"></glyph><glyph glyph-name="uni0462" unicode="Ѣ" d="M156 0v509h-132v44h132v107h52v-107h205v-44h-205v-135h166q95 0 150.5 -52t55.5 -135t-55.5 -135t-150.5 -52h-218zM208 47h164q74 0 114.5 38t40.5 102t-40.5 102t-114.5 38h-164v-280z"></glyph><glyph glyph-name="uni0463" unicode="ѣ" d="M135 0v437h-125v46h125v267h51v-267h165v-46h-165v-139h127q80 0 127 -40.5t47 -107.5q0 -69 -46.5 -109.5t-127.5 -40.5h-178zM186 46h124q59 0 92 28t33 75t-33.5 75.5t-92.5 28.5h-123v-207z"></glyph><glyph glyph-name="uni0472" unicode="Ѳ" d="M730 330q3 -140 -99 -241.5t-240 -98.5q-139 -3 -240 98.5t-98 241.5q-3 141 98 241.5t240 98.5q138 2 240 -99t99 -241zM109 351q78 32 149 32q53 0 137 -23q82 -22 134 -22q69 0 144 29q-12 110 -91.5 182.5t-190.5 72.5q-115 0 -195.5 -77.5t-86.5 -193.5zM675 319 q-76 -29 -146 -29q-52 0 -140 23q-81 22 -131 22q-71 0 -149 -32q9 -113 89.5 -188.5t192.5 -75.5q117 0 198 80.5t86 199.5z"></glyph><glyph glyph-name="uni0473" unicode="ѳ" d="M556 242q2 -103 -74 -178.5t-177 -73.5q-101 -2 -176 73.5t-73 178.5q-2 103 72.5 178t177.5 73q101 2 176.5 -73t73.5 -178zM110 268q51 20 96 20q44 0 101 -19q62 -18 99 -18q46 0 96 19q-9 76 -65 126t-131 50q-77 0 -133 -50q-54 -49 -63 -128zM504 227 q-50 -21 -98 -21q-37 0 -103 19q-62 19 -97 19q-45 0 -97 -21q6 -80 61.5 -133t134.5 -53q80 0 137 55t62 135z"></glyph><glyph glyph-name="uni0474" unicode="Ѵ" d="M689 660v-46q-19 3 -33 3q-27 0 -45.5 -16.5t-34.5 -55.5l-233 -555h-21l-283 670h56l237 -571l198 475q22 53 50 76.5t72 23.5q22 0 37 -4z"></glyph><glyph glyph-name="uni0475" unicode="ѵ" d="M539 483v-43q-7 1 -24 1q-40 0 -63 -53l-177 -398h-21l-222 493h54l178 -408l144 332q36 79 99 79q15 0 32 -3z"></glyph><glyph glyph-name="uni0490" unicode="Ґ" d="M98 0v660h310v129h52v-176h-310v-613h-52z"></glyph><glyph glyph-name="uni0491" unicode="ґ" d="M93 0v483h259v129h50v-175h-259v-437h-50z"></glyph><glyph glyph-name="uni0492" unicode="Ғ" d="M484 613h-325v-281h180v-45h-180v-287h-52v287h-99v45h99v328h377v-47z"></glyph><glyph glyph-name="uni0493" unicode="ғ" d="M412 437h-271v-178h154v-46h-154v-213h-50v213h-83v46h83v224h321v-46z"></glyph><glyph glyph-name="uni0496" unicode="Җ" d="M60 660h69l300 -303l-326 -357h-67l326 356zM443 0v660h52v-660h-52zM861 47h74v-188h-52v141h-48l-325 357l300 303h69l-302 -304z"></glyph><glyph glyph-name="uni0497" unicode="җ" d="M47 483h66l217 -221l-241 -262h-63l240 262zM345 0v483h50v-483h-50zM674 46h70v-187h-51v141h-42l-240 262l216 221h66l-218 -220z"></glyph><glyph glyph-name="uni0498" unicode="Ҙ" d="M528 189q0 -87 -63.5 -143t-163.5 -56q-170 0 -247 141l38 29q68 -121 208 -121q77 0 125 42q49 42 49 108q0 62 -44 102.5t-120 40.5h-96v47h93q62 0 95.5 32.5t33.5 87.5q0 56 -36.5 89.5t-102.5 33.5q-108 0 -170 -90l-38 29q69 109 208 109q88 0 140.5 -48t52.5 -121 q0 -97 -89 -141q59 -19 93 -65t34 -106zM182 -180v39q29 -7 60 -7q36 0 58 18.5t22 53.5q0 43 -43 80l19 15q71 -33 71 -101q0 -47 -33 -77.5t-87 -30.5q-34 0 -67 10z"></glyph><glyph glyph-name="uni0499" unicode="ҙ" d="M409 136q0 -66 -48 -106t-129 -40q-118 0 -181 95l36 30q52 -78 145 -78q59 0 91.5 27.5t32.5 73.5q0 44 -32 69.5t-93 25.5h-64v46h65q50 0 75.5 23t25.5 62q0 38 -27 60t-75 22q-77 0 -129 -64l-34 30q58 81 164 81q70 0 111 -34t41 -92q0 -78 -70 -109 q45 -15 70 -47.5t25 -74.5zM122 -180v39q29 -7 60 -7q36 0 58 18.5t22 53.5q0 43 -43 80l19 15q71 -33 71 -101q0 -47 -33 -77.5t-87 -30.5q-34 0 -67 10z"></glyph><glyph glyph-name="uni049A" unicode="Қ" d="M98 0v660h52v-660h-52zM533 47h76v-188h-52v141h-47l-346 357l320 303h69l-319 -303z"></glyph><glyph glyph-name="uni049B" unicode="қ" d="M93 0v483h50v-483h-50zM423 46h70v-187h-50v141h-42l-243 262l219 221h66l-220 -221z"></glyph><glyph glyph-name="uni04A0" unicode="Ҡ" d="M25 613v47h299v-660h-52v613h-247zM408 356l344 -356h-68l-345 357l319 303h70z"></glyph><glyph glyph-name="uni04A1" unicode="ҡ" d="M25 437v46h233v-483h-50v437h-183zM339 263l242 -263h-65l-243 262l219 221h66z"></glyph><glyph glyph-name="uni04A2" unicode="Ң" d="M639 -141v141h-83v333h-406v-333h-52v660h52v-280h406v280h52v-613h83v-188h-52z"></glyph><glyph glyph-name="uni04A3" unicode="ң" d="M495 -141v141h-77v237h-275v-237h-50v483h50v-200h275v200h50v-437h77v-187h-50z"></glyph><glyph glyph-name="uni04AA" unicode="Ҫ" d="M53 330q-3 141 98 241.5t240 98.5q82 0 152 -35.5t115 -98.5l-39 -31q-83 117 -227 117q-119 2 -202.5 -84t-81.5 -207q-2 -122 81.5 -208t202.5 -84q144 0 227 116l39 -31q-45 -63 -115 -98.5t-152 -35.5q-139 -3 -240 98.5t-98 241.5zM278 -180v39q29 -7 60 -7 q36 0 58 18.5t22 53.5q0 43 -43 80l19 15q71 -33 71 -101q0 -47 -33 -77.5t-87 -30.5q-34 0 -67 10z"></glyph><glyph glyph-name="uni04AB" unicode="ҫ" d="M56 242q-2 103 72.5 178t177.5 73q122 0 195 -99l-36 -29q-61 81 -159 81q-84 0 -141 -59.5t-57 -144.5q0 -86 57 -145.5t140 -59.5q97 0 160 81l36 -29q-73 -99 -196 -99q-102 -2 -176.5 73.5t-72.5 178.5zM186 -180v39q29 -7 60 -7q36 0 58 18.5t22 53.5q0 43 -43 80 l19 15q71 -33 71 -101q0 -47 -33 -77.5t-87 -30.5q-34 0 -67 10z"></glyph><glyph glyph-name="uni04AE" unicode="Ү" d="M562 660l-230 -381v-279h-52v281l-229 379h57l199 -331l198 331h57z"></glyph><glyph glyph-name="uni04AF" unicode="ү" d="M495 483l-206 -481v-182h-50v179l-207 484h54l178 -429l177 429h54z"></glyph><glyph glyph-name="uni04B0" unicode="Ұ" d="M562 660l-229 -379h161v-45h-162v-236h-52v236h-161v45h161l-229 379h57l199 -331l198 331h57z"></glyph><glyph glyph-name="uni04B1" unicode="ұ" d="M289 1v-1h136v-46h-136v-134h-50v134h-137v46h136l-206 483h54l178 -430l177 430h54z"></glyph><glyph glyph-name="uni04B2" unicode="Ҳ" d="M521 47h72v-188h-52v141h-49l-198 296l-198 -296h-60l229 340l-213 320h60l183 -279l180 279h60l-210 -322z"></glyph><glyph glyph-name="uni04B3" unicode="ҳ" d="M420 46h67v-187h-50v141h-42l-155 215l-155 -215h-59l184 254l-169 229h59l139 -193l141 193h59l-170 -231z"></glyph><glyph glyph-name="uni04B6" unicode="Ҷ" d="M555 47h83v-188h-52v141h-83v284q-69 -32 -183 -32q-118 0 -181.5 62t-63.5 183v163h52v-161q0 -199 194 -199q115 0 182 32v328h52v-613z"></glyph><glyph glyph-name="uni04B7" unicode="ҷ" d="M419 46h77v-187h-50v141h-77v214q-56 -27 -128 -27q-86 0 -135.5 47.5t-49.5 136.5v112h50v-110q0 -70 35 -105t100 -35q77 0 128 27v223h50v-437z"></glyph><glyph glyph-name="uni04BA" unicode="Һ" d="M578 163v-163h-52v161q0 199 -195 199q-108 0 -181 -32v-328h-52v660h52v-284q75 32 183 32q118 0 181.5 -61.5t63.5 -183.5z"></glyph><glyph glyph-name="uni04BB" unicode="һ" d="M472 305v-305h-50v301q0 66 -36.5 105.5t-98.5 39.5q-63 0 -103.5 -41t-40.5 -104v-301h-50v750h50v-333q52 76 153 76q81 0 128.5 -51.5t47.5 -136.5z"></glyph><glyph glyph-name="uni04C0" unicode="Ӏ" d="M98 0v660h52v-660h-52z"></glyph><glyph glyph-name="uni04C1" unicode="Ӂ" d="M59 660h70l299 -303l-325 -357h-67l325 356zM443 0v660h52v-660h-52zM577 357l325 -357h-67l-325 357l299 303h69zM327 880v30h45v-29q0 -52 25.5 -81.5t71.5 -29.5t71.5 29.5t25.5 81.5v29h45v-30q0 -69 -38.5 -109.5t-103.5 -40.5t-103.5 40.5t-38.5 109.5z"></glyph><glyph glyph-name="uni04C2" unicode="ӂ" d="M47 483h66l217 -221l-241 -262h-63l240 262zM345 0v483h50v-483h-50zM475 263l241 -263h-65l-240 262l216 221h66zM229 724v33h45v-31q0 -52 25.5 -81.5t71.5 -29.5t71.5 29.5t25.5 81.5v31h45v-33q0 -68 -38.5 -109t-103.5 -41t-103.5 41t-38.5 109z"></glyph><glyph glyph-name="uni04CF" unicode="ӏ" d="M93 0v750h50v-750h-50z"></glyph><glyph glyph-name="uni04D0" unicode="Ӑ" d="M570 0l-65 157h-347l-65 -157h-54l283 670h21l282 -670h-55zM332 577l-154 -373h307zM191 880v30h45v-29q0 -52 25.5 -81.5t71.5 -29.5t71.5 29.5t25.5 81.5v29h45v-30q0 -69 -38.5 -109.5t-103.5 -40.5t-103.5 40.5t-38.5 109.5z"></glyph><glyph glyph-name="uni04D1" unicode="ӑ" d="M436 303v-303h-48v76q-55 -86 -173 -86q-71 0 -118 34q-48 35 -48 97q0 59 46 94t122 35h168v55q0 68 -35.5 104.5t-97.5 36.5q-84 0 -147 -81l-35 28q70 100 185 100q83 0 132 -49.5t49 -140.5zM385 180v27h-163q-59 0 -90 -21.5t-31 -61.5q0 -43 34 -66.5t85 -23.5 q68 0 116.5 42t48.5 104zM112 724v33h45v-31q0 -52 25.5 -81.5t71.5 -29.5t71.5 29.5t25.5 81.5v31h45v-33q0 -68 -38.5 -109t-103.5 -41t-103.5 41t-38.5 109z"></glyph><glyph glyph-name="uni04D4" unicode="Ӕ" d="M520 47h247v-47h-293l-27 158h-291l-83 -158h-56l344 660h394v-47h-334l41 -233h213v-47h-205zM374 583l-194 -378h259z"></glyph><glyph glyph-name="uni04D5" unicode="ӕ" d="M842 221h-403q6 -80 62 -132t136 -52q96 0 160 76l33 -33q-76 -90 -194 -90q-71 0 -129 35.5t-89 95.5q-21 -60 -76 -95.5t-125 -35.5q-74 0 -121 37t-47 101q0 63 46 100t122 37h168v40q0 68 -35.5 104.5t-96.5 36.5q-85 0 -147 -81l-35 28q70 100 185 100 q63 0 107 -30.5t61 -87.5q33 55 87.5 86.5t118.5 31.5q91 0 153.5 -60t62.5 -156q0 -36 -4 -56zM439 265h355q4 80 -45 131t-123 51t-126.5 -51.5t-60.5 -130.5zM385 180v41h-163q-121 0 -121 -88q0 -47 34 -73t87 -26q66 0 114.5 42.5t48.5 103.5z"></glyph><glyph glyph-name="uni04D6" unicode="Ӗ" d="M98 0v660h413v-47h-361v-233h281v-47h-281v-286h373v-47h-425zM152 880v30h45v-29q0 -52 25.5 -81.5t71.5 -29.5t71.5 29.5t25.5 81.5v29h45v-30q0 -69 -38.5 -109.5t-103.5 -40.5t-103.5 40.5t-38.5 109.5z"></glyph><glyph glyph-name="uni04D7" unicode="ӗ" d="M512 230h-404q4 -84 60.5 -138.5t138.5 -54.5q97 0 161 76l32 -33q-77 -90 -194 -90q-103 -2 -177.5 73t-72.5 178q-2 103 71 178.5t173 73.5q91 0 153.5 -60t62.5 -155q0 -33 -4 -48zM110 275h354q3 77 -45.5 124.5t-120.5 47.5q-73 0 -125 -49q-53 -48 -63 -123z M145 724v33h45v-31q0 -52 25.5 -81.5t71.5 -29.5t71.5 29.5t25.5 81.5v31h45v-33q0 -68 -38.5 -109t-103.5 -41t-103.5 41t-38.5 109z"></glyph><glyph glyph-name="uni04D8" unicode="Ә" d="M677 332q3 -141 -92 -242.5t-228 -99.5q-125 -2 -215.5 81t-88.5 211q0 26 5 59h565q-3 121 -78 201t-186 80q-73 0 -135.5 -30.5t-102.5 -84.5l-36 31q46 62 118 97t157 35q133 3 226 -97.5t91 -240.5zM621 294h-515q-9 -112 68 -184.5t185 -70.5q104 0 177 72t85 183z "></glyph><glyph glyph-name="uni04D9" unicode="ә" d="M516 242q0 -107 -67.5 -179.5t-170.5 -72.5q-94 0 -158 60t-64 155q0 20 4 48h404q-3 85 -57 139t-136 54q-103 0 -167 -76l-32 33q76 90 200 90q105 0 174.5 -72.5t69.5 -178.5zM462 208h-354q-1 -77 48.5 -124.5t123.5 -47.5q72 0 122 48t60 124z"></glyph><glyph glyph-name="uni04E2" unicode="Ӣ" d="M597 670h21v-670h-52v563l-448 -573h-20v670h52v-563zM217 777v43h282v-43h-282z"></glyph><glyph glyph-name="uni04E3" unicode="ӣ" d="M451 493h21v-493h-51v390l-307 -400h-21v493h50v-392zM157 648v43h262v-43h-262z"></glyph><glyph glyph-name="uni04E6" unicode="Ӧ" d="M53 330q-3 141 98 241.5t240 98.5q138 2 240 -99t99 -241q3 -140 -99 -241.5t-240 -98.5q-139 -3 -240 98.5t-98 241.5zM675 331q2 121 -81.5 207t-201.5 84q-119 2 -202.5 -84t-81.5 -207q-2 -122 81.5 -208t202.5 -84q118 -2 201.5 84.5t81.5 207.5zM235 808 q0 18 13 30t31 12t30.5 -12t12.5 -30t-12.5 -30.5t-30.5 -12.5t-31 12.5t-13 30.5zM461 807q0 18 13 30.5t31 12.5t30.5 -12.5t12.5 -30.5q0 -17 -12.5 -29.5t-30.5 -12.5t-31 12.5t-13 29.5z"></glyph><glyph glyph-name="uni04E7" unicode="ӧ" d="M56 242q-2 104 72.5 178.5t177.5 72.5q104 0 177 -73.5t73 -177.5q2 -103 -73 -178.5t-178 -73.5q-102 -2 -176.5 73.5t-72.5 178.5zM504 241q0 87 -57.5 146t-140.5 59q-84 0 -141 -59t-57 -146q0 -86 57 -145t140 -59t141 59.5t58 144.5zM162 669q0 18 13 30.5t30 12.5 q18 0 31 -12.5t13 -30.5q0 -17 -13 -29.5t-31 -12.5q-17 0 -30 12.5t-13 29.5zM362 669q0 18 13 30.5t31 12.5t30.5 -12.5t12.5 -30.5q0 -17 -12.5 -29.5t-30.5 -12.5t-31 12.5t-13 29.5z"></glyph><glyph glyph-name="uni04E8" unicode="Ө" d="M730 330q3 -140 -99 -241.5t-240 -98.5q-139 -3 -240 98.5t-98 241.5q-3 141 98 241.5t240 98.5q138 2 240 -99t99 -241zM109 360h565q-11 112 -91 187t-191 75q-113 0 -192.5 -74.5t-90.5 -187.5zM675 313h-567q6 -117 87 -195.5t197 -78.5q114 0 195.5 79t87.5 195z "></glyph><glyph glyph-name="uni04E9" unicode="ө" d="M556 242q2 -103 -74 -178.5t-177 -73.5q-101 -2 -176 73.5t-73 178.5q-2 103 72.5 178t177.5 73q101 2 176.5 -73t73.5 -178zM110 273h392q-11 75 -66 124t-130 49q-78 0 -131 -49q-55 -49 -65 -124zM504 227h-396q5 -80 61.5 -135t135.5 -55q80 0 137 55t62 135z"></glyph><glyph glyph-name="uni04EE" unicode="Ӯ" d="M546 660h54l-238 -531q-33 -75 -71 -106t-98 -31q-26 0 -55 8v47q24 -7 54 -7q43 0 70 20.5t48 68.5l3 7l-262 524h57l233 -464zM181 777v43h282v-43h-282z"></glyph><glyph glyph-name="uni04EF" unicode="ӯ" d="M441 483h54l-241 -562q-26 -59 -62.5 -85t-88.5 -26q-35 0 -68 9v44q29 -7 61 -7q78 0 112 83l31 71l-207 473h55l179 -416zM133 648v43h262v-43h-262z"></glyph><glyph glyph-name="uni04F2" unicode="Ӳ" d="M546 660h54l-238 -531q-33 -75 -71 -106t-98 -31q-26 0 -55 8v47q24 -7 54 -7q43 0 70 20.5t48 68.5l3 7l-262 524h57l233 -464zM185 724l92 186h57v-9l-110 -177h-39zM396 724l91 186h57v-9l-110 -177h-38z"></glyph><glyph glyph-name="uni04F3" unicode="ӳ" d="M441 483h54l-241 -562q-26 -59 -62.5 -85t-88.5 -26q-35 0 -68 9v44q29 -7 61 -7q78 0 112 83l31 71l-207 473h55l179 -416zM144 564l92 216h57v-9l-110 -207h-39zM335 564l91 216h57v-9l-110 -207h-38z"></glyph><glyph glyph-name="Wgrave" unicode="Ẁ" d="M966 660h55l-244 -670h-21l-220 577l-220 -577h-21l-244 670h56l200 -563l219 573h20l220 -573zM517 724l-113 177v9h62l91 -186h-40z"></glyph><glyph glyph-name="wgrave" unicode="ẁ" d="M759 483h54l-194 -493h-21l-176 407l-175 -407h-20l-195 493h54l152 -401l174 411h21l175 -409zM404 564l-113 207v9h62l91 -216h-40z"></glyph><glyph glyph-name="Wacute" unicode="Ẃ" d="M966 660h55l-244 -670h-21l-220 577l-220 -577h-21l-244 670h56l200 -563l219 573h20l220 -573zM516 724l91 186h62v-9l-113 -177h-40z"></glyph><glyph glyph-name="wacute" unicode="ẃ" d="M759 483h54l-194 -493h-21l-176 407l-175 -407h-20l-195 493h54l152 -401l174 411h21l175 -409zM403 564l91 216h62v-9l-113 -207h-40z"></glyph><glyph glyph-name="Wdieresis" unicode="Ẅ" d="M966 660h55l-244 -670h-21l-220 577l-220 -577h-21l-244 670h56l200 -563l219 573h20l220 -573zM380 808q0 18 13 30t31 12t30.5 -12t12.5 -30t-12.5 -30.5t-30.5 -12.5t-31 12.5t-13 30.5zM606 807q0 18 13 30.5t31 12.5t30.5 -12.5t12.5 -30.5q0 -17 -12.5 -29.5 t-30.5 -12.5t-31 12.5t-13 29.5z"></glyph><glyph glyph-name="wdieresis" unicode="ẅ" d="M759 483h54l-194 -493h-21l-176 407l-175 -407h-20l-195 493h54l152 -401l174 411h21l175 -409zM278 669q0 18 13 30.5t30 12.5q18 0 31 -12.5t13 -30.5q0 -17 -13 -29.5t-31 -12.5q-17 0 -30 12.5t-13 29.5zM478 669q0 18 13 30.5t31 12.5t30.5 -12.5t12.5 -30.5 q0 -17 -12.5 -29.5t-30.5 -12.5t-31 12.5t-13 29.5z"></glyph><glyph glyph-name="uni1E9E" unicode="ẞ" d="M645 197q0 -89 -61.5 -148t-148.5 -59q-111 0 -182 85l34 37q57 -73 147 -73q68 0 112.5 44.5t44.5 112.5q0 74 -52 119.5t-132 45.5h-43v16l154 236h-368v-613h-52v660h496v-17l-154 -237q87 -6 146 -64.5t59 -144.5z"></glyph><glyph glyph-name="Ygrave" unicode="Ỳ" d="M562 660l-230 -381v-279h-52v281l-229 379h57l199 -331l198 331h57zM286 724l-113 177v9h62l91 -186h-40z"></glyph><glyph glyph-name="ygrave" unicode="ỳ" d="M441 483h54l-241 -562q-26 -59 -62.5 -85t-88.5 -26q-35 0 -68 9v44q29 -7 61 -7q78 0 112 83l31 71l-207 473h55l179 -416zM244 564l-113 207v9h62l91 -216h-40z"></glyph><glyph glyph-name="uni2009" unicode=" "></glyph><glyph glyph-name="endash" unicode="–" d="M47 289v44h408v-44h-408z"></glyph><glyph glyph-name="emdash" unicode="—" d="M50 289v44h900v-44h-900z"></glyph><glyph glyph-name="uni2015" unicode="―" d="M50 289v44h900v-44h-900z"></glyph><glyph glyph-name="quoteleft" unicode="‘" d="M94 413l37 247h41l-17 -247h-61z"></glyph><glyph glyph-name="quoteright" unicode="’" d="M100 413l17 247h61l-37 -247h-41z"></glyph><glyph glyph-name="quotesinglbase" unicode="‚" d="M100 -173l17 248h61l-37 -248h-41z"></glyph><glyph glyph-name="quotedblleft" unicode="“" d="M94 413l37 247h41l-17 -247h-61zM253 413l37 247h41l-17 -247h-61z"></glyph><glyph glyph-name="quotedblright" unicode="”" d="M100 413l17 247h61l-37 -247h-41zM259 413l17 247h61l-37 -247h-41z"></glyph><glyph glyph-name="quotedblbase" unicode="„" d="M100 -173l17 248h61l-37 -248h-41zM259 -173l17 248h61l-37 -248h-41z"></glyph><glyph glyph-name="dagger" unicode="†" d="M193 359v217h-123v45h123v129h50v-129h124v-45h-124v-217h-50z"></glyph><glyph glyph-name="daggerdbl" unicode="‡" d="M193 319v100h-123v45h123v142h-123v45h123v99h50v-99h124v-45h-124v-142h124v-45h-124v-100h-50z"></glyph><glyph glyph-name="bullet" unicode="•" d="M60 265q0 50 35.5 83.5t82.5 33.5q48 0 82 -33q35 -33 35 -84t-35 -84q-35 -32 -82 -32t-82.5 33t-35.5 83z"></glyph><glyph glyph-name="ellipsis" unicode="…" d="M335 38q0 22 14 36t34 14q22 0 36 -13.5t14 -36.5q0 -21 -14.5 -34.5t-35.5 -13.5q-19 0 -33.5 14t-14.5 34zM91 38q0 22 14 36t34 14q22 0 36 -13.5t14 -36.5q0 -21 -14.5 -34.5t-35.5 -13.5q-19 0 -33.5 14t-14.5 34zM579 38q0 22 14 36t34 14q22 0 36 -13.5t14 -36.5 q0 -21 -14.5 -34.5t-35.5 -13.5q-19 0 -33.5 14t-14.5 34z"></glyph><glyph glyph-name="perthousand" unicode="‰" d="M71 511q0 66 47 112.5t113 46.5t113 -46.5t47 -112.5t-47 -112.5t-113 -46.5t-113 46.5t-47 112.5zM204 0l380 660h47l-379 -660h-48zM346 511q0 50 -33 84t-82 34t-81.5 -34t-32.5 -84t32.5 -84t81.5 -34t82 34t33 84zM811 151q0 66 46.5 112.5t112.5 46.5q67 0 114 -46 t47 -113t-47 -113t-114 -46q-66 0 -112.5 46.5t-46.5 112.5zM443 150q0 66 47 112.5t113 46.5t113 -46.5t47 -112.5t-47 -112.5t-113 -46.5t-113 46.5t-47 112.5zM1085 151q0 50 -32.5 84t-81.5 34t-81.5 -34t-32.5 -84t32.5 -84t81.5 -34t81.5 34t32.5 84zM717 150 q0 50 -32.5 84t-81.5 34t-81.5 -34t-32.5 -84t32.5 -84t81.5 -34t81.5 34t32.5 84z"></glyph><glyph glyph-name="minute" unicode="′" d="M69 394l44 266h63l-64 -266h-43z"></glyph><glyph glyph-name="second" unicode="″" d="M69 394l44 266h63l-64 -266h-43zM228 394l44 266h63l-64 -266h-43z"></glyph><glyph glyph-name="guilsinglleft" unicode="‹" d="M212 82l-169 179v17l169 179l34 -30l-144 -157l144 -159z"></glyph><glyph glyph-name="guilsinglright" unicode="›" d="M78 82l-34 29l144 159l-144 157l34 30l169 -179v-17z"></glyph><glyph glyph-name="fraction" unicode="⁄" d="M-98 0l379 660h48l-380 -660h-47z"></glyph><glyph glyph-name="uni2070" unicode="⁰" d="M53 576q0 98 38.5 154t111.5 56t111.5 -56t38.5 -154q0 -99 -38.5 -158.5t-111.5 -59.5t-111.5 59.5t-38.5 158.5zM306 576q0 168 -103 168q-102 0 -102 -168q0 -177 102 -177q103 0 103 177z"></glyph><glyph glyph-name="uni2074" unicode="⁴" d="M331 482v-40h-61v-78h-44v78h-208v14l135 324h48l-125 -298h150v142h44v-142h61z"></glyph><glyph glyph-name="uni2075" unicode="⁵" d="M322 497q0 -65 -43 -102q-41 -37 -104 -37q-92 0 -140 84l33 24q40 -66 107 -66q44 0 72 26.5t28 68.5t-28 65t-80 23h-93v197h229v-42h-184v-120q35 5 55 5q67 0 107.5 -32.5t40.5 -93.5z"></glyph><glyph glyph-name="uni2076" unicode="⁶" d="M323 495q0 -58 -41 -97.5t-100 -39.5q-58 0 -99 40t-41 99q0 34 13 59q20 37 44 73l103 151h55l-107 -155q14 7 38 7q55 0 95 -40t40 -97zM276 495q0 42 -26.5 69.5t-67.5 27.5q-40 0 -66.5 -27.5t-26.5 -69.5q0 -41 26.5 -68t66.5 -27q41 0 67.5 27t26.5 68z"></glyph><glyph glyph-name="uni2077" unicode="⁷" d="M25 780h275v-14l-211 -402h-50l198 374h-212v42z"></glyph><glyph glyph-name="uni2078" unicode="⁸" d="M335 469q0 -50 -39.5 -80.5t-105.5 -30.5q-65 0 -104.5 31t-39.5 81q0 76 99 112q-79 34 -79 103q0 46 35 73.5t89 27.5q55 0 90 -27.5t35 -74.5q0 -67 -80 -102q100 -36 100 -113zM190 602q42 16 62 34t20 46q0 30 -22.5 48t-59.5 18q-36 0 -58.5 -18t-22.5 -48 q0 -28 19.5 -46t61.5 -34zM290 472q0 32 -24 51.5t-76 38.5q-52 -19 -75.5 -38.5t-23.5 -51.5q0 -34 27 -55t72 -21t72.5 21t27.5 55z"></glyph><glyph glyph-name="uni2079" unicode="⁹" d="M323 647q0 -35 -13 -61q-18 -33 -44 -71l-103 -151h-55l107 155q-14 -7 -38 -7q-55 0 -95 40t-40 97q0 58 41 97.5t100 39.5t99 -40q41 -39 41 -99zM276 649q0 41 -26.5 68t-66.5 27t-67 -27t-27 -68t27 -69t67 -28t66.5 28t26.5 69z"></glyph><glyph glyph-name="uni207A" unicode="⁺" d="M191 404v148h-145v41h145v149h45v-149h144v-41h-144v-148h-45z"></glyph><glyph glyph-name="uni207B" unicode="⁻" d="M46 554v38h334v-38h-334z"></glyph><glyph glyph-name="uni207C" unicode="⁼" d="M54 630v41h319v-41h-319zM54 475v40h319v-40h-319z"></glyph><glyph glyph-name="uni207D" unicode="⁽" d="M62 573q0 257 147 327l17 -29q-122 -74 -122 -298q0 -227 122 -298l-17 -31q-64 37 -106 114q-41 77 -41 215z"></glyph><glyph glyph-name="uni207E" unicode="⁾" d="M39 244l-17 31q122 71 122 298q0 224 -122 298l17 29q147 -70 147 -327q0 -259 -147 -329z"></glyph><glyph glyph-name="uni2080" unicode="₀" d="M53 92q0 98 38.5 154t111.5 56t111.5 -56t38.5 -154q0 -99 -38.5 -158.5t-111.5 -59.5t-111.5 59.5t-38.5 158.5zM306 92q0 168 -103 168q-102 0 -102 -168q0 -177 102 -177q103 0 103 177z"></glyph><glyph glyph-name="uni2081" unicode="₁" d="M49 -120v42h109v332h-107v42h154v-374h96v-42h-252z"></glyph><glyph glyph-name="uni2082" unicode="₂" d="M119 -78h204v-42h-287v12l151 157q38 39 54.5 67t16.5 59q0 36 -23 60.5t-60 24.5q-38 0 -61.5 -25.5t-23.5 -63.5q0 -15 3 -33h-45q-4 15 -4 36q0 52 37 90t94 38t93.5 -35t36.5 -89q0 -40 -20 -72.5t-69 -84.5z"></glyph><glyph glyph-name="uni2083" unicode="₃" d="M309 11q0 -62 -42.5 -99.5t-103.5 -37.5q-90 0 -140 84l33 24q44 -66 107 -66q43 0 70.5 26.5t27.5 68.5t-28 65t-79 23h-38v13l111 142h-177v42h248v-14l-112 -143q52 -4 87.5 -38t35.5 -90z"></glyph><glyph glyph-name="uni2084" unicode="₄" d="M331 -2v-40h-61v-78h-44v78h-208v14l135 324h48l-125 -298h150v142h44v-142h61z"></glyph><glyph glyph-name="uni2085" unicode="₅" d="M322 13q0 -64 -43 -101q-43 -38 -104 -38q-92 0 -140 84l33 24q40 -66 107 -66q44 0 72 26.5t28 68.5t-28 65t-80 23h-93v197h229v-42h-184v-120q35 5 55 5q67 0 107.5 -32.5t40.5 -93.5z"></glyph><glyph glyph-name="uni2086" unicode="₆" d="M323 11q0 -58 -41 -97.5t-100 -39.5q-58 0 -99 40t-41 99q0 34 13 59q20 37 44 73l103 151h55l-107 -155q14 7 38 7q55 0 95 -40t40 -97zM276 11q0 42 -26.5 69.5t-67.5 27.5q-40 0 -66.5 -27.5t-26.5 -69.5q0 -41 26.5 -68t66.5 -27q41 0 67.5 27t26.5 68z"></glyph><glyph glyph-name="uni2087" unicode="₇" d="M25 296h275v-14l-211 -402h-50l198 374h-212v42z"></glyph><glyph glyph-name="uni2088" unicode="₈" d="M335 -15q0 -50 -39.5 -80.5t-105.5 -30.5q-65 0 -104.5 31t-39.5 81q0 76 99 112q-79 34 -79 103q0 46 35 73.5t89 27.5q55 0 90 -27.5t35 -74.5q0 -67 -80 -102q100 -36 100 -113zM190 118q42 16 62 34t20 46q0 30 -22.5 48t-59.5 18q-36 0 -58.5 -18t-22.5 -48 q0 -28 19.5 -46t61.5 -34zM290 -12q0 32 -24 51.5t-76 38.5q-52 -19 -75.5 -38.5t-23.5 -51.5q0 -34 27 -55t72 -21t72.5 21t27.5 55z"></glyph><glyph glyph-name="uni2089" unicode="₉" d="M323 163q0 -35 -13 -61q-18 -33 -44 -71l-103 -151h-55l107 155q-14 -7 -38 -7q-55 0 -95 40t-40 97q0 58 41 97.5t100 39.5t99 -40q41 -39 41 -99zM276 165q0 41 -26.5 68t-66.5 27t-67 -27t-27 -68t27 -69t67 -28t66.5 28t26.5 69z"></glyph><glyph glyph-name="uni208A" unicode="₊" d="M191 -81v148h-145v41h145v149h45v-149h144v-41h-144v-148h-45z"></glyph><glyph glyph-name="uni208B" unicode="₋" d="M46 69v38h334v-38h-334z"></glyph><glyph glyph-name="uni208C" unicode="₌" d="M54 145v41h319v-41h-319zM54 -10v40h319v-40h-319z"></glyph><glyph glyph-name="uni208D" unicode="₍" d="M62 88q0 257 147 327l17 -29q-122 -74 -122 -298q0 -227 122 -298l-17 -31q-64 37 -106 114q-41 77 -41 215z"></glyph><glyph glyph-name="uni208E" unicode="₎" d="M39 -241l-17 31q122 71 122 298q0 224 -122 298l17 29q147 -70 147 -327q0 -259 -147 -329z"></glyph><glyph glyph-name="lira" unicode="₤" d="M171 46h293v-46h-401v15q119 71 132 167h-122v45h123q-4 43 -36 105h-87v46h64q-36 69 -36 125q0 74 50 121q49 46 129 46q72 0 121 -40t71 -115l-47 -16q-39 123 -144 123q-58 0 -92 -35.5t-34 -90.5q0 -49 37 -118h196v-46h-172q27 -55 32 -105h140v-45h-141 q-11 -85 -76 -136z"></glyph><glyph glyph-name="peseta" unicode="₧" d="M575 494v-46h-85q-8 -73 -63 -117.5t-141 -44.5h-122v-286h-52v448h-84v46h84v166h174q87 0 142 -45.5t62 -120.5h85zM284 613h-120v-120h272q-6 55 -46 87.5t-106 32.5zM435 449h-271v-116h120q65 0 104.5 30.5t46.5 85.5z"></glyph><glyph glyph-name="Euro" unicode="€" d="M592 121l37 -31q-75 -100 -216 -100q-110 0 -190 65q-79 65 -106 174h-110v46h101q-3 27 -3 55q0 26 3 51h-99v45h107q26 110 105 177t192 67q141 0 216 -100l-37 -31q-63 83 -177 83q-92 0 -155.5 -52.5t-87.5 -143.5h318l-12 -45h-315q-3 -25 -3 -51q0 -34 4 -55h284 l-12 -46h-263q24 -88 87.5 -139t154.5 -51q114 0 177 82z"></glyph><glyph glyph-name="uni20AE" unicode="₮" d="M559 613h-242v-223l190 71v-49l-190 -71v-107l190 71v-49l-190 -71v-185h-52v168l-188 -71v50l188 71v107l-188 -71v49l188 71v239h-241v47h535v-47z"></glyph><glyph glyph-name="uni20B4" unicode="₴" d="M516 232h-358q-24 -30 -24 -69q0 -56 39 -90t103 -34q58 0 109.5 31.5t87.5 87.5l38 -28q-38 -66 -100 -103t-135 -37q-85 0 -141 49t-56 123q0 39 17 70h-68v43h103q34 31 101 70l56 33l3 2h-261v44h327q45 37 45 86q0 50 -37 81t-96 31q-94 0 -154 -85l-37 28 q31 50 81.5 77.5t111.5 27.5q81 0 133 -44q52 -43 52 -115q0 -48 -30 -87h89v-44h-138q-18 -13 -66 -43l-55 -32l-47 -30h307v-43z"></glyph><glyph glyph-name="uni20B8" unicode="₸" d="M24 613v47h535v-47h-535zM265 0v461h-241v47h535v-47h-242v-461h-52z"></glyph><glyph glyph-name="uni20B9" unicode="₹" d="M428 660v-46l-142 1q54 -38 64 -104h78v-46h-75q-5 -77 -59 -123t-142 -46h-32l308 -296h-67l-310 296v46h99q67 0 105.5 32.5t43.5 90.5h-251v46h248q-9 49 -47 76t-99 27h-99v46h377z"></glyph><glyph glyph-name="uni20BA" unicode="₺" d="M470 219q0 -105 -84 -167t-226 -62h-27v262l-102 -47v50l102 47v107l-102 -47v49l102 47v202h52v-182l197 90v-49l-197 -90v-107l197 90v-49l-197 -91v-234q104 5 170 55.5t66 126.5q0 23 -6 65h45q10 -30 10 -66z"></glyph><glyph glyph-name="uni20BD" unicode="₽" d="M112 0v149h-84v46h84v108h-84v46h84v311h209q89 0 142 -49t53 -129q0 -79 -53 -129t-142 -50h-157v-108h268v-46h-268v-149h-52zM164 349h155q69 0 107 36t38 96t-38 96.5t-107 36.5h-155v-265z"></glyph><glyph glyph-name="uni20BF" unicode="₿" d="M374 34v-126h-48v123h-100v-123h-48v123h-80v599h80v121h48v-121h95h5v121h48v-127q51 -13 79.5 -50t28.5 -91q0 -86 -73 -125q54 -17 83.5 -57.5t29.5 -98.5q0 -68 -39.5 -112.5t-108.5 -55.5zM316 584h-168v-208h168q55 0 85.5 27.5t30.5 77.5t-30 76.5t-86 26.5z M471 202q0 60 -37.5 94.5t-102.5 34.5h-183v-255h183q65 0 102.5 33.5t37.5 92.5z"></glyph><glyph glyph-name="uni2113" unicode="ℓ" d="M262 36q28 0 83 11v-44q-42 -13 -90 -13q-73 0 -113.5 44t-40.5 125v35l-57 -53l-29 37q55 50 86 81v322q0 179 133 179q121 0 121 -138q0 -172 -204 -385v-75q0 -126 111 -126zM151 584v-280q155 171 155 315q0 96 -69 96q-86 0 -86 -131z"></glyph><glyph glyph-name="uni2116" unicode="№" d="M556 107v553h52v-670h-21l-437 559v-549h-52v670h20zM752 397q0 66 46.5 112.5t112.5 46.5q67 0 114 -46t47 -113t-47 -113t-114 -46q-66 0 -112.5 46.5t-46.5 112.5zM798 397q0 -50 32 -84t81 -34t82 34t33 84t-33 84t-82 34t-81 -34t-32 -84zM759 113v41h305v-41h-305z "></glyph><glyph glyph-name="uni2117" unicode="℗" d="M53 330q-3 140 99 241t239 99q138 2 240 -99t99 -241q3 -140 -99 -241.5t-240 -98.5q-137 -3 -239 98.5t-99 241.5zM686 331q3 124 -85 212.5t-210 86.5q-121 2 -208.5 -86t-85.5 -213q-2 -125 85.5 -214t208.5 -87q121 -2 209 87t86 214zM274 148v354h154q56 0 90 -31.5 t34 -80.5t-34 -80.5t-90 -31.5h-108v-130h-46zM320 318h108q36 0 57 19.5t21 52.5t-21 53t-57 20h-108v-145z"></glyph><glyph glyph-name="trademark" unicode="™" d="M467 211v456h17l187 -262l187 262h17v-456h-47v340l-149 -209h-17l-149 209v-340h-46zM177 211v407h-160v42h367v-42h-160v-407h-47z"></glyph><glyph glyph-name="uni2126" unicode="Ω" d="M551 47h174v-47h-261v46q216 104 216 294q0 121 -81 201.5t-203 80.5t-202.5 -80t-80.5 -201q0 -192 216 -295v-46h-261v47h171q-181 114 -181 294q-3 137 96.5 234.5t241.5 94.5q140 3 240.5 -94.5t98.5 -234.5q0 -176 -184 -294z"></glyph><glyph glyph-name="estimated" unicode="℮" d="M731 327h-544v-204q77 -104 220 -104q77 0 144.5 32.5t112.5 87.5l23 -20q-49 -61 -122.5 -95t-157.5 -34q-146 -2 -248 97.5t-99 238.5q-3 140 102 243.5t241 100.5q80 2 157 -35t127 -105t48 -149q0 -33 -4 -54zM187 536v-180h421v195q-75 89 -201 89q-142 0 -220 -104 z"></glyph><glyph glyph-name="uni2150" unicode="⅐" d="M49 244v42h109v332h-107v42h154v-374h96v-42h-252zM248 0l379 660h48l-380 -660h-47zM602 416h275v-14l-211 -402h-50l198 374h-212v42z"></glyph><glyph glyph-name="uni2151" unicode="⅑" d="M49 244v42h109v332h-107v42h154v-374h96v-42h-252zM248 0l379 660h48l-380 -660h-47zM870 283q0 -35 -13 -61q-18 -33 -44 -71l-103 -151h-55l107 155q-14 -7 -38 -7q-55 0 -95 40t-40 97q0 58 41 97.5t100 39.5t99 -40q41 -39 41 -99zM823 285q0 41 -26.5 68t-66.5 27 t-67 -27t-27 -68t27 -69t67 -28t66.5 28t26.5 69z"></glyph><glyph glyph-name="uni2152" unicode="⅒" d="M49 244v42h109v332h-107v42h154v-374h96v-42h-252zM248 0l379 660h48l-380 -660h-47zM626 0v42h109v332h-107v42h154v-374h96v-42h-252zM976 212q0 98 38.5 154t111.5 56t111.5 -56t38.5 -154q0 -99 -38.5 -158.5t-111.5 -59.5t-111.5 59.5t-38.5 158.5zM1229 212 q0 168 -103 168q-102 0 -102 -168q0 -177 102 -177q103 0 103 177z"></glyph><glyph glyph-name="uni2153" unicode="⅓" d="M49 244v42h109v332h-107v42h154v-374h96v-42h-252zM248 0l379 660h48l-380 -660h-47zM886 131q0 -62 -42.5 -99.5t-103.5 -37.5q-90 0 -140 84l33 24q44 -66 107 -66q43 0 70.5 26.5t27.5 68.5t-28 65t-79 23h-38v13l111 142h-177v42h248v-14l-112 -143q52 -4 87.5 -38 t35.5 -90z"></glyph><glyph glyph-name="uni2154" unicode="⅔" d="M119 286h204v-42h-287v12l151 157q38 39 54.5 67t16.5 59q0 36 -23 60.5t-60 24.5q-38 0 -61.5 -25.5t-23.5 -63.5q0 -15 3 -33h-45q-4 15 -4 36q0 52 37 90t94 38t93.5 -35t36.5 -89q0 -40 -20 -72.5t-69 -84.5zM265 0l379 660h48l-380 -660h-47zM903 131 q0 -62 -42.5 -99.5t-103.5 -37.5q-90 0 -140 84l33 24q44 -66 107 -66q43 0 70.5 26.5t27.5 68.5t-28 65t-79 23h-38v13l111 142h-177v42h248v-14l-112 -143q52 -4 87.5 -38t35.5 -90z"></glyph><glyph glyph-name="uni2155" unicode="⅕" d="M49 244v42h109v332h-107v42h154v-374h96v-42h-252zM248 0l379 660h48l-380 -660h-47zM891 133q0 -65 -43 -102q-41 -37 -104 -37q-92 0 -140 84l33 24q40 -66 107 -66q44 0 72 26.5t28 68.5t-28 65t-80 23h-93v197h229v-42h-184v-120q35 5 55 5q67 0 107.5 -32.5 t40.5 -93.5z"></glyph><glyph glyph-name="uni2156" unicode="⅖" d="M119 286h204v-42h-287v12l151 157q38 39 54.5 67t16.5 59q0 36 -23 60.5t-60 24.5q-38 0 -61.5 -25.5t-23.5 -63.5q0 -15 3 -33h-45q-4 15 -4 36q0 52 37 90t94 38t93.5 -35t36.5 -89q0 -40 -20 -72.5t-69 -84.5zM265 0l379 660h48l-380 -660h-47zM908 133 q0 -65 -43 -102q-41 -37 -104 -37q-92 0 -140 84l33 24q41 -66 107 -66q44 0 72 26.5t28 68.5t-28 65t-80 23h-93v197h229v-42h-184v-120q35 5 55 5q67 0 107.5 -32.5t40.5 -93.5z"></glyph><glyph glyph-name="uni2157" unicode="⅗" d="M309 375q0 -62 -42.5 -99.5t-103.5 -37.5q-90 0 -140 84l33 24q44 -66 107 -66q43 0 70.5 26.5t27.5 68.5t-28 65t-79 23h-38v13l111 142h-177v42h248v-14l-112 -143q52 -4 87.5 -38t35.5 -90zM219 0l379 660h48l-380 -660h-47zM862 133q0 -65 -43 -102q-41 -37 -104 -37 q-92 0 -140 84l33 24q40 -66 107 -66q44 0 72 26.5t28 68.5t-28 65t-80 23h-93v197h229v-42h-184v-120q35 5 55 5q67 0 107.5 -32.5t40.5 -93.5z"></glyph><glyph glyph-name="uni2158" unicode="⅘" d="M331 362v-40h-61v-78h-44v78h-208v14l135 324h48l-125 -298h150v142h44v-142h61zM261 0l379 660h48l-380 -660h-47zM904 133q0 -65 -43 -102q-41 -37 -104 -37q-92 0 -140 84l33 24q40 -66 107 -66q44 0 72 26.5t28 68.5t-28 65t-80 23h-93v197h229v-42h-184v-120 q35 5 55 5q67 0 107.5 -32.5t40.5 -93.5z"></glyph><glyph glyph-name="uni2159" unicode="⅙" d="M49 244v42h109v332h-107v42h154v-374h96v-42h-252zM248 0l379 660h48l-380 -660h-47zM820 131q0 -58 -41 -97.5t-100 -39.5q-58 0 -99 40t-41 99q0 34 13 59q20 37 44 73l103 151h55l-107 -155q14 7 38 7q55 0 95 -40t40 -97zM773 131q0 42 -26.5 69.5t-67.5 27.5 q-40 0 -66.5 -27.5t-26.5 -69.5q0 -41 26.5 -68t66.5 -27q41 0 67.5 27t26.5 68z"></glyph><glyph glyph-name="uni215A" unicode="⅚" d="M322 377q0 -65 -43 -102q-41 -37 -104 -37q-92 0 -140 84l33 24q40 -66 107 -66q44 0 72 26.5t28 68.5t-28 65t-80 23h-93v197h229v-42h-184v-120q35 5 55 5q67 0 107.5 -32.5t40.5 -93.5zM232 0l379 660h48l-380 -660h-47zM804 131q0 -58 -41 -97.5t-100 -39.5 q-58 0 -99 40t-41 99q0 34 13 59q19 37 44 73l103 151h55l-107 -155q14 7 38 7q55 0 95 -40t40 -97zM757 131q0 42 -26.5 69.5t-67.5 27.5q-40 0 -66.5 -27.5t-26.5 -69.5q0 -41 26.5 -68t66.5 -27q41 0 67.5 27t26.5 68z"></glyph><glyph glyph-name="oneeighth" unicode="⅛" d="M49 244v42h109v332h-107v42h154v-374h96v-42h-252zM248 0l379 660h48l-380 -660h-47zM867 105q0 -50 -39.5 -80.5t-105.5 -30.5q-65 0 -104.5 31t-39.5 81q0 76 99 112q-79 34 -79 103q0 46 35 73.5t89 27.5q55 0 90 -27.5t35 -74.5q0 -67 -80 -102q100 -36 100 -113z M722 238q42 16 62 34t20 46q0 30 -22.5 48t-59.5 18q-36 0 -58.5 -18t-22.5 -48q0 -28 19.5 -46t61.5 -34zM822 108q0 32 -24 51.5t-76 38.5q-52 -19 -75.5 -38.5t-23.5 -51.5q0 -34 27 -55t72 -21t72.5 21t27.5 55z"></glyph><glyph glyph-name="threeeighths" unicode="⅜" d="M309 375q0 -62 -42.5 -99.5t-103.5 -37.5q-90 0 -140 84l33 24q44 -66 107 -66q43 0 70.5 26.5t27.5 68.5t-28 65t-79 23h-38v13l111 142h-177v42h248v-14l-112 -143q52 -4 87.5 -38t35.5 -90zM219 0l379 660h48l-380 -660h-47zM838 105q0 -50 -39.5 -80.5t-105.5 -30.5 q-65 0 -104.5 31t-39.5 81q0 76 99 112q-79 34 -79 103q0 46 35 73.5t89 27.5q55 0 90 -27.5t35 -74.5q0 -67 -80 -102q100 -36 100 -113zM693 238q42 16 62 34t20 46q0 30 -22.5 48t-59.5 18q-36 0 -58.5 -18t-22.5 -48q0 -28 19.5 -46t61.5 -34zM793 108q0 32 -24 51.5 t-76 38.5q-52 -19 -75.5 -38.5t-23.5 -51.5q0 -34 27 -55t72 -21t72.5 21t27.5 55z"></glyph><glyph glyph-name="fiveeighths" unicode="⅝" d="M322 377q0 -65 -43 -102q-41 -37 -104 -37q-92 0 -140 84l33 24q40 -66 107 -66q44 0 72 26.5t28 68.5t-28 65t-80 23h-93v197h229v-42h-184v-120q35 5 55 5q67 0 107.5 -32.5t40.5 -93.5zM232 0l379 660h48l-380 -660h-47zM851 105q0 -50 -39.5 -80.5t-105.5 -30.5 q-65 0 -104.5 31t-39.5 81q0 76 99 112q-79 34 -79 103q0 46 35 73.5t89 27.5q55 0 90 -27.5t35 -74.5q0 -67 -80 -102q100 -36 100 -113zM706 238q42 16 62 34t20 46q0 30 -22.5 48t-59.5 18q-36 0 -58.5 -18t-22.5 -48q0 -28 19.5 -46t61.5 -34zM806 108q0 32 -24 51.5 t-76 38.5q-52 -19 -75.5 -38.5t-23.5 -51.5q0 -34 27 -55t72 -21t72.5 21t27.5 55z"></glyph><glyph glyph-name="seveneighths" unicode="⅞" d="M25 660h275v-14l-211 -402h-50l198 374h-212v42zM124 0l379 660h48l-380 -660h-47zM743 105q0 -50 -39.5 -80.5t-105.5 -30.5q-65 0 -104.5 31t-39.5 81q0 76 99 112q-79 34 -79 103q0 46 35 73.5t89 27.5q55 0 90 -27.5t35 -74.5q0 -67 -80 -102q100 -36 100 -113z M598 238q42 16 62 34t20 46q0 30 -22.5 48t-59.5 18q-36 0 -58.5 -18t-22.5 -48q0 -28 19.5 -46t61.5 -34zM698 108q0 32 -24 51.5t-76 38.5q-52 -19 -75.5 -38.5t-23.5 -51.5q0 -34 27 -55t72 -21t72.5 21t27.5 55z"></glyph><glyph glyph-name="arrowleft" unicode="←" d="M593 289h-439l203 -203l-31 -30l-249 249v14l249 249l31 -30l-204 -204h440v-45z"></glyph><glyph glyph-name="arrowup" unicode="↑" d="M579 310l-30 -31l-199 198v-420h-48v422l-200 -200l-31 31l247 247h14z"></glyph><glyph glyph-name="arrowright" unicode="→" d="M324 568l249 -249v-14l-249 -249l-31 30l203 203h-439v45h440l-204 204z"></glyph><glyph glyph-name="arrowdown" unicode="↓" d="M549 345l30 -30l-247 -247h-14l-247 247l31 30l200 -200v423h48v-421z"></glyph><glyph glyph-name="arrowboth" unicode="↔" d="M636 568l249 -249v-14l-249 -249l-30 30l202 203h-654l203 -203l-31 -30l-249 249v14l249 249l31 -30l-204 -204h656l-203 204z"></glyph><glyph glyph-name="arrowupdn" unicode="↕" d="M350 25l194 194l31 -31l-243 -243h-14l-243 243l31 31l196 -196v614l-196 -196l-31 31l243 243h14l243 -243l-31 -31l-194 194v-610z"></glyph><glyph glyph-name="uni2196" unicode="↖" d="M266 395l280 -281l-33 -33l-332 332v-295h-46v366l10 10h364v-45h-298z"></glyph><glyph glyph-name="uni2197" unicode="↗" d="M505 494l10 -10v-366h-46v295l-332 -332l-33 33l280 281l55 54h-297v45h363z"></glyph><glyph glyph-name="uni2198" unicode="↘" d="M469 486h46v-365l-10 -10h-363v45h296l-334 335l33 33l332 -332v294z"></glyph><glyph glyph-name="uni2199" unicode="↙" d="M212 156h297v-45h-364l-10 10v365h46v-294l332 332l33 -33z"></glyph><glyph glyph-name="partialdiff" unicode="∂" d="M507 368q0 -166 -73 -273t-191 -107q-84 0 -141 53t-57 143q0 95 65 154.5t180 59.5q67 0 164 -20q-1 123 -46.5 184.5t-125.5 61.5q-91 0 -153 -80l-35 28q65 98 190 98q103 0 163 -77.5t60 -224.5zM453 334q-87 19 -161 19q-98 0 -146 -49q-48 -48 -48 -118 q0 -68 41 -110t107 -42q89 0 144 83t63 217z"></glyph><glyph glyph-name="uni2206" unicode="∆" d="M343 670l275 -653v-17h-572v17l276 653h21zM332 573l-219 -526h438z"></glyph><glyph glyph-name="product" unicode="∏" d="M98 -121v781h492v-781h-52v734h-388v-734h-52z"></glyph><glyph glyph-name="summation" unicode="∑" d="M139 -74h377v-47h-457v16l250 384l-250 365v16h445v-47h-363l221 -324v-17z"></glyph><glyph glyph-name="minus" unicode="−" d="M62 289v45h435v-45h-435z"></glyph><glyph glyph-name="uni2219" unicode="∙" d="M91 310q0 22 14 36t34 14q22 0 36 -13.5t14 -36.5q0 -21 -14.5 -34.5t-35.5 -13.5q-19 0 -33.5 14t-14.5 34z"></glyph><glyph glyph-name="radical" unicode="√" d="M668 750h55l-513 -883h-21v355h-155v45h205v-255z"></glyph><glyph glyph-name="infinity" unicode="∞" d="M758 310q0 -65 -46.5 -109.5t-117.5 -44.5q-57 0 -101 28.5t-95 90.5q-52 -62 -95.5 -90.5t-100.5 -28.5q-70 0 -116.5 44.5t-46.5 109.5q0 66 46.5 110.5t117.5 44.5q56 0 99.5 -28t95.5 -88q51 60 94.5 88t99.5 28q72 0 119 -44.5t47 -110.5zM367 312q-45 55 -81 80.5 t-79 25.5q-51 0 -83.5 -29.5t-32.5 -77.5t32 -77.5t83 -29.5q43 0 78 25t83 83zM705 311q0 48 -32 77.5t-83 29.5q-42 0 -77.5 -25t-83.5 -81q49 -58 84.5 -83t77.5 -25q51 0 82.5 29.5t31.5 77.5z"></glyph><glyph glyph-name="integral" unicode="∫" d="M6 -121v43q30 -3 49 -3q110 0 110 133q0 70 -35 277q-20 125 -27 183q-8 64 -8 101q0 84 41.5 128.5t113.5 44.5q27 0 57 -6v-43q-29 3 -48 3q-111 0 -111 -131q0 -58 33 -270q36 -227 36 -293q0 -85 -41 -129t-113 -44q-27 0 -57 6z"></glyph><glyph glyph-name="approxequal" unicode="≈" d="M319 361l-97 58q-40 25 -64 25q-20 0 -31 -13t-11 -35v-30h-44l-1 34q0 38 23 64t60 26t84 -29l97 -59q40 -24 64 -24q20 0 31 13t11 34v31h44l2 -34q0 -38 -23.5 -64t-60.5 -26t-84 29zM319 156l-97 58q-40 25 -64 25q-20 0 -31 -13t-11 -35v-30h-44l-1 34q0 38 23 64 t60 26t84 -29l97 -59q40 -24 64 -24q20 0 31 13t11 34v31h44l2 -34q0 -38 -23.5 -64t-60.5 -26t-84 29z"></glyph><glyph glyph-name="notequal" unicode="≠" d="M488 390h-132l-101 -158h233v-45h-262l-74 -116h-51l74 116h-103v45h132l101 158h-233v46h263l73 114h51l-73 -114h102v-46z"></glyph><glyph glyph-name="lessequal" unicode="≤" d="M484 512v-50l-329 -126l329 -126v-50l-426 168v16zM68 0v46h416v-46h-416z"></glyph><glyph glyph-name="greaterequal" unicode="≥" d="M76 512l426 -168v-16l-426 -168v50l329 126l-329 126v50zM76 0v46h416v-46h-416z"></glyph><glyph glyph-name="uni24EA" unicode="⓪" d="M59 330q-2 114 56.5 214.5t159 159t214.5 56.5q114 2 214 -57t159 -159t57 -214q2 -114 -57 -214t-159 -159t-214 -57q-114 -2 -214.5 56.5t-159 159t-56.5 214.5zM876 330q3 157 -114 273.5t-273 113.5q-103 2 -193.5 -50.5t-143 -143t-50.5 -193.5q-2 -77 29 -149.5 t84 -125t125 -83.5t149 -29q156 -3 273 113.5t114 273.5zM328 333q0 107 41 167.5t120 60.5t120.5 -60.5t41.5 -167.5q0 -104 -40 -169q-41 -66 -122 -66t-121 66q-40 65 -40 169zM604 333q0 186 -115 186q-114 0 -114 -186q0 -91 28.5 -142t85.5 -51q58 0 86.5 51t28.5 142 z"></glyph><glyph glyph-name="uni24FF" unicode="⓿" d="M59 330q-2 114 56.5 214.5t159 159t214.5 56.5q114 2 214 -57t159 -159t57 -214q2 -114 -57 -214t-159 -159t-214 -57q-114 -2 -214.5 56.5t-159 159t-56.5 214.5zM652 333q0 107 -42 167.5t-121 60.5t-120.5 -60.5t-41.5 -167.5q0 -104 40 -169q41 -66 122 -66t122 66 q41 67 41 169zM377 333q0 184 112 184q113 0 113 -184q0 -90 -28.5 -140.5t-84.5 -50.5t-84 50.5t-28 140.5z"></glyph><glyph glyph-name="filledbox" unicode="■" d="M90 55v550h550v-550h-550z"></glyph><glyph glyph-name="uni25A1" unicode="□" d="M90 55v550h550v-550h-550zM141 102h448v456h-448v-456z"></glyph><glyph glyph-name="uni25AA" unicode="▪" d="M78 52v380h381v-380h-381z"></glyph><glyph glyph-name="uni25AB" unicode="▫" d="M78 52v380h381v-380h-381zM127 97h282v289h-282v-289z"></glyph><glyph glyph-name="triagup" unicode="▲" d="M26 55l-6 11l339 594h12l339 -594l-6 -11h-678z"></glyph><glyph glyph-name="uni25B3" unicode="△" d="M371 660l339 -594l-6 -11h-678l-6 11l339 594h12zM631 105l-266 466l-266 -466h532z"></glyph><glyph glyph-name="uni25B4" unicode="▴" d="M31 52l-5 11l233 408h12l233 -408l-5 -11h-468z"></glyph><glyph glyph-name="uni25B5" unicode="▵" d="M271 471l233 -408l-5 -11h-468l-5 11l233 408h12zM431 96l-166 290l-166 -290h332z"></glyph><glyph glyph-name="uni25B6" unicode="▶" d="M131 -10l-11 5v670l11 5l521 -334v-12z"></glyph><glyph glyph-name="uni25B7" unicode="▷" d="M131 670l521 -334v-12l-521 -334l-11 5v670zM570 330l-399 256v-512z"></glyph><glyph glyph-name="uni25B8" unicode="▸" d="M121 7l-11 5v460l11 6l358 -229v-13z"></glyph><glyph glyph-name="uni25B9" unicode="▹" d="M121 478l358 -229v-13l-358 -229l-11 5v460zM403 242l-245 157v-314z"></glyph><glyph glyph-name="triagrt" unicode="►" d="M111 -10l-11 5v670l11 5l830 -334v-12z"></glyph><glyph glyph-name="uni25BB" unicode="▻" d="M111 670l830 -334v-12l-830 -334l-11 5v670zM825 330l-674 271v-542z"></glyph><glyph glyph-name="triagdn" unicode="▼" d="M26 605h678l6 -11l-339 -594h-12l-339 594z"></glyph><glyph glyph-name="uni25BD" unicode="▽" d="M704 605l6 -11l-339 -594h-12l-339 594l6 11h678zM631 555h-532l266 -466z"></glyph><glyph glyph-name="uni25BE" unicode="▾" d="M259 13l-233 407l5 12h468l5 -12l-233 -407h-12z"></glyph><glyph glyph-name="uni25BF" unicode="▿" d="M499 432l5 -12l-233 -407h-12l-233 407l5 12h468zM431 387h-332l166 -289z"></glyph><glyph glyph-name="uni25C0" unicode="◀" d="M599 -10l-521 334v12l521 334l11 -5v-670z"></glyph><glyph glyph-name="uni25C1" unicode="◁" d="M599 670l11 -5v-670l-11 -5l-521 334v12zM559 74v512l-399 -256z"></glyph><glyph glyph-name="uni25C2" unicode="◂" d="M409 7l-358 229v13l358 229l11 -6v-460z"></glyph><glyph glyph-name="uni25C3" unicode="◃" d="M409 478l11 -6v-460l-11 -5l-358 229v13zM372 399l-245 -157l245 -157v314z"></glyph><glyph glyph-name="triaglf" unicode="◄" d="M850 -10l-830 334v12l830 334l11 -5v-670z"></glyph><glyph glyph-name="uni25C5" unicode="◅" d="M850 670l11 -5v-670l-11 -5l-830 334v12zM810 59v542l-674 -271z"></glyph><glyph glyph-name="lozenge" unicode="◊" d="M343 670l213 -340l-213 -340h-21l-213 341l213 339h21zM333 66l166 264l-167 265l-166 -264z"></glyph><glyph glyph-name="circle" unicode="○" d="M37 329q-3 132 96 232t231 97q132 3 231.5 -97t96.5 -232q3 -133 -96 -231.5t-232 -95.5q-133 -3 -231.5 95.5t-95.5 231.5zM642 329q2 114 -81.5 198.5t-196.5 82.5q-113 2 -196 -82.5t-81 -198.5q-2 -113 81 -196.5t196 -81.5q113 -2 196.5 81.5t81.5 196.5z"></glyph><glyph glyph-name="uni25CF" unicode="●" d="M37 329q-3 132 96 232t231 97q132 3 231.5 -97t96.5 -232q3 -133 -96 -231.5t-232 -95.5q-133 -3 -231.5 95.5t-95.5 231.5z"></glyph><glyph glyph-name="uni261C" unicode="☜" d="M1153 273v-18l-85 -73l46 -170l-18 -13l-221 140q-90 -48 -188 -76q-102 -29 -166 -29q-96 0 -96 65q0 25 15 38q-21 6 -34 21.5t-13 36.5q0 27 24 44q-36 19 -36 53q0 23 18 38l-196 10q-91 5 -127.5 22.5t-36.5 58.5q0 43 41 59t144 16q88 0 192 -10v1q0 39 20.5 61 t53.5 22q30 0 61 -18l234 -138q43 -12 87 -28l224 142l18 -11l-46 -171zM462 482v-2q80 -9 183 -30l-114 67q-19 11 -33 11q-36 0 -36 -46zM521 75q57 0 159 29q105 31 182 76v167q-131 48 -310 78q-178 30 -338 30q-76 0 -102.5 -7t-26.5 -27q0 -19 25 -28t91 -13l153 -9 l191 -10v-38l-89 3q-14 1 -23 -6.5t-9 -20.5t7.5 -21.5t20.5 -8.5h104v-38h-92q-12 0 -20 -8t-8 -21q0 -12 8 -20.5t20 -8.5h103v-38q-9 -1 -53 -1h-19q-12 0 -20 -8t-8 -20q0 -31 54 -31zM906 359v-190l147 -91l-33 120l79 66l-79 65l34 123z"></glyph><glyph glyph-name="uni261E" unicode="☞" d="M1171 421q0 -41 -36.5 -58.5t-127.5 -22.5l-196 -10q18 -15 18 -38q0 -34 -36 -53q24 -17 24 -44q0 -21 -13 -36.5t-34 -21.5q15 -14 15 -38q0 -65 -96 -65q-66 0 -168 29q-98 29 -186 77l-221 -141l-18 13l46 170l-85 73v18l85 73l-46 171l18 11l225 -142q45 17 86 28 l234 138q31 18 61 18q33 0 53.5 -22t20.5 -61v-1q104 10 193 10q103 0 143.5 -16t40.5 -59zM679 517l-115 -68q94 20 184 31v2q0 46 -36 46q-14 0 -33 -11zM1125 421q0 20 -26.5 27t-102.5 7q-159 0 -339 -30q-179 -30 -309 -78v-167q77 -45 181 -76q104 -29 160 -29 q54 0 54 31q0 12 -8 20t-20 8h-19q-44 0 -53 1v38h103q13 0 21 8.5t8 20.5q0 13 -8.5 21t-20.5 8h-91v38h103q13 0 21 8.5t8 21.5t-9.5 20.5t-23.5 6.5l-89 -3v38l191 10l153 9q66 4 91 13t25 28zM305 169v190l-149 93l34 -123l-79 -65l79 -66l-33 -120z"></glyph><glyph glyph-name="uni2661" unicode="♡" d="M806 474q0 -51 -25 -95q-23 -42 -83 -109l-262 -280h-12l-262 280q-59 64 -83 106q-25 44 -25 98q0 86 56 141t137 55q63 0 112 -35t71 -93q22 58 71 93t112 35q81 0 137 -55t56 -141zM752 477q0 62 -41 103t-101 41q-110 0 -169 -158h-22q-59 158 -170 158 q-61 0 -101 -40.5t-40 -103.5q0 -43 22 -82.5t73 -93.5l227 -245l227 245q52 56 73.5 95.5t21.5 80.5z"></glyph><glyph glyph-name="heart" unicode="♥" d="M424 -10l-262 280q-59 64 -83 106q-25 44 -25 98q0 86 56 141t137 55q63 0 112 -35t71 -93q22 58 71 93t112 35q81 0 137 -55t56 -141q0 -51 -25 -95q-23 -42 -83 -109l-262 -280h-12z"></glyph><glyph glyph-name="uni275B" unicode="❛" d="M614 208q0 -89 -63.5 -153.5t-168.5 -64.5q-132 -3 -230.5 99.5t-95.5 240.5q-3 138 97.5 240.5t242.5 99.5q116 0 205 -69l-23 -36q-76 61 -180 61q-124 2 -210 -86t-84 -211q0 -69 28.5 -131t79.5 -105q-34 50 -34 115q0 89 64.5 153.5t153.5 64.5t153.5 -64.5 t64.5 -153.5z"></glyph><glyph glyph-name="uni275C" unicode="❜" d="M614 330q3 -138 -97.5 -240.5t-242.5 -99.5q-116 0 -205 69l23 36q76 -61 180 -61q123 -2 209.5 86t84.5 211q0 147 -108 236q34 -52 34 -115q0 -89 -64.5 -153.5t-153.5 -64.5t-153.5 64.5t-64.5 153.5t63.5 153.5t168.5 64.5q132 3 230.5 -99.5t95.5 -240.5z"></glyph><glyph glyph-name="uni275D" unicode="❝" d="M1234 208q0 -89 -63.5 -153.5t-168.5 -64.5q-132 -3 -230.5 99.5t-95.5 240.5q-3 138 97.5 240.5t242.5 99.5q116 0 205 -69l-23 -36q-76 61 -180 61q-124 2 -210 -86t-84 -211q0 -69 28.5 -131t79.5 -105q-34 50 -34 115q0 89 64.5 153.5t153.5 64.5t153.5 -64.5 t64.5 -153.5zM614 208q0 -89 -63.5 -153.5t-168.5 -64.5q-132 -3 -230.5 99.5t-95.5 240.5q-3 138 97.5 240.5t242.5 99.5q116 0 205 -69l-23 -36q-76 61 -180 61q-124 2 -210 -86t-84 -211q0 -69 28.5 -131t79.5 -105q-34 50 -34 115q0 89 64.5 153.5t153.5 64.5 t153.5 -64.5t64.5 -153.5z"></glyph><glyph glyph-name="uni275E" unicode="❞" d="M608 330q3 -138 -97.5 -240.5t-242.5 -99.5q-116 0 -205 69l23 36q76 -61 180 -61q123 -2 209.5 86t84.5 211q0 147 -108 236q34 -52 34 -115q0 -89 -64.5 -153.5t-153.5 -64.5t-153.5 64.5t-64.5 153.5t63.5 153.5t168.5 64.5q132 3 230.5 -99.5t95.5 -240.5zM1234 330 q3 -138 -97.5 -240.5t-242.5 -99.5q-116 0 -205 69l23 36q76 -61 180 -61q123 -2 209.5 86t84.5 211q0 147 -108 236q34 -52 34 -115q0 -89 -64.5 -153.5t-153.5 -64.5t-153.5 64.5t-64.5 153.5t63.5 153.5t168.5 64.5q132 3 230.5 -99.5t95.5 -240.5z"></glyph><glyph glyph-name="uni2776" unicode="❶" d="M59 330q-2 114 56.5 214.5t159 159t214.5 56.5q114 2 214 -57t159 -159t57 -214q2 -114 -57 -214t-159 -159t-214 -57q-114 -2 -214.5 56.5t-159 159t-56.5 214.5zM364 105h250v42h-97v407h-146v-42h98v-365h-105v-42z"></glyph><glyph glyph-name="uni2777" unicode="❷" d="M59 330q-2 114 56.5 214.5t159 159t214.5 56.5q114 2 214 -57t159 -159t57 -214q2 -114 -57 -214t-159 -159t-214 -57q-114 -2 -214.5 56.5t-159 159t-56.5 214.5zM335 105h311v42h-226l114 117q48 50 69.5 86t21.5 78q0 58 -39 95.5t-102 37.5q-64 0 -105.5 -40.5 t-41.5 -96.5q0 -21 5 -46h44q-5 37 -5 42q0 42 28 69.5t73 27.5q43 0 68 -25t25 -65q0 -33 -19 -65t-60 -75l-161 -169v-13z"></glyph><glyph glyph-name="uni2778" unicode="❸" d="M59 330q-2 114 56.5 214.5t159 159t214.5 56.5q114 2 214 -57t159 -159t57 -214q2 -114 -57 -214t-159 -159t-214 -57q-114 -2 -214.5 56.5t-159 159t-56.5 214.5zM634 246q0 63 -41 98t-96 38l125 157v15h-268v-43h193l-124 -155v-14h43q56 0 86.5 -25.5t30.5 -70.5 q0 -46 -30.5 -75t-77.5 -29q-68 0 -116 72l-35 -25q55 -91 151 -91q65 0 112 41.5t47 106.5z"></glyph><glyph glyph-name="uni2779" unicode="❹" d="M59 330q-2 114 56.5 214.5t159 159t214.5 56.5q114 2 214 -57t159 -159t57 -214q2 -114 -57 -214t-159 -159t-214 -57q-114 -2 -214.5 56.5t-159 159t-56.5 214.5zM535 105h48v84h66v43h-66v151h-48v-151h-166l136 322h-50l-146 -350v-15h226v-84z"></glyph><glyph glyph-name="uni277A" unicode="❺" d="M59 330q-2 114 56.5 214.5t159 159t214.5 56.5q114 2 214 -57t159 -159t57 -214q2 -114 -57 -214t-159 -159t-214 -57q-114 -2 -214.5 56.5t-159 159t-56.5 214.5zM644 247q0 65 -43 101.5t-111 36.5q-29 0 -68 -4v130h198v43h-244v-212h100q56 0 87 -25t31 -71 t-30.5 -75.5t-77.5 -29.5q-71 0 -119 73l-35 -25q56 -92 155 -92q64 0 110.5 41.5t46.5 108.5z"></glyph><glyph glyph-name="uni277B" unicode="❻" d="M59 330q-2 114 56.5 214.5t159 159t214.5 56.5q114 2 214 -57t159 -159t57 -214q2 -114 -57 -214t-159 -159t-214 -57q-114 -2 -214.5 56.5t-159 159t-56.5 214.5zM631 247q0 59 -39 99q-40 41 -96 44q-32 3 -58 -11l121 175h-58l-112 -163q-33 -47 -48 -79 q-14 -30 -14 -65q0 -63 44.5 -106t107.5 -43t107.5 43t44.5 106zM376 247q0 44 29.5 74.5t73.5 30.5q43 0 73 -30.5t30 -74.5t-30 -74.5t-73 -30.5q-44 0 -73.5 30t-29.5 75z"></glyph><glyph glyph-name="uni277C" unicode="❼" d="M59 330q-2 114 56.5 214.5t159 159t214.5 56.5q114 2 214 -57t159 -159t57 -214q2 -114 -57 -214t-159 -159t-214 -57q-114 -2 -214.5 56.5t-159 159t-56.5 214.5zM367 106h53l230 435v14h-299v-44h234z"></glyph><glyph glyph-name="uni277D" unicode="❽" d="M59 330q-2 114 56.5 214.5t159 159t214.5 56.5q114 2 214 -57t159 -159t57 -214q2 -114 -57 -214t-159 -159t-214 -57q-114 -2 -214.5 56.5t-159 159t-56.5 214.5zM646 219q0 80 -109 122q87 37 87 109q0 51 -38 81t-96 30q-60 0 -98 -29.5t-38 -80.5q0 -73 89 -111 q-110 -38 -110 -120q0 -54 43 -88t114 -34q70 0 113 33.5t43 87.5zM402 448q0 33 24.5 52.5t63.5 19.5t62.5 -19.5t23.5 -52.5q0 -30 -21 -50t-66 -36q-45 16 -66 36t-21 50zM382 221q0 37 24.5 58t82.5 41q59 -22 83.5 -42t24.5 -57t-28.5 -59.5t-78.5 -22.5t-79 22.5 t-29 59.5z"></glyph><glyph glyph-name="uni277E" unicode="❾" d="M59 330q-2 114 57 214t159 159t214 57q114 2 214.5 -56.5t159 -159t56.5 -214.5q2 -114 -56.5 -214.5t-159 -159t-214.5 -56.5q-114 -2 -214 57t-159 159t-57 214zM419 106h57l112 163q34 47 48 77q14 31 14 67q0 63 -44 106t-107 43t-107.5 -43t-44.5 -106q0 -58 38 -99 q40 -41 96 -44q33 -3 59 11zM396 413q0 44 30 74.5t73 30.5q44 0 73 -30t29 -75q0 -44 -29.5 -74t-72.5 -30q-44 0 -73.5 30t-29.5 74z"></glyph><glyph glyph-name="uni2780" unicode="➀" d="M59 330q-2 114 56.5 214.5t159 159t214.5 56.5q114 2 214 -57t159 -159t57 -214q2 -114 -57 -214t-159 -159t-214 -57q-114 -2 -214.5 56.5t-159 159t-56.5 214.5zM874 330q2 103 -50.5 192.5t-142 142t-192.5 50.5q-157 3 -272.5 -112.5t-112.5 -272.5 q-3 -157 112.5 -272.5t272.5 -112.5q103 -2 192.5 50.5t142 142t50.5 192.5zM364 105v42h105v365h-98v42h146v-407h97v-42h-250z"></glyph><glyph glyph-name="uni2781" unicode="➁" d="M59 330q-2 114 56.5 214.5t159 159t214.5 56.5q114 2 214 -57t159 -159t57 -214q2 -114 -57 -214t-159 -159t-214 -57q-114 -2 -214.5 56.5t-159 159t-56.5 214.5zM874 330q2 103 -50.5 192.5t-142 142t-192.5 50.5q-157 3 -272.5 -112.5t-112.5 -272.5 q-3 -157 112.5 -272.5t272.5 -112.5q103 -2 192.5 50.5t142 142t50.5 192.5zM335 105v13l161 169q41 43 60 75t19 65q0 40 -25 65t-68 25q-45 0 -73 -27.5t-28 -69.5q0 -5 5 -42h-44q-5 25 -5 46q0 56 41.5 96.5t105.5 40.5q63 0 102 -37.5t39 -95.5q0 -42 -21.5 -78 t-69.5 -86l-114 -117h226v-42h-311z"></glyph><glyph glyph-name="uni2782" unicode="➂" d="M59 330q-2 114 56.5 214.5t159 159t214.5 56.5q114 2 214 -57t159 -159t57 -214q2 -114 -57 -214t-159 -159t-214 -57q-114 -2 -214.5 56.5t-159 159t-56.5 214.5zM874 330q2 103 -50.5 192.5t-142 142t-192.5 50.5q-157 3 -272.5 -112.5t-112.5 -272.5 q-3 -157 112.5 -272.5t272.5 -112.5q103 -2 192.5 50.5t142 142t50.5 192.5zM324 189l35 25q48 -72 116 -72q47 0 77.5 29t30.5 75q0 45 -30.5 70.5t-86.5 25.5h-43v14l124 155h-193v43h268v-15l-125 -157q55 -3 96 -38t41 -98q0 -65 -47 -106.5t-112 -41.5q-96 0 -151 91z "></glyph><glyph glyph-name="uni2783" unicode="➃" d="M59 330q-2 114 56.5 214.5t159 159t214.5 56.5q114 2 214 -57t159 -159t57 -214q2 -114 -57 -214t-159 -159t-214 -57q-114 -2 -214.5 56.5t-159 159t-56.5 214.5zM874 330q2 103 -50.5 192.5t-142 142t-192.5 50.5q-157 3 -272.5 -112.5t-112.5 -272.5 q-3 -157 112.5 -272.5t272.5 -112.5q103 -2 192.5 50.5t142 142t50.5 192.5zM535 105v84h-226v15l146 350h50l-136 -322h166v151h48v-151h66v-43h-66v-84h-48z"></glyph><glyph glyph-name="uni2784" unicode="➄" d="M59 330q-2 114 56.5 214.5t159 159t214.5 56.5q114 2 214 -57t159 -159t57 -214q2 -114 -57 -214t-159 -159t-214 -57q-114 -2 -214.5 56.5t-159 159t-56.5 214.5zM874 330q2 103 -50.5 192.5t-142 142t-192.5 50.5q-157 3 -272.5 -112.5t-112.5 -272.5 q-3 -157 112.5 -272.5t272.5 -112.5q103 -2 192.5 50.5t142 142t50.5 192.5zM332 189l35 25q51 -73 119 -73q47 0 77.5 29.5t30.5 75.5t-30.5 71t-86.5 25h-101v212h245v-43h-198v-130q39 4 67 4q65 0 110 -36q45 -35 45 -102t-46.5 -108.5t-111.5 -41.5q-99 0 -155 92z"></glyph><glyph glyph-name="uni2785" unicode="➅" d="M59 330q-2 114 56.5 214.5t159 159t214.5 56.5q114 2 214 -57t159 -159t57 -214q2 -114 -57 -214t-159 -159t-214 -57q-114 -2 -214.5 56.5t-159 159t-56.5 214.5zM874 330q2 103 -50.5 192.5t-142 142t-192.5 50.5q-157 3 -272.5 -112.5t-112.5 -272.5 q-3 -157 112.5 -272.5t272.5 -112.5q103 -2 192.5 50.5t142 142t50.5 192.5zM327 247q0 35 14 65q15 32 48 79l112 163h58l-121 -175q26 14 58 11q56 -3 96 -44q39 -40 39 -99q0 -63 -44.5 -106t-107.5 -43t-107.5 43t-44.5 106zM582 247q0 44 -30 74.5t-73 30.5 q-44 0 -73.5 -30.5t-29.5 -74.5q0 -45 29.5 -75t73.5 -30q43 0 73 30.5t30 74.5z"></glyph><glyph glyph-name="uni2786" unicode="➆" d="M59 330q-2 114 56.5 214.5t159 159t214.5 56.5q114 2 214 -57t159 -159t57 -214q2 -114 -57 -214t-159 -159t-214 -57q-114 -2 -214.5 56.5t-159 159t-56.5 214.5zM874 330q2 103 -50.5 192.5t-142 142t-192.5 50.5q-157 3 -272.5 -112.5t-112.5 -272.5 q-3 -157 112.5 -272.5t272.5 -112.5q103 -2 192.5 50.5t142 142t50.5 192.5zM367 106l218 405h-234v44h298v-14l-230 -435h-52z"></glyph><glyph glyph-name="uni2787" unicode="➇" d="M59 330q-2 114 56.5 214.5t159 159t214.5 56.5q114 2 214 -57t159 -159t57 -214q2 -114 -57 -214t-159 -159t-214 -57q-114 -2 -214.5 56.5t-159 159t-56.5 214.5zM874 330q2 103 -50.5 192.5t-142 142t-192.5 50.5q-157 3 -272.5 -112.5t-112.5 -272.5 q-3 -157 112.5 -272.5t272.5 -112.5q103 -2 192.5 50.5t142 142t50.5 192.5zM333 220q0 82 110 120q-89 38 -89 111q0 51 38 80.5t98 29.5q58 0 96 -30t38 -81q0 -72 -87 -109q109 -42 109 -122q0 -54 -43 -87.5t-113 -33.5q-71 0 -114 34t-43 88zM576 448q0 33 -23.5 52.5 t-62.5 19.5t-63.5 -19.5t-24.5 -52.5q0 -30 21 -50t66 -36q45 16 66 36t21 50zM597 221q0 37 -25.5 58.5t-82.5 40.5q-57 -19 -82 -40.5t-25 -58.5t29 -59.5t79 -22.5t78.5 22.5t28.5 59.5z"></glyph><glyph glyph-name="uni2788" unicode="➈" d="M59 330q-2 114 57 214t159 159t214 57q114 2 214.5 -56.5t159 -159t56.5 -214.5q2 -114 -56.5 -214.5t-159 -159t-214.5 -56.5q-114 -2 -214 57t-159 159t-57 214zM874 330q3 157 -112.5 272.5t-272.5 112.5q-103 2 -192.5 -50.5t-142 -142t-50.5 -192.5 q-2 -103 50.5 -192.5t142 -142t192.5 -50.5q157 -3 272.5 112.5t112.5 272.5zM419 106l121 175q-24 -12 -48 -12q-60 0 -102.5 42t-42.5 102q0 63 44.5 106t107.5 43t107 -43t44 -106q0 -36 -14 -67q-14 -30 -48 -77l-112 -163h-57zM601 413q0 45 -29 75t-73 30 q-43 0 -73 -30.5t-30 -74.5t29.5 -74t73.5 -30q43 0 72.5 30t29.5 74z"></glyph><glyph glyph-name="uni27F5" unicode="⟵" d="M1171 289h-1017l203 -203l-31 -30l-249 249v14l249 249l31 -30l-204 -204h1018v-45z"></glyph><glyph glyph-name="uni27F6" unicode="⟶" d="M890 568l249 -249v-14l-249 -249l-31 30l204 204l-1018 -1v45h1018l-204 204z"></glyph><glyph glyph-name="uniF8FF" unicode="" d="M49 0v660h235l24 -285l7 -145h20l8 145l24 285h241v-660h-155v359h-21l-7 -108l-39 -251h-127l-37 251l-8 108h-21v-359h-144zM45 -168v132h566v-132h-566z"></glyph><glyph glyph-name="Iacute_J.loclNLD" d="M98 0v660h52v-660h-52zM103 724l91 186h62v-9l-113 -177h-40zM275 0v46q35 -7 74 -7q58 0 86.5 24.5t28.5 82.5v514h52v-517q0 -76 -42.5 -114.5t-117.5 -38.5q-41 0 -81 10zM464 724l91 186h62v-9l-113 -177h-40z"></glyph><glyph glyph-name="Cacute.loclPLK" d="M53 330q-3 141 98 241.5t240 98.5q82 0 152 -35.5t115 -98.5l-39 -31q-83 117 -227 117q-119 2 -202.5 -84t-81.5 -207q-2 -122 81.5 -208t202.5 -84q144 0 227 116l39 -31q-45 -63 -115 -98.5t-152 -35.5q-139 -3 -240 98.5t-98 241.5zM372 724l51 186h62v-9l-73 -177 h-40z"></glyph><glyph glyph-name="Nacute.loclPLK" d="M556 660h52v-670h-21l-437 559v-549h-52v670h20l438 -563v553zM333 724l51 186h62v-9l-73 -177h-40z"></glyph><glyph glyph-name="Oacute.loclPLK" d="M53 330q-3 141 98 241.5t240 98.5q138 2 240 -99t99 -241q3 -140 -99 -241.5t-240 -98.5q-139 -3 -240 98.5t-98 241.5zM675 331q2 121 -81.5 207t-201.5 84q-119 2 -202.5 -84t-81.5 -207q-2 -122 81.5 -208t202.5 -84q118 -2 201.5 84.5t81.5 207.5zM372 724l51 186h62 v-9l-73 -177h-40z"></glyph><glyph glyph-name="Sacute.loclPLK" d="M46 130l39 29q77 -120 199 -120q67 0 108.5 34t41.5 91q-2 50 -26.5 75t-95.5 61l-75 36q-73 33 -108 69t-38 102q0 74 55.5 118.5t136.5 44.5q62 0 113.5 -28t84.5 -77l-39 -29q-61 86 -159 86q-57 0 -97 -28q-41 -29 -41 -84q3 -49 26.5 -72t90.5 -56l74 -36 q81 -38 116.5 -78t35.5 -103q0 -77 -58.5 -126t-146.5 -49q-74 0 -136 37t-101 103zM263 724l51 186h62v-9l-73 -177h-40z"></glyph><glyph glyph-name="Zacute.loclPLK" d="M118 47h434v-47h-514v17l432 596h-389v47h470v-17zM279 724l51 186h62v-9l-73 -177h-40z"></glyph><glyph glyph-name="Idotaccent.loclTRK" d="M98 0v660h52v-660h-52zM80 808q0 18 12.5 30.5t31.5 12.5q18 0 31 -12.5t13 -30.5q0 -19 -13 -31.5t-31 -12.5q-19 0 -31.5 12.5t-12.5 31.5z"></glyph><glyph glyph-name="A.ordn" d="M356 244l-35 88h-207l-34 -88h-51l181 422h17l179 -422h-50zM305 371l-87 211l-88 -211h175z"></glyph><glyph glyph-name="O.ordn" d="M40 452q0 90 62 152t152 62q89 0 152 -62t63 -152q0 -89 -63.5 -151.5t-151.5 -62.5q-90 0 -152 62t-62 152zM421 452q0 72 -48 121t-118 49q-72 0 -119.5 -48.5t-47.5 -121.5t47.5 -121.5t119.5 -48.5q70 0 118 49t48 121z"></glyph><glyph glyph-name="iacute_j.loclNLD" d="M93 0v483h50v-483h-50zM97 564l61 216h62v-9l-83 -207h-40zM178 -184v44q20 -4 46 -4q52 0 78.5 23.5t26.5 77.5v526h50v-528q0 -73 -38.5 -109t-107.5 -36q-29 0 -55 6zM333 564l61 216h62v-9l-83 -207h-40z"></glyph><glyph glyph-name="cacute.loclPLK" d="M56 242q-2 103 72.5 178t177.5 73q122 0 195 -99l-36 -29q-61 81 -159 81q-84 0 -141 -59.5t-57 -144.5q0 -86 57 -145.5t140 -59.5q97 0 160 81l36 -29q-73 -99 -196 -99q-102 -2 -176.5 73.5t-72.5 178.5zM284 564l51 216h62v-9l-73 -207h-40z"></glyph><glyph glyph-name="nacute.loclPLK" d="M472 305v-305h-50v302q0 64 -36.5 104t-98.5 40q-63 0 -104 -41q-40 -40 -40 -103v-302h-50v483h48v-65q52 75 154 75q82 0 129.5 -51.5t47.5 -136.5zM264 564l51 216h62v-9l-73 -207h-40z"></glyph><glyph glyph-name="oacute.loclPLK" d="M56 242q-2 104 72.5 178.5t177.5 72.5q104 0 177 -73.5t73 -177.5q2 -103 -73 -178.5t-178 -73.5q-102 -2 -176.5 73.5t-72.5 178.5zM504 241q0 87 -57.5 146t-140.5 59q-84 0 -141 -59t-57 -146q0 -86 57 -145t140 -59t141 59.5t58 144.5zM285 564l51 216h62v-9 l-73 -207h-40z"></glyph><glyph glyph-name="sacute.loclPLK" d="M46 90l35 33q68 -86 151 -86q47 0 77.5 22.5t30.5 62.5q-3 37 -22.5 54t-76.5 43l-44 19q-61 27 -90 55.5t-29 73.5q0 57 45 92q44 34 109 34q97 0 156 -77l-33 -32q-56 62 -126 62q-43 0 -70.5 -20t-27.5 -56q0 -29 19.5 -47t71.5 -40l45 -20q65 -29 95 -60t30 -79 q0 -64 -47 -99t-114 -35q-117 0 -185 100zM210 564l51 216h62v-9l-73 -207h-40z"></glyph><glyph glyph-name="zacute.loclPLK" d="M110 46h308v-46h-385v17l303 420h-280v46h357v-17zM214 564l51 216h62v-9l-73 -207h-40z"></glyph><glyph glyph-name="i.loclTRK.loclTRK" d="M93 0v483h50v-483h-50zM74 669q0 18 12.5 31t31.5 13q18 0 31 -13t13 -31t-13 -31t-31 -13q-19 0 -31.5 13t-12.5 31z"></glyph><glyph glyph-name="a.ss01" d="M493 483h48v-483h-50v93q-28 -48 -81 -75.5t-114 -27.5q-101 0 -170.5 73t-69.5 179q0 105 69.5 178t170.5 73q63 0 116.5 -29t80.5 -79v98zM491 242q0 98 -55 151t-135 53q-83 0 -138 -59t-55 -146q0 -86 55 -145t138 -59q80 0 135 53t55 152z"></glyph><glyph glyph-name="y.ss01" d="M415 483h50v-470q0 -96 -55 -149.5t-141 -53.5q-116 0 -192 95l32 33q69 -81 158 -81q67 0 107.5 40.5t40.5 113.5v68q-50 -75 -154 -75q-82 0 -128.5 52.5t-46.5 138.5v288h50v-284q0 -67 36 -107.5t98 -40.5q63 0 104 41t41 103v288z"></glyph><glyph glyph-name="aacute.ss01" d="M493 483h48v-483h-50v93q-28 -48 -81 -75.5t-114 -27.5q-101 0 -170.5 73t-69.5 179q0 105 69.5 178t170.5 73q63 0 116.5 -29t80.5 -79v98zM491 242q0 98 -55 151t-135 53q-83 0 -138 -59t-55 -146q0 -86 55 -145t138 -59q80 0 135 53t55 152zM293 564l91 216h62v-9 l-113 -207h-40z"></glyph><glyph glyph-name="abreve.ss01" d="M493 483h48v-483h-50v93q-28 -48 -81 -75.5t-114 -27.5q-101 0 -170.5 73t-69.5 179q0 105 69.5 178t170.5 73q63 0 116.5 -29t80.5 -79v98zM491 242q0 98 -55 151t-135 53q-83 0 -138 -59t-55 -146q0 -86 55 -145t138 -59q80 0 135 53t55 152zM170 724v33h44v-31 q0 -51 26 -80.5t72 -29.5t72 29.5t26 80.5v31h44v-33q0 -67 -39 -108.5t-103 -41.5t-103 41t-39 109z"></glyph><glyph glyph-name="acircumflex.ss01" d="M493 483h48v-483h-50v93q-28 -48 -81 -75.5t-114 -27.5q-101 0 -170.5 73t-69.5 179q0 105 69.5 178t170.5 73q63 0 116.5 -29t80.5 -79v98zM491 242q0 98 -55 151t-135 53q-83 0 -138 -59t-55 -146q0 -86 55 -145t138 -59q80 0 135 53t55 152zM462 564h-41l-109 152 l-109 -152h-42l136 216h30z"></glyph><glyph glyph-name="adieresis.ss01" d="M493 483h48v-483h-50v93q-28 -48 -81 -75.5t-114 -27.5q-101 0 -170.5 73t-69.5 179q0 105 69.5 178t170.5 73q63 0 116.5 -29t80.5 -79v98zM491 242q0 98 -55 151t-135 53q-83 0 -138 -59t-55 -146q0 -86 55 -145t138 -59q80 0 135 53t55 152zM168 669q0 18 13 30.5 t30 12.5q18 0 31 -12.5t13 -30.5q0 -17 -13 -29.5t-31 -12.5q-17 0 -30 12.5t-13 29.5zM368 669q0 18 13 30.5t31 12.5t30.5 -12.5t12.5 -30.5q0 -17 -12.5 -29.5t-30.5 -12.5t-31 12.5t-13 29.5z"></glyph><glyph glyph-name="agrave.ss01" d="M493 483h48v-483h-50v93q-28 -48 -81 -75.5t-114 -27.5q-101 0 -170.5 73t-69.5 179q0 105 69.5 178t170.5 73q63 0 116.5 -29t80.5 -79v98zM491 242q0 98 -55 151t-135 53q-83 0 -138 -59t-55 -146q0 -86 55 -145t138 -59q80 0 135 53t55 152zM294 564l-113 207v9h62 l91 -216h-40z"></glyph><glyph glyph-name="amacron.ss01" d="M493 483h48v-483h-50v93q-28 -48 -81 -75.5t-114 -27.5q-101 0 -170.5 73t-69.5 179q0 105 69.5 178t170.5 73q63 0 116.5 -29t80.5 -79v98zM491 242q0 98 -55 151t-135 53q-83 0 -138 -59t-55 -146q0 -86 55 -145t138 -59q80 0 135 53t55 152zM181 648v43h262v-43h-262z "></glyph><glyph glyph-name="aogonek.ss01" d="M493 483h48v-483h-50v93q-28 -48 -81 -75.5t-114 -27.5q-101 0 -170.5 73t-69.5 179q0 105 69.5 178t170.5 73q63 0 116.5 -29t80.5 -79v98zM491 242q0 98 -55 151t-135 53q-83 0 -138 -59t-55 -146q0 -86 55 -145t138 -59q80 0 135 53t55 152zM375 -110q0 35 32 64 q33 30 115 73l19 -27l-54 -35q-35 -23 -48 -36.5t-13 -31.5q0 -21 15.5 -33t41.5 -12q18 0 58 8v-40q-34 -10 -66 -10q-44 0 -72 22t-28 58z"></glyph><glyph glyph-name="aring.ss01" d="M493 483h48v-483h-50v93q-28 -48 -81 -75.5t-114 -27.5q-101 0 -170.5 73t-69.5 179q0 105 69.5 178t170.5 73q63 0 116.5 -29t80.5 -79v98zM491 242q0 98 -55 151t-135 53q-83 0 -138 -59t-55 -146q0 -86 55 -145t138 -59q80 0 135 53t55 152zM208 667q0 43 30 72.5 t74 29.5q43 0 73 -29.5t30 -72.5t-30 -72.5t-73 -29.5q-44 0 -74 29.5t-30 72.5zM372 667q0 26 -17.5 43.5t-42.5 17.5q-26 0 -43 -17.5t-17 -43.5t17 -43.5t43 -17.5t43 17.5t17 43.5z"></glyph><glyph glyph-name="atilde.ss01" d="M493 483h48v-483h-50v93q-28 -48 -81 -75.5t-114 -27.5q-101 0 -170.5 73t-69.5 179q0 105 69.5 178t170.5 73q63 0 116.5 -29t80.5 -79v98zM491 242q0 98 -55 151t-135 53q-83 0 -138 -59t-55 -146q0 -86 55 -145t138 -59q80 0 135 53t55 152zM316 633l-25 25 q-24 24 -43 24q-31 0 -31 -45v-20h-44q-1 5 -1 22q0 40 19 65t53 25t64 -30l25 -25q24 -24 43 -24q32 0 32 46v19h44q1 -5 1 -22q0 -39 -19 -64.5t-53 -25.5q-35 0 -65 30z"></glyph><glyph glyph-name="yacute.ss01" d="M415 483h50v-470q0 -96 -55 -149.5t-141 -53.5q-116 0 -192 95l32 33q69 -81 158 -81q67 0 107.5 40.5t40.5 113.5v68q-50 -75 -154 -75q-82 0 -128.5 52.5t-46.5 138.5v288h50v-284q0 -67 36 -107.5t98 -40.5q63 0 104 41t41 103v288zM256 564l91 216h62v-9l-113 -207 h-40z"></glyph><glyph glyph-name="ycircumflex.ss01" d="M415 483h50v-470q0 -96 -55 -149.5t-141 -53.5q-116 0 -192 95l32 33q69 -81 158 -81q67 0 107.5 40.5t40.5 113.5v68q-50 -75 -154 -75q-82 0 -128.5 52.5t-46.5 138.5v288h50v-284q0 -67 36 -107.5t98 -40.5q63 0 104 41t41 103v288zM425 564h-41l-109 152l-109 -152 h-42l136 216h30z"></glyph><glyph glyph-name="ydieresis.ss01" d="M415 483h50v-470q0 -96 -55 -149.5t-141 -53.5q-116 0 -192 95l32 33q69 -81 158 -81q67 0 107.5 40.5t40.5 113.5v68q-50 -75 -154 -75q-82 0 -128.5 52.5t-46.5 138.5v288h50v-284q0 -67 36 -107.5t98 -40.5q63 0 104 41t41 103v288zM131 669q0 18 13 30.5t30 12.5 q18 0 31 -12.5t13 -30.5q0 -17 -13 -29.5t-31 -12.5q-17 0 -30 12.5t-13 29.5zM331 669q0 18 13 30.5t31 12.5t30.5 -12.5t12.5 -30.5q0 -17 -12.5 -29.5t-30.5 -12.5t-31 12.5t-13 29.5z"></glyph><glyph glyph-name="ygrave.ss01" d="M415 483h50v-470q0 -96 -55 -149.5t-141 -53.5q-116 0 -192 95l32 33q69 -81 158 -81q67 0 107.5 40.5t40.5 113.5v68q-50 -75 -154 -75q-82 0 -128.5 52.5t-46.5 138.5v288h50v-284q0 -67 36 -107.5t98 -40.5q63 0 104 41t41 103v288zM257 564l-113 207v9h62l91 -216 h-40z"></glyph><glyph glyph-name="ordfeminine.ss01" d="M312 551h41v-307h-41v55q-38 -61 -118 -61q-65 0 -108.5 46t-43.5 113q0 68 43 114t108 46q38 0 70 -16.5t49 -44.5v55zM310 397q0 56 -31 86.5t-79 30.5q-49 0 -80 -32.5t-31 -83.5t31 -84t80 -33q47 0 78.5 30.5t31.5 85.5z"></glyph><glyph glyph-name="uni0414.loclBGR" d="M642 47h73v-188h-52v141h-582v-141h-52v188h73l260 623h20zM372 576l-216 -529h432z"></glyph><glyph glyph-name="uni041B.loclBGR" d="M625 0h-55l-238 573l-239 -573h-54l283 670h21z"></glyph><glyph glyph-name="uni0424.loclBGR" d="M426 25v-65h-52v65q-141 0 -231 85t-90 218q0 135 89.5 220.5t231.5 85.5v65h52v-65q143 0 231.5 -85.5t88.5 -220.5q0 -133 -89.5 -218t-230.5 -85zM374 73v513q-121 0 -193.5 -71.5t-72.5 -187.5q0 -113 73.5 -183.5t192.5 -70.5zM692 327q0 116 -73 187.5t-193 71.5 v-513q119 0 192.5 70.5t73.5 183.5z"></glyph><glyph glyph-name="uni0432.loclBGR" d="M510 210q0 -98 -62.5 -159t-154.5 -61q-88 0 -145.5 55t-57.5 160v349q0 98 54.5 152t137.5 54q87 0 137.5 -52t50.5 -131q0 -60 -31 -105t-85 -67q72 -21 114 -71.5t42 -123.5zM141 554v-132h108q76 0 122.5 42t46.5 114q0 62 -37.5 98.5t-99.5 36.5q-65 0 -102.5 -40 t-37.5 -119zM458 210q0 78 -55 121q-54 45 -139 45h-123v-169q0 -84 40 -127t109 -43q74 0 121 47t47 126z"></glyph><glyph glyph-name="uni0433.loclBGR" d="M62 121q0 49 31 81t95 60l45 19q51 23 71 41t20 48q0 36 -27.5 56t-70.5 20q-72 0 -124 -61l-35 31q59 77 156 77q67 0 110.5 -32.5t43.5 -90.5q0 -45 -29.5 -75.5t-89.5 -56.5l-45 -19q-56 -25 -75.5 -42.5t-22.5 -55.5q0 -40 30 -62t78 -22q83 0 150 86l35 -33 q-68 -100 -184 -100q-68 0 -115 34q-47 35 -47 97z"></glyph><glyph glyph-name="uni0434.loclBGR" d="M499 483h48v-440q0 -107 -64 -170t-167 -63q-136 0 -222 94l31 34q81 -81 190 -81q83 0 132.5 48.5t49.5 135.5v64q-28 -47 -81 -75t-115 -28q-101 0 -170 71.5t-69 174.5t69 174t170 71q63 0 117 -28.5t81 -77.5v96zM497 248q0 94 -55 145.5t-134 51.5q-83 0 -138.5 -57 t-55.5 -141t55.5 -141t138.5 -57q79 0 134 52t55 147z"></glyph><glyph glyph-name="uni0436.loclBGR" d="M345 0v750h50v-750h-50zM47 483h66l217 -221l-241 -262h-63l240 262zM475 263l241 -263h-65l-240 262l216 221h66z"></glyph><glyph glyph-name="uni0437.loclBGR" d="M422 4q0 -80 -52.5 -137t-141.5 -57q-131 0 -195 100l34 32q55 -85 159 -85q68 0 105.5 40t37.5 107q0 66 -44.5 106t-119.5 40h-63v46h61q65 0 103.5 35.5t38.5 91.5q0 57 -33 90t-90 33q-86 0 -138 -75l-34 31q61 91 173 91q80 0 127 -46.5t47 -122.5q0 -48 -25.5 -87 t-72.5 -60q57 -20 90 -67t33 -106z"></glyph><glyph glyph-name="uni0438.loclBGR" d="M415 483h50v-483h-48v66q-51 -76 -154 -76q-82 0 -129.5 51.5t-47.5 136.5v305h50v-302q0 -64 36.5 -104t98.5 -40t103 41t41 103v302z"></glyph><glyph glyph-name="uni0439.loclBGR" d="M415 483h50v-483h-48v66q-51 -76 -154 -76q-82 0 -129.5 51.5t-47.5 136.5v305h50v-302q0 -64 36.5 -104t98.5 -40t103 41t41 103v302zM137 724v33h45v-31q0 -52 25.5 -81.5t71.5 -29.5t71.5 29.5t25.5 81.5v31h45v-33q0 -68 -38.5 -109t-103.5 -41t-103.5 41t-38.5 109z "></glyph><glyph glyph-name="uni045D.loclBGR" d="M415 483h50v-483h-48v66q-51 -76 -154 -76q-82 0 -129.5 51.5t-47.5 136.5v305h50v-302q0 -64 36.5 -104t98.5 -40t103 41t41 103v302zM261 564l-113 207v9h62l91 -216h-40z"></glyph><glyph glyph-name="uni043A.loclBGR" d="M93 0v750h50v-750h-50zM222 271l243 -271h-66l-241 272l217 211h68z"></glyph><glyph glyph-name="uni043B.loclBGR" d="M495 0h-54l-177 407l-178 -407h-54l222 493h21z"></glyph><glyph glyph-name="uni043F.loclBGR" d="M472 305v-305h-50v302q0 64 -36.5 104t-98.5 40q-63 0 -104 -41q-40 -40 -40 -103v-302h-50v483h48v-65q52 75 154 75q82 0 129.5 -51.5t47.5 -136.5z"></glyph><glyph glyph-name="uni0442.loclBGR" d="M781 305v-305h-51v301q0 66 -34.5 105.5t-93.5 39.5q-60 0 -100 -40t-40 -97v-309h-50v301q0 66 -34.5 105.5t-94.5 39.5q-62 0 -101 -41t-39 -104v-301h-50v483h48v-63q50 73 149 73q112 0 152 -94q54 94 167 94q80 0 126 -51t46 -137z"></glyph><glyph glyph-name="uni0446.loclBGR" d="M465 46h77v-187h-50v141h-77v63q-51 -73 -152 -73q-83 0 -130 51.5t-47 138.5v303h50v-299q0 -66 36.5 -106.5t98.5 -40.5t103 41t41 103v302h50v-437z"></glyph><glyph glyph-name="uni0448.loclBGR" d="M723 483h51v-483h-49v63q-50 -73 -149 -73q-112 0 -152 94q-54 -94 -167 -94q-80 0 -125.5 51t-45.5 137v305h50v-301q0 -65 34.5 -105t93.5 -40q60 0 100 40t40 97v309h51v-301q0 -66 34.5 -105.5t94.5 -39.5q61 0 100 41t39 104v301z"></glyph><glyph glyph-name="uni0449.loclBGR" d="M774 46h77v-187h-51v141h-77v60q-51 -70 -147 -70q-112 0 -152 94q-54 -94 -167 -94q-80 0 -125.5 51t-45.5 137v305h50v-301q0 -65 34.5 -105t93.5 -40q60 0 100 40t40 97v309h51v-301q0 -66 34.5 -105.5t94.5 -39.5q61 0 100 41t39 104v301h51v-437z"></glyph><glyph glyph-name="uni044C.loclBGR" d="M451 158q0 -76 -49.5 -122t-131.5 -46q-83 0 -133.5 50.5t-50.5 135.5v307h50v-165h129q87 0 136.5 -43.5t49.5 -116.5zM398 157q0 53 -35.5 84.5t-99.5 31.5h-127v-98q0 -65 36 -101.5t96 -36.5t95 32.5t35 87.5z"></glyph><glyph glyph-name="uni044A.loclBGR" d="M149 176v261h-124v46h175v-171h141q83 0 131 -42.5t48 -114.5q0 -75 -49.5 -120t-131.5 -45q-85 0 -137.5 50.5t-52.5 135.5zM467 154q0 52 -34.5 82.5t-94.5 30.5h-138v-92q0 -65 37 -101.5t100 -36.5q60 0 95 32t35 85z"></glyph><glyph glyph-name="uni044E.loclBGR" d="M742 242q2 -103 -72 -178.5t-174 -73.5q-99 0 -171 72.5t-73 174.5h-109v-237h-50v750h50v-466h112q14 89 82.5 149t159.5 60q101 0 173 -73.5t72 -177.5zM690 241q0 86 -56 145.5t-137 59.5q-83 0 -138 -59t-55 -146q0 -86 55.5 -145t136.5 -59q82 0 138 59t56 145z"></glyph><glyph glyph-name="uni0431.loclSRB" d="M556 242q2 -103 -74 -178.5t-177 -73.5q-104 0 -176.5 73t-72.5 179q0 90 56.5 157.5t144.5 84.5l-20 7q-76 30 -109.5 63t-33.5 80q0 53 37.5 84.5t108.5 31.5h265v-45h-265q-95 0 -95 -72q0 -32 24.5 -54.5t82.5 -44.5l136 -53q80 -32 124 -96t44 -143zM504 241 q0 86 -57.5 145.5t-140.5 59.5q-85 0 -141.5 -59t-56.5 -146q0 -86 56.5 -145t140.5 -59t141.5 59t57.5 145z"></glyph><glyph glyph-name="uni0430.ss01" d="M493 483h48v-483h-50v93q-28 -48 -81 -75.5t-114 -27.5q-101 0 -170.5 73t-69.5 179q0 105 69.5 178t170.5 73q63 0 116.5 -29t80.5 -79v98zM491 242q0 98 -55 151t-135 53q-83 0 -138 -59t-55 -146q0 -86 55 -145t138 -59q80 0 135 53t55 152z"></glyph><glyph glyph-name="uni0434.ss01" d="M491 46h54v-187h-50v141h-416v-141h-50v187h55l194 447h20zM288 404l-151 -358h301z"></glyph><glyph glyph-name="uni0443.ss01" d="M415 483h50v-470q0 -96 -55 -149.5t-141 -53.5q-116 0 -192 95l32 33q69 -81 158 -81q67 0 107.5 40.5t40.5 113.5v68q-50 -75 -154 -75q-82 0 -128.5 52.5t-46.5 138.5v288h50v-284q0 -67 36 -107.5t98 -40.5q63 0 104 41t41 103v288z"></glyph><glyph glyph-name="uni045E.ss01" d="M415 483h50v-470q0 -96 -55 -149.5t-141 -53.5q-116 0 -192 95l32 33q69 -81 158 -81q67 0 107.5 40.5t40.5 113.5v68q-50 -75 -154 -75q-82 0 -128.5 52.5t-46.5 138.5v288h50v-284q0 -67 36 -107.5t98 -40.5q63 0 104 41t41 103v288zM136 724v33h45v-31 q0 -52 25.5 -81.5t71.5 -29.5t71.5 29.5t25.5 81.5v31h45v-33q0 -68 -38.5 -109t-103.5 -41t-103.5 41t-38.5 109z"></glyph><glyph glyph-name="uni0444.ss01" d="M976 242q0 -106 -69.5 -179t-170.5 -73q-63 0 -116 28t-80 76l1 -274h-50v273q-28 -48 -81 -75.5t-114 -27.5q-101 0 -170.5 73t-69.5 179q0 105 69.5 178t170.5 73q62 0 115 -28.5t81 -76.5l-1 362h50l-1 -362q28 48 81 76.5t115 28.5q101 0 170.5 -73t69.5 -178z M491 242q0 98 -55 151t-135 53q-83 0 -138 -59t-55 -146t55 -145.5t138 -58.5q80 0 135 53t55 152zM923 241q0 87 -55 146t-138 59q-79 0 -134 -53t-55 -151q0 -99 54.5 -152t134.5 -53q84 0 138.5 58t54.5 146z"></glyph><glyph glyph-name="uni04EF.ss01" d="M415 483h50v-470q0 -96 -55 -149.5t-141 -53.5q-116 0 -192 95l32 33q69 -81 158 -81q67 0 107.5 40.5t40.5 113.5v68q-50 -75 -154 -75q-82 0 -128.5 52.5t-46.5 138.5v288h50v-284q0 -67 36 -107.5t98 -40.5q63 0 104 41t41 103v288zM147 648v43h262v-43h-262z"></glyph><glyph glyph-name="uni04F3.ss01" d="M415 483h50v-470q0 -96 -55 -149.5t-141 -53.5q-116 0 -192 95l32 33q69 -81 158 -81q67 0 107.5 40.5t40.5 113.5v68q-50 -75 -154 -75q-82 0 -128.5 52.5t-46.5 138.5v288h50v-284q0 -67 36 -107.5t98 -40.5q63 0 104 41t41 103v288zM158 564l92 216h57v-9l-110 -207 h-39zM349 564l91 216h57v-9l-110 -207h-38z"></glyph><glyph glyph-name="Xi.ss01" d="M597 613h-253v-256h178v-46h-178v-264h253v-47h-557v47h252v264h-177v46h177v256h-252v47h557v-47z"></glyph><glyph glyph-name="xi.ss01" d="M155 567q0 -67 42 -111.5t104 -44.5h104v-47h-119q-78 0 -123 -43.5t-45 -118.5q0 -127 157 -155l44 -8q126 -23 126 -134q0 -47 -22 -85h-51q21 44 21 78q0 42 -22.5 65.5t-73.5 31.5l-48 8q-86 13 -134.5 65.5t-48.5 130.5q0 74 37.5 124.5t106.5 69.5q-50 23 -79 69.5 t-29 105.5q0 85 56 138.5t144 53.5q55 0 103 -26.5t80 -74.5l-36 -30q-55 83 -144 83q-69 0 -109.5 -39t-40.5 -106z"></glyph><glyph glyph-name="zero.osf" d="M55 265q-2 114 80.5 196.5t196.5 80.5q113 2 197 -81t82 -196q2 -112 -82 -195t-198 -81q-113 -2 -195.5 81t-80.5 195zM558 265q0 97 -65 163t-161 66t-160 -66t-64 -163t64 -162.5t160 -65.5t161 66t65 162z"></glyph><glyph glyph-name="one.osf" d="M82 0v46h156v439h-145v46h197v-485h147v-46h-355z"></glyph><glyph glyph-name="two.osf" d="M166 46h320v-46h-439v15l191 138q71 53 91 69q74 62 74 140q0 58 -36 95.5t-98 37.5q-63 0 -101 -39t-38 -94q0 -27 7 -55h-51q-8 30 -8 57q0 72 54 125t138 53q81 0 133 -49.5t52 -126.5q0 -73 -46 -126q-47 -56 -133 -116z"></glyph><glyph glyph-name="three.osf" d="M453 82q0 -97 -66.5 -156t-161.5 -59q-70 0 -125.5 35.5t-90.5 94.5l37 27q71 -110 180 -110q75 0 124.5 47.5t49.5 121.5q0 72 -49 113.5t-136 41.5h-51v17l187 230h-301v46h384v-16l-188 -232q83 -2 145 -55t62 -146z"></glyph><glyph glyph-name="four.osf" d="M509 46v-46h-101v-121h-51v121h-333v17l220 514h54l-208 -485h267v239h51v-239h101z"></glyph><glyph glyph-name="five.osf" d="M479 83q0 -96 -66.5 -156t-158.5 -60q-142 0 -220 130l36 27q71 -110 185 -110q74 0 122.5 47.5t48.5 121.5q0 73 -48.5 114.5t-135.5 41.5h-147v292h349v-46h-297v-208q45 7 106 7q98 0 162 -52t64 -149z"></glyph><glyph glyph-name="six.osf" d="M490 205q0 -90 -63 -152.5t-154 -62.5t-154 62.5t-63 153.5q0 50 18 91q19 39 60 100l13 20l164 243h62l-179 -262q38 20 83 20q89 0 151 -62t62 -151zM438 204q0 71 -47.5 119.5t-117.5 48.5t-118 -48.5t-48 -119.5q0 -72 48 -119.5t118 -47.5t117.5 48t47.5 119z"></glyph><glyph glyph-name="seven.osf" d="M33 531h431v-16l-345 -636h-56l331 606h-361v46z"></glyph><glyph glyph-name="eight.osf" d="M511 165q0 -77 -61.5 -126t-163.5 -49t-163.5 49.5t-61.5 126.5q0 122 170 181q-138 56 -138 165q0 74 55 116q56 42 138 42t138 -42q55 -42 55 -117q0 -110 -138 -164q170 -59 170 -182zM286 372q74 29 107.5 59.5t33.5 78.5q0 52 -39.5 83.5t-101.5 31.5t-102 -31.5 t-40 -83.5q0 -47 34 -78.5t108 -59.5zM458 166q-2 61 -42 93t-130 63q-90 -31 -130 -63t-42 -93q0 -60 46 -95.5t126 -35.5t126 35.5t46 95.5z"></glyph><glyph glyph-name="nine.osf" d="M490 327q0 -36 -11 -71q-10 -30 -28 -61q-10 -17 -53 -80l-159 -236h-61l176 256q-36 -21 -85 -21q-89 0 -151 62t-62 151q0 90 63 152.5t154 62.5t154 -62.5t63 -152.5zM438 328q0 72 -47.5 119.5t-117.5 47.5t-118 -48.5t-48 -118.5q0 -72 48 -120.5t118 -48.5 t117.5 48.5t47.5 120.5z"></glyph><glyph glyph-name="zero.osf.zero" d="M611 265q2 -112 -81.5 -194.5t-198.5 -80.5q-113 -3 -195.5 80t-80.5 195q-2 114 80.5 196.5t196.5 80.5q113 2 197 -81t82 -196zM157 119l322 323q-64 53 -147 53q-95 0 -160.5 -66.5t-65.5 -163.5q0 -82 51 -146zM560 265q0 81 -50 145l-322 -322q62 -51 144 -51 q94 0 161 66.5t67 161.5z"></glyph><glyph glyph-name="zero.tf" d="M55 336q0 152 56 243q55 91 169 91t169 -91q56 -91 56 -243t-56 -250q-55 -96 -169 -96t-170 96q-55 97 -55 250zM450 336q0 286 -170 286t-170 -286q0 -134 41 -216q41 -81 129 -81t129 81q41 82 41 216z"></glyph><glyph glyph-name="one.tf" d="M330 47h183v-47h-439v47h204v556l-191 -52l-13 45l235 64h21v-613z"></glyph><glyph glyph-name="two.tf" d="M159 47h351v-47h-447v15l239 248q66 69 94 115.5t28 95.5q0 61 -39.5 104.5t-104.5 43.5q-66 0 -107.5 -45.5t-41.5 -105.5q0 -29 7 -58h-54q-7 25 -7 60q0 78 56.5 137.5t145.5 59.5q87 0 143.5 -55.5t56.5 -137.5q0 -48 -19 -87q-17 -38 -41.5 -69.5t-79.5 -88.5z"></glyph><glyph glyph-name="three.tf" d="M479 205q0 -97 -66.5 -156t-160.5 -59q-136 0 -217 130l38 27q67 -108 180 -108q76 0 123 46q49 46 49 120q0 72 -48.5 113.5t-134.5 41.5h-56v17l191 236h-300v47h384v-17l-193 -237q85 0 148 -53t63 -148z"></glyph><glyph glyph-name="four.tf" d="M512 175v-46h-98v-129h-52v129h-331v17l216 514h54l-203 -485h264v238h52v-238h98z"></glyph><glyph glyph-name="five.tf" d="M497 205q0 -97 -66 -156t-159 -59q-73 0 -129 35t-92 94l37 27q69 -107 185 -107q74 0 122 46t48 120q0 73 -48 114t-135 41h-147v300h348v-47h-296v-212q51 6 106 6q98 0 162 -52t64 -150z"></glyph><glyph glyph-name="six.tf" d="M497 205q0 -90 -63 -152.5t-154 -62.5t-154 62.5t-63 153.5q0 53 19 92q19 40 60 100l13 19l164 243h61l-178 -262q38 20 82 20q88 0 150.5 -62t62.5 -151zM445 204q0 71 -47.5 119.5t-117.5 48.5t-117.5 -48.5t-47.5 -119.5q0 -72 47.5 -119.5t117.5 -47.5t117.5 48 t47.5 119z"></glyph><glyph glyph-name="seven.tf" d="M70 660h431v-17l-350 -643h-56l335 613h-360v47z"></glyph><glyph glyph-name="eight.tf" d="M504 165q0 -77 -61.5 -126t-162.5 -49t-162.5 49.5t-61.5 126.5q0 122 169 181q-138 56 -138 165q0 74 55 116q56 42 138 42t138 -42q55 -42 55 -117q0 -109 -138 -163q169 -61 169 -183zM280 372q74 30 107.5 60t33.5 78q0 53 -39 84t-102 31q-62 0 -101.5 -31.5 t-39.5 -83.5q0 -47 34 -78.5t107 -59.5zM452 166q-2 60 -41 91.5t-131 64.5q-90 -31 -130 -63t-42 -93q0 -60 46 -95.5t126 -35.5t126 35.5t46 95.5z"></glyph><glyph glyph-name="nine.tf" d="M497 454q0 -50 -20 -93q-22 -45 -59 -99l-13 -19l-164 -243h-61l180 263q-38 -20 -84 -20q-89 0 -151 61.5t-62 150.5q0 90 63 152.5t154 62.5t154 -62.5t63 -153.5zM445 456q0 72 -47.5 119.5t-117.5 47.5t-117.5 -47.5t-47.5 -119.5q0 -71 47.5 -119.5t117.5 -48.5 t117.5 48.5t47.5 119.5z"></glyph><glyph glyph-name="zero.tf.zero" d="M505 336q0 -152 -56 -250q-55 -96 -169 -96t-170 96q-55 97 -55 250q0 152 56 243q55 91 169 91t169 -91q56 -91 56 -243zM108 336q0 -72 12 -132l307 307q-42 112 -147 112q-172 0 -172 -287zM452 336q0 70 -12 127l-306 -307q39 -119 146 -119q90 0 130 82 q42 83 42 217z"></glyph><glyph glyph-name="zero.tosf" d="M33 265q-2 116 70 197.5t177 79.5q107 0 177.5 -80t70.5 -197t-71 -196t-178 -79q-106 0 -176 79t-70 196zM475 265q0 100 -54 164.5t-141 64.5q-88 0 -141.5 -64.5t-53.5 -164.5q0 -99 53.5 -163.5t140.5 -64.5q88 0 142 64.5t54 163.5z"></glyph><glyph glyph-name="one.tosf" d="M66 0v46h203v439h-184v46h236v-485h185v-46h-440z"></glyph><glyph glyph-name="two.tosf" d="M163 46h321v-46h-439v15l190 138q50 36 90 70q76 67 76 142q0 57 -36 93t-97 36q-64 0 -102 -38t-38 -95q0 -26 7 -54h-51q-8 30 -8 57q0 72 54 125t138 53q81 0 133 -49.5t52 -125.5q0 -49 -23 -92q-22 -39 -57.5 -71.5t-100.5 -79.5z"></glyph><glyph glyph-name="three.tosf" d="M479 83q0 -97 -66.5 -156.5t-160.5 -59.5q-136 0 -217 130l38 27q69 -110 180 -110q75 0 124 47.5t49 121.5q0 72 -49 113.5t-135 41.5h-51v17l187 230h-301v46h384v-16l-189 -232q85 -3 146 -56t61 -144z"></glyph><glyph glyph-name="four.tosf" d="M504 46v-46h-98v-121h-52v121h-331v17l214 514h54l-202 -485h265v239h52v-239h98z"></glyph><glyph glyph-name="five.tosf" d="M497 83q0 -96 -66 -156t-158 -60q-140 0 -221 130l37 27q71 -110 185 -110q73 0 122 47.5t49 121.5q0 73 -48.5 114.5t-135.5 41.5h-147v292h348v-46h-296v-208q45 7 105 7q98 0 162 -52t64 -149z"></glyph></font>
</defs>
</svg>
