<?xml version="1.0" encoding="UTF-8" standalone="no"?> <svg xmlns="http://www.w3.org/2000/svg" xmlns:xlink="http://www.w3.org/1999/xlink" version="1.1"><metadata> Created by FontForge 20190801 at Thu May 24 21:11:36 2018 By Jimmy Wärting Copyright (c) 2015, 2018 by Jakob Runge, under exclusive license to TypeMates. All rights reserved. </metadata><defs><font id="CeraPro-Regular"><glyph glyph-name="fi" unicode="fi" d="M174 598v-111h122v-69h-122v-418h-77v418h-70v69h70v116q0 78 42.5 118t118.5 40q31 0 61 -8v-65q-24 3 -43 3q-51 0 -76.5 -21.5t-25.5 -71.5zM403 0v487h77v-487h-77zM384 673q0 23 17 39.5t41 16.5q23 0 40 -16.5t17 -39.5q0 -24 -16.5 -40t-40.5 -16t-41 16t-17 40z "></glyph><glyph glyph-name="fl" unicode="fl" d="M174 598v-111h122v-69h-122v-418h-77v418h-70v69h70v116q0 78 42.5 118t118.5 40q31 0 61 -8v-65q-24 3 -43 3q-51 0 -76.5 -21.5t-25.5 -71.5zM403 0v750h77v-750h-77z"></glyph><glyph glyph-name=".notdef" d="M91 660h525v-660h-525v660zM558 52v555h-411z"></glyph><glyph glyph-name=".null"></glyph><glyph glyph-name="nonmarkingreturn"></glyph><glyph glyph-name="space" unicode=" "></glyph><glyph glyph-name="exclam" unicode="!" d="M120 209l-15 451h93l-14 -451h-64zM89 52q0 27 18.5 45t44.5 18q27 0 45 -18t18 -45t-18 -45t-45 -18q-26 0 -44.5 18t-18.5 45z"></glyph><glyph glyph-name="quotedbl" unicode="&quot;" d="M94 403l14 257h90l-43 -257h-61zM277 403l14 257h90l-43 -257h-61z"></glyph><glyph glyph-name="numbersign" unicode="#" d="M569 421h-97l-24 -182h98v-66h-107l-24 -173h-65l23 173h-191l-24 -173h-65l23 173h-88v66h97l24 182h-97v66h106l23 173h67l-24 -173h191l23 173h67l-24 -173h88v-66zM191 239h191l24 182h-191z"></glyph><glyph glyph-name="dollar" unicode="$" d="M306 23v-117h-77v118q-120 17 -189 137l56 40q68 -111 176 -111q55 0 89 25.5t34 69.5q0 34 -23.5 57t-77.5 48l-71 30q-69 29 -104 66.5t-35 94.5q0 59 40 99.5t105 50.5v119h77v-117q99 -14 154 -107l-53 -41q-52 80 -135 80q-47 0 -78.5 -21.5t-31.5 -61.5 q0 -34 20.5 -54t72.5 -45l73 -30q73 -30 109 -70t36 -97q0 -66 -46 -110t-121 -53z"></glyph><glyph glyph-name="percent" unicode="%" d="M66 510q0 67 48 114t116 47q67 0 115 -47t48 -114t-48 -114t-115 -47q-68 0 -116 47t-48 114zM198 0l378 660h69l-378 -660h-69zM329 510q0 44 -28 74t-71 30t-71 -29.5t-28 -74.5t28 -74.5t71 -29.5t71 30t28 74zM450 151q0 67 47 114t115 47t116 -47t48 -114t-48 -114 t-116 -47t-115 47t-47 114zM711 151q0 45 -28 74.5t-70 29.5q-43 0 -71 -29.5t-28 -74.5q0 -44 28 -73.5t71 -29.5q42 0 70 29.5t28 73.5z"></glyph><glyph glyph-name="ampersand" unicode="&amp;" d="M602 292l-11 -17q-55 -84 -100 -145l109 -130h-94l-63 75q-86 -86 -191 -86q-88 0 -145 49t-57 123q0 53 33 99q34 46 116 107q-38 49 -54.5 84.5t-16.5 74.5q0 65 40.5 105t106.5 40q63 0 104 -39q41 -38 41 -97q0 -85 -118 -177l140 -168q30 42 65 97l31 47zM204 526 q0 -48 56 -117q46 37 65 65t19 58q0 32 -18.5 50t-50.5 18q-71 0 -71 -74zM395 133l-151 181q-70 -55 -91 -82t-21 -64q0 -47 34.5 -77t87.5 -30q75 0 141 72z"></glyph><glyph glyph-name="quotesingle" unicode="'" d="M94 403l14 257h90l-43 -257h-61z"></glyph><glyph glyph-name="parenleft" unicode="(" d="M78 301q0 184 55 287q56 106 139 146l33 -53q-151 -97 -151 -380q0 -285 151 -379l-33 -53q-83 40 -139 145q-55 104 -55 287z"></glyph><glyph glyph-name="parenright" unicode=")" d="M62 -131l-34 53q152 95 152 379q0 281 -152 380l34 53q82 -40 138 -146q55 -103 55 -287t-55 -287q-56 -105 -138 -145z"></glyph><glyph glyph-name="asterisk" unicode="*" d="M364 644l-94 -64l94 -64l-25 -41l-102 49l-8 -113h-48l-9 113l-102 -49l-24 41l94 64l-94 64l24 42l102 -49l9 113h48l8 -113l102 49z"></glyph><glyph glyph-name="plus" unicode="+" d="M244 88v193h-188v68h188v190h76v-190h183v-68h-183v-193h-76z"></glyph><glyph glyph-name="comma" unicode="," d="M90 -179l13 269h91l-41 -269h-63z"></glyph><glyph glyph-name="hyphen" unicode="-" d="M53 282v65h239v-65h-239z"></glyph><glyph glyph-name="period" unicode="." d="M77 52q0 27 18.5 45t44.5 18t44.5 -18t18.5 -45t-18.5 -45t-44.5 -18t-44.5 18t-18.5 45z"></glyph><glyph glyph-name="slash" unicode="/" d="M7 -121l523 901h91l-523 -901h-91z"></glyph><glyph glyph-name="zero" unicode="0" d="M66 336q0 152 61 243q62 92 181 92q120 0 180 -92q61 -91 61 -243t-60 -250q-60 -97 -181 -97t-182 97q-60 98 -60 250zM468 335q0 264 -160 264q-161 0 -161 -264q0 -130 40 -202t121 -72t120.5 72t39.5 202z"></glyph><glyph glyph-name="one" unicode="1" d="M242 660h29v-660h-78v568l-144 -45l-19 67z"></glyph><glyph glyph-name="two" unicode="2" d="M195 70h311v-70h-459v20l235 250q64 67 90 109.5t26 87.5q0 56 -35 94t-92 38q-60 0 -96 -40q-36 -41 -36 -96q0 -28 6 -55h-80q-7 25 -7 58q0 82 60 143.5t153 61.5q90 0 149 -57.5t59 -142.5q0 -47 -19 -88q-18 -39 -44 -73t-75 -86z"></glyph><glyph glyph-name="three" unicode="3" d="M484 209q0 -97 -68.5 -158.5t-165.5 -61.5q-73 0 -131.5 37.5t-92.5 99.5l55 39q71 -104 168 -104q68 0 111 40.5t43 106.5q0 64 -43.5 100t-123.5 36h-65v23l173 221h-273v72h396v-23l-175 -225q80 -8 136 -61.5t56 -141.5z"></glyph><glyph glyph-name="four" unicode="4" d="M526 191v-68h-96v-123h-78v123h-331v22l217 515h80l-198 -469h232v220h78v-220h96z"></glyph><glyph glyph-name="five" unicode="5" d="M501 209q0 -97 -69 -158.5t-165 -61.5q-76 0 -134.5 36.5t-93.5 99.5l54 40q68 -104 173 -104q67 0 110.5 41t43.5 106t-43.5 101t-124.5 36h-149v315h361v-70h-283v-185q50 8 94 8q97 0 161.5 -53t64.5 -151z"></glyph><glyph glyph-name="six" unicode="6" d="M500 211q0 -94 -65.5 -158t-159.5 -64t-159.5 64t-65.5 159q0 50 18 91q22 45 59 99q4 5 8.5 11.5t5.5 8.5l164 238h93l-168 -242q24 9 55 9q88 0 151.5 -63t63.5 -153zM423 211q0 62 -43 106t-105 44t-105 -44t-43 -106q0 -63 43 -107t105 -44t105 44t43 107z"></glyph><glyph glyph-name="seven" unicode="7" d="M35 660h441v-23l-334 -637h-85l314 590h-336v70z"></glyph><glyph glyph-name="eight" unicode="8" d="M520 168q0 -80 -63.5 -129.5t-167.5 -49.5t-168.5 50t-64.5 130q0 121 157 176q-126 58 -126 162q0 77 57 120q59 44 145 44q84 0 142 -44q58 -43 58 -120q0 -105 -126 -161q157 -58 157 -178zM288 382q66 26 95 53.5t29 68.5q0 46 -34 73t-89 27q-56 0 -90.5 -27 t-34.5 -73q0 -40 29 -67t95 -55zM441 171q0 49 -35.5 79t-116.5 59q-81 -29 -117.5 -59.5t-36.5 -78.5q0 -52 41 -83.5t113 -31.5t112 31t40 84z"></glyph><glyph glyph-name="nine" unicode="9" d="M500 448q0 -38 -12 -73q-10 -32 -27 -58q-16 -27 -52 -79l-164 -238h-92l168 242q-24 -9 -56 -9q-87 0 -151 63t-64 153q0 94 66 158t160 64q93 0 158.5 -64.5t65.5 -158.5zM423 450q0 64 -42 107t-105 43t-106 -43t-43 -107q0 -63 43 -107t106 -44t105 44t42 107z"></glyph><glyph glyph-name="colon" unicode=":" d="M77 429q0 27 18.5 45t44.5 18t44.5 -18t18.5 -45t-18.5 -45t-44.5 -18t-44.5 18t-18.5 45zM77 52q0 27 18.5 45t44.5 18t44.5 -18t18.5 -45t-18.5 -45t-44.5 -18t-44.5 18t-18.5 45z"></glyph><glyph glyph-name="semicolon" unicode=";" d="M77 429q0 27 18.5 45t44.5 18t44.5 -18t18.5 -45t-18.5 -45t-44.5 -18t-44.5 18t-18.5 45zM90 -179l13 269h91l-41 -269h-63z"></glyph><glyph glyph-name="less" unicode="&lt;" d="M490 514v-72l-302 -127l302 -126v-73l-438 187v24z"></glyph><glyph glyph-name="equal" unicode="=" d="M66 384v69h428v-69h-428zM66 177v68h428v-68h-428z"></glyph><glyph glyph-name="greater" unicode="&gt;" d="M70 514l439 -187v-24l-439 -187v73l302 126l-302 127v72z"></glyph><glyph glyph-name="question" unicode="?" d="M162 253q0 32 18 57.5t62 65.5q45 42 61 65q17 25 17 58q0 44 -28 72.5t-70 28.5q-82 0 -112 -96l-65 27q20 67 66.5 103.5t112.5 36.5q73 0 124.5 -48t51.5 -119q0 -44 -22.5 -80.5t-72.5 -81.5q-42 -39 -56.5 -58.5t-14.5 -42.5q0 -7 5 -32h-67q-10 19 -10 44zM147 52 q0 26 19 44.5t44 18.5q27 0 45.5 -18t18.5 -45t-18.5 -45t-45.5 -18q-25 0 -44 18.5t-19 44.5z"></glyph><glyph glyph-name="at" unicode="@" d="M874 286q0 -116 -71 -183t-185 -67h-24v65q-23 -36 -63.5 -56t-88.5 -20q-85 0 -142 61.5t-57 151.5t57 151t143 61q95 0 145 -66v58h72v-338q67 5 105.5 52.5t38.5 129.5q2 129 -92.5 218t-236.5 87q-151 2 -254 -97.5t-101 -246.5q-2 -147 101 -247t248 -98 q70 0 130 22l14 -60q-69 -27 -151 -27q-111 -2 -207.5 52.5t-152.5 150t-54 206.5q-2 113 55.5 209t156.5 150t213 52q167 3 285.5 -108.5t115.5 -262.5zM584 239q0 67 -36.5 104.5t-92.5 37.5q-57 0 -95 -40t-38 -103q0 -61 38 -102q37 -40 95 -40q55 0 92 38t37 105z"></glyph><glyph glyph-name="A" unicode="A" d="M549 0l-56 134h-324l-56 -134h-82l286 671h29l286 -671h-83zM463 204l-132 325l-132 -325h264z"></glyph><glyph glyph-name="B" unicode="B" d="M572 190q0 -84 -57 -137t-152 -53h-272v660h227q85 0 137 -47q51 -47 51 -120q0 -81 -63 -130q61 -18 95 -63.5t34 -109.5zM310 590h-141v-205h141q56 0 86 27.5t30 75.5t-30 75t-86 27zM492 192q0 56 -36.5 89t-100.5 33h-186v-244h186q64 0 100.5 33t36.5 89z"></glyph><glyph glyph-name="C" unicode="C" d="M48 330q-3 141 99.5 242t243.5 99q87 0 159.5 -38t114.5 -104l-58 -46q-81 116 -215 116q-112 0 -187.5 -77t-75.5 -192t75.5 -192t187.5 -77q134 0 215 116l58 -46q-42 -66 -114.5 -104t-159.5 -38q-141 -2 -243.5 99t-99.5 242z"></glyph><glyph glyph-name="D" unicode="D" d="M91 0v660h196q164 0 261.5 -91.5t97.5 -237.5q0 -145 -98 -238t-261 -93h-196zM169 70h117q128 0 203.5 73t75.5 188q0 116 -75 187.5t-204 71.5h-117v-520z"></glyph><glyph glyph-name="E" unicode="E" d="M91 0v660h423v-70h-345v-202h264v-70h-264v-248h357v-70h-435z"></glyph><glyph glyph-name="F" unicode="F" d="M91 0v660h413v-70h-335v-227h278v-71h-278v-292h-78z"></glyph><glyph glyph-name="G" unicode="G" d="M48 330q-2 142 99.5 242.5t243.5 98.5q83 0 153 -35.5t116 -99.5l-59 -46q-81 109 -210 109q-112 2 -188 -77t-74 -191q-2 -114 75.5 -194t190.5 -78q71 0 128.5 31.5t91.5 86.5v89h-225v70h303v-176q-44 -78 -125 -125q-79 -46 -177 -46q-142 -2 -243.5 98.5 t-99.5 242.5z"></glyph><glyph glyph-name="H" unicode="H" d="M91 0v660h78v-272h370v272h78v-660h-78v318h-370v-318h-78z"></glyph><glyph glyph-name="I" unicode="I" d="M91 0v660h78v-660h-78z"></glyph><glyph glyph-name="J" unicode="J" d="M24 0v67q40 -6 72 -6q56 0 82.5 22.5t26.5 76.5v500h78v-507q0 -82 -45 -123t-127 -41q-37 0 -87 11z"></glyph><glyph glyph-name="K" unicode="K" d="M91 0v660h78v-660h-78zM280 354l322 -354h-99l-325 354l297 306h100z"></glyph><glyph glyph-name="L" unicode="L" d="M91 0v660h78v-590h313v-70h-391z"></glyph><glyph glyph-name="M" unicode="M" d="M671 671h27v-671h-78v473l-211 -286h-28l-212 288v-475h-78v671h28l275 -381z"></glyph><glyph glyph-name="N" unicode="N" d="M539 660h78v-671h-28l-420 506v-495h-78v671h28l420 -507v496z"></glyph><glyph glyph-name="O" unicode="O" d="M48 330q-3 141 99 242t243 99q140 2 243 -99t100 -242q3 -141 -100 -242t-243 -99q-140 -3 -242.5 99t-99.5 242zM652 331q2 112 -75 191t-186 77q-112 0 -187 -76.5t-75 -191.5t75 -192.5t187 -77.5q109 -2 186 77.5t75 192.5z"></glyph><glyph glyph-name="P" unicode="P" d="M91 0v660h232q95 0 153 -53.5t58 -137.5q0 -85 -58 -139t-153 -54h-154v-276h-78zM169 346h152q62 0 97 33t35 89q0 55 -35 88.5t-97 33.5h-152v-244z"></glyph><glyph glyph-name="Q" unicode="Q" d="M1040 -131v-62q-53 -10 -106 -10q-260 0 -414 217q-60 -25 -130 -25q-140 -3 -242.5 99t-99.5 242q-3 141 99 242t243 99q140 2 243 -99t100 -242q0 -87 -39.5 -161t-109.5 -122q138 -183 360 -183q34 0 96 5zM391 61q109 -2 186 77.5t75 191.5q0 115 -75 192t-187 77 t-186.5 -76.5t-74.5 -191.5t75 -192.5t187 -77.5z"></glyph><glyph glyph-name="R" unicode="R" d="M606 0h-91l-205 277h-141v-277h-78v660h232q95 0 153 -53.5t58 -137.5q0 -67 -37 -115.5t-102 -67.5zM169 590v-243h151q63 0 98 32.5t35 88.5q0 55 -35.5 88.5t-97.5 33.5h-151z"></glyph><glyph glyph-name="S" unicode="S" d="M41 131l58 43q74 -113 184 -113q60 0 96.5 30t36.5 80q0 42 -23.5 63.5t-86.5 52.5l-74 35q-75 35 -112 75t-37 102q0 76 58 124t141 48q65 0 119.5 -30.5t87.5 -81.5l-57 -43q-56 83 -151 83q-50 0 -83.5 -26t-33.5 -70q0 -29 13 -48q12 -18 31 -30t62 -33l73 -35 q81 -40 117.5 -81t36.5 -103q0 -81 -60 -132.5t-153 -51.5q-76 0 -140 37.5t-103 104.5z"></glyph><glyph glyph-name="T" unicode="T" d="M251 0v590h-232v70h543v-70h-233v-590h-78z"></glyph><glyph glyph-name="U" unicode="U" d="M82 262v398h78v-403q0 -94 50.5 -145t134.5 -51q83 0 133 51t50 145v403h78v-398q0 -127 -72.5 -200t-188.5 -73q-118 0 -190.5 73t-72.5 200z"></glyph><glyph glyph-name="V" unicode="V" d="M546 660h86l-286 -671h-29l-286 671h86l215 -518z"></glyph><glyph glyph-name="W" unicode="W" d="M935 660h85l-250 -671h-28l-209 524l-209 -524h-28l-251 671h86l182 -503l206 514h28l206 -513z"></glyph><glyph glyph-name="X" unicode="X" d="M569 0h-91l-178 271l-179 -271h-91l227 338l-211 322h90l164 -257l163 257h90l-208 -323z"></glyph><glyph glyph-name="Y" unicode="Y" d="M576 660l-229 -387v-273h-78v273l-229 387h88l180 -310l181 310h87z"></glyph><glyph glyph-name="Z" unicode="Z" d="M154 70h401v-70h-523v23l398 567h-355v70h479v-23z"></glyph><glyph glyph-name="bracketleft" unicode="[" d="M101 -131v860h191v-68h-116v-722h116v-70h-191z"></glyph><glyph glyph-name="backslash" unicode="\" d="M530 -121l-523 901h91l523 -901h-91z"></glyph><glyph glyph-name="bracketright" unicode="]" d="M50 -131v70h117v722h-117v68h191v-860h-191z"></glyph><glyph glyph-name="asciicircum" unicode="^" d="M452 284h-80l-116 248l-116 -248h-80l182 386h28z"></glyph><glyph glyph-name="underscore" unicode="_" d="M43 -140v65h419v-65h-419z"></glyph><glyph glyph-name="grave" unicode="`" d="M330 566l-120 200v14h94l85 -214h-59z"></glyph><glyph glyph-name="a" unicode="a" d="M450 300v-300h-72v63q-56 -74 -164 -74q-76 0 -123 37.5t-47 99.5t48 99t127 37h154v42q0 59 -31.5 91t-86.5 32q-82 0 -142 -78l-51 42q65 107 198 107q88 0 139 -51.5t51 -146.5zM373 187v12h-145q-105 0 -105 -69q0 -36 28.5 -56.5t72.5 -20.5q61 0 105 39t44 95z"></glyph><glyph glyph-name="b" unicode="b" d="M582 243q0 -108 -69 -181t-171 -73q-57 0 -107 23.5t-78 64.5v-77h-72v750h77v-334q29 38 76.5 60t102.5 22q102 0 171.5 -73.5t69.5 -181.5zM503 244q0 79 -49.5 131t-123.5 52q-72 0 -120.5 -47.5t-48.5 -136.5q0 -87 49.5 -135t119.5 -48q74 0 123.5 52.5t49.5 131.5z "></glyph><glyph glyph-name="c" unicode="c" d="M50 244q-2 104 74 180t181 74q63 0 115 -28t86 -78l-55 -44q-58 79 -145 79q-75 0 -126 -53.5t-51 -129.5q0 -77 51 -130.5t126 -53.5q86 0 144 78l55 -43q-72 -106 -200 -106q-106 0 -180.5 74.5t-74.5 180.5z"></glyph><glyph glyph-name="d" unicode="d" d="M471 750h77v-750h-73v77q-28 -41 -77.5 -64.5t-106.5 -23.5q-103 0 -172 73.5t-69 180.5q0 108 69.5 181.5t171.5 73.5q55 0 103 -22t77 -61v335zM472 243q0 88 -49.5 136t-120.5 48q-74 0 -123.5 -52t-49.5 -131t49.5 -131.5t123.5 -52.5q71 0 120.5 48t49.5 135z"></glyph><glyph glyph-name="e" unicode="e" d="M515 220h-385q7 -72 57 -116t122 -44q83 0 149 66l45 -52q-82 -85 -195 -85q-109 0 -183.5 73.5t-74.5 180.5q0 106 72.5 180.5t176.5 74.5q95 0 158.5 -62t63.5 -158q0 -28 -6 -58zM133 288h309q-1 64 -42 102t-103 38q-61 0 -106 -38.5t-58 -101.5z"></glyph><glyph glyph-name="f" unicode="f" d="M174 598v-111h122v-69h-122v-418h-77v418h-70v69h70v116q0 78 42.5 118t118.5 40q31 0 61 -8v-65q-24 3 -43 3q-51 0 -76.5 -21.5t-25.5 -71.5z"></glyph><glyph glyph-name="g" unicode="g" d="M480 487h73v-440q0 -110 -64 -174t-173 -64q-135 0 -229 94l45 54q88 -77 182 -77q76 0 119 42.5t43 120.5v43q-29 -38 -77.5 -59.5t-103.5 -21.5q-103 0 -171 70t-68 176q0 105 68.5 176t170.5 71q58 0 107.5 -23.5t77.5 -65.5v78zM477 251q0 83 -49.5 128.5 t-120.5 45.5q-75 0 -124 -49.5t-49 -125.5q0 -77 49 -125.5t124 -48.5q72 0 121 45.5t49 129.5z"></glyph><glyph glyph-name="h" unicode="h" d="M488 306v-306h-77v296q0 60 -32.5 95.5t-88.5 35.5t-92 -37t-36 -94v-296h-77v750h77v-318q53 66 146 66q83 0 131.5 -52.5t48.5 -139.5z"></glyph><glyph glyph-name="i" unicode="i" d="M85 0v487h77v-487h-77zM66 673q0 23 17 39.5t41 16.5q23 0 40 -16.5t17 -39.5q0 -24 -16.5 -40t-40.5 -16t-41 16t-17 40z"></glyph><glyph glyph-name="j" unicode="j" d="M-60 -183v65q26 -3 45 -3q50 0 75 22t25 71v515h77v-520q0 -78 -42.5 -118t-117.5 -40q-32 0 -62 8zM66 673q0 23 17 39.5t41 16.5q23 0 40 -16.5t17 -39.5q0 -24 -16.5 -40t-40.5 -16t-41 16t-17 40z"></glyph><glyph glyph-name="k" unicode="k" d="M85 0v750h77v-750h-77zM263 273l230 -273h-99l-224 274l203 213h101z"></glyph><glyph glyph-name="l" unicode="l" d="M85 0v750h77v-750h-77z"></glyph><glyph glyph-name="m" unicode="m" d="M796 306v-306h-77v296q0 60 -30.5 95.5t-84.5 35.5t-89.5 -36t-35.5 -88v-303h-77v296q0 59 -31.5 95t-84.5 36q-55 0 -89.5 -36.5t-34.5 -94.5v-296h-77v487h72v-51q54 62 145 62q106 0 150 -84q59 84 167 84q83 0 130 -52t47 -140z"></glyph><glyph glyph-name="n" unicode="n" d="M488 306v-306h-77v297q0 58 -32.5 94t-88.5 36t-92 -36.5t-36 -93.5v-297h-77v487h72v-52q57 63 150 63q84 0 132.5 -52.5t48.5 -139.5z"></glyph><glyph glyph-name="o" unicode="o" d="M50 244q-2 104 74.5 180t180.5 74q105 2 181 -74t74 -180q2 -103 -75 -179.5t-181 -74.5q-104 -2 -180 74.5t-74 179.5zM481 243q0 78 -50.5 131t-125.5 53t-125.5 -52.5t-50.5 -131.5q0 -77 50.5 -129.5t124.5 -52.5t125.5 53t51.5 129z"></glyph><glyph glyph-name="p" unicode="p" d="M582 244q0 -108 -69.5 -181.5t-171.5 -73.5q-115 0 -179 81v-250h-77v667h72v-78q28 42 77 65.5t107 23.5q104 0 172.5 -73t68.5 -181zM503 243q0 79 -49.5 131.5t-123.5 52.5q-70 0 -119.5 -48t-49.5 -135q0 -89 48.5 -136.5t120.5 -47.5q74 0 123.5 52t49.5 131z"></glyph><glyph glyph-name="q" unicode="q" d="M475 487h73v-667h-77v251q-29 -39 -77 -60.5t-103 -21.5q-102 0 -171.5 73.5t-69.5 181.5q0 107 69 180.5t172 73.5q58 0 107 -23.5t77 -65.5v78zM472 244q0 87 -49.5 135t-120.5 48q-74 0 -123.5 -52.5t-49.5 -131.5t49.5 -131t123.5 -52q71 0 120.5 48t49.5 136z"></glyph><glyph glyph-name="r" unicode="r" d="M344 487v-68h-29q-64 0 -108.5 -39t-44.5 -104v-276h-77v487h72v-69q54 73 151 73q19 0 36 -4z"></glyph><glyph glyph-name="s" unicode="s" d="M39 84l49 51q38 -39 69.5 -57t70.5 -18q41 0 67 18.5t26 50.5q0 28 -18.5 43.5t-66.5 34.5l-47 20q-63 26 -92 57t-29 78q0 62 46.5 99t117.5 37q99 0 163 -77l-47 -48q-54 54 -120 54q-37 0 -59 -16t-22 -45q0 -23 16.5 -37.5t62.5 -33.5l45 -19q70 -30 99.5 -62.5 t29.5 -81.5q0 -68 -50 -106q-49 -37 -121 -37q-117 0 -190 95z"></glyph><glyph glyph-name="t" unicode="t" d="M351 65v-65q-49 -11 -81 -11q-78 0 -121 40t-43 118v271h-82v69h82v133h77v-133h152v-69h-152v-266q0 -50 25.5 -71.5t77.5 -21.5q28 0 65 6z"></glyph><glyph glyph-name="u" unicode="u" d="M79 194v293h76v-298q0 -58 35.5 -93.5t90.5 -35.5q54 0 89 36t35 93v298h77v-293q0 -91 -57.5 -148t-143.5 -57q-87 0 -144.5 57t-57.5 148z"></glyph><glyph glyph-name="v" unicode="v" d="M431 487h82l-229 -498h-28l-230 498h82l162 -367z"></glyph><glyph glyph-name="w" unicode="w" d="M742 487h82l-205 -498h-28l-166 368l-165 -368h-27l-207 498h82l141 -361l162 372h29l164 -369z"></glyph><glyph glyph-name="x" unicode="x" d="M476 0h-89l-139 200l-138 -200h-90l181 254l-166 233h89l124 -179l125 179h89l-169 -233z"></glyph><glyph glyph-name="y" unicode="y" d="M431 487h82l-240 -555q-54 -123 -165 -123q-39 0 -75 10v65q42 -5 59 -5q40 0 66 17.5t44 60.5l26 58l-202 472h83l161 -388z"></glyph><glyph glyph-name="z" unicode="z" d="M145 68h282v-68h-400v23l278 395h-255v69h374v-23z"></glyph><glyph glyph-name="braceleft" unicode="{" d="M219 577q0 -35 13 -97q12 -70 12 -96q0 -61 -53 -85q53 -24 53 -85q0 -25 -12 -95q-13 -62 -13 -98q0 -84 78 -84h49v-68h-63q-138 0 -138 133q0 45 15 122q11 64 11 83q0 58 -61 58h-57v68h57q61 0 61 58q0 20 -11 83q-15 77 -15 122q0 133 138 133h63v-68h-49 q-78 0 -78 -84z"></glyph><glyph glyph-name="bar" unicode="|" d="M133 -121v901h66v-901h-66z"></glyph><glyph glyph-name="braceright" unicode="}" d="M287 333h57v-68h-57q-61 0 -61 -58q0 -19 11 -83l8 -52q6 -41 6 -70q0 -133 -137 -133h-64v68h50q78 0 78 84q0 36 -13 98q-12 70 -12 95q0 61 53 85q-53 24 -53 85q0 26 12 96q13 62 13 97q0 84 -78 84h-50v68h64q137 0 137 -133q0 -30 -6 -71l-8 -51q-11 -63 -11 -83 q0 -58 61 -58z"></glyph><glyph glyph-name="asciitilde" unicode="~" d="M319 250l-94 57q-44 26 -61 26q-18 0 -28.5 -12.5t-10.5 -32.5v-29h-63l-1 37q0 45 26.5 76t68.5 31q40 0 84 -27l94 -57q42 -25 62 -25q18 0 28 12.5t10 31.5v29h63q0 -7 0.5 -16t1 -13.5t0.5 -7.5q0 -46 -26.5 -76t-70.5 -30q-39 0 -83 26z"></glyph><glyph glyph-name="uni00A0" unicode=" "></glyph><glyph glyph-name="exclamdown" unicode="¡" d="M89 435q0 27 18.5 45t44.5 18q27 0 45 -18t18 -45q0 -28 -18 -45.5t-45 -17.5t-45 18t-18 45zM105 -180l15 458h64l15 -458h-94z"></glyph><glyph glyph-name="cent" unicode="¢" d="M437 223l53 -44q-63 -93 -173 -105v-168h-77v172q-88 17 -146 88t-58 162q0 92 58 162t146 87v173h77v-169q111 -12 174 -105l-53 -43q-58 78 -146 78q-75 0 -126 -53.5t-51 -129.5q0 -77 51 -130.5t126 -53.5q87 0 145 79z"></glyph><glyph glyph-name="sterling" unicode="£" d="M208 68h276v-68h-427v20q133 82 133 191q0 17 -3 33h-120v68h96l-19 37q-26 49 -36.5 79.5t-10.5 67.5q0 78 53.5 126.5t137.5 48.5q76 0 129 -42.5t75 -120.5l-69 -26q-37 117 -131 117q-53 0 -84 -32.5t-31 -82.5q0 -28 8.5 -51t33.5 -71q17 -30 26 -50h159v-68h-138 q2 -26 2 -32q0 -89 -60 -144z"></glyph><glyph glyph-name="currency" unicode="¤" d="M506 192l110 -110l-46 -46l-112 111q-61 -43 -138 -43q-74 0 -135 42l-111 -110l-47 46l110 111q-47 59 -47 137q0 77 47 139l-110 110l47 46l111 -111q62 42 136 42q77 0 136 -42l112 111l47 -46l-110 -110q48 -62 48 -139q0 -76 -48 -138zM475 329q0 67 -44.5 112 t-109.5 45t-108.5 -45t-43.5 -112q0 -65 43 -109.5t108 -44.5q66 0 110.5 44.5t44.5 109.5z"></glyph><glyph glyph-name="yen" unicode="¥" d="M544 660l-210 -300h177v-68h-195v-92h195v-69h-195v-131h-78v131h-194v69h194v92h-194v68h175l-210 300h88l180 -259l180 259h87z"></glyph><glyph glyph-name="brokenbar" unicode="¦" d="M133 480v300h66v-300h-66zM133 -121v300h66v-300h-66z"></glyph><glyph glyph-name="section" unicode="§" d="M418 37q1 -3 1 -13q0 -62 -44 -102.5t-117 -40.5q-103 0 -170 88l57 47q53 -63 117 -63q36 0 57 17.5t21 50.5q0 31 -17 54.5t-61 58.5l-17 14l-106 87q-56 46 -80 81t-24 76q0 49 33.5 82.5t91.5 43.5q-1 3 -1 14q0 60 44.5 101t117.5 41q103 0 170 -88l-57 -46 q-57 63 -117 63q-36 0 -57.5 -18t-21.5 -50q0 -31 17 -54t61 -58l18 -15l105 -88q55 -45 79.5 -80t24.5 -76q0 -50 -33.5 -83.5t-91.5 -43.5zM465 165q0 22 -16 41q-18 23 -61 58l-106 88q-76 62 -102 105q-66 -18 -66 -67q0 -22 15 -42q19 -22 62 -57l105 -87 q77 -62 102 -106q67 18 67 67z"></glyph><glyph glyph-name="dieresis" unicode="¨" d="M138 673q0 21 17 37.5t38 16.5q23 0 39.5 -16t16.5 -38t-16.5 -37.5t-39.5 -15.5q-21 0 -38 16t-17 37zM350 673q0 22 17 38t39 16q23 0 39 -16t16 -38t-16 -37.5t-39 -15.5q-22 0 -39 16t-17 37z"></glyph><glyph glyph-name="copyright" unicode="©" d="M48 330q-3 140 100.5 241.5t241.5 99.5q139 2 242.5 -99.5t100.5 -241.5q3 -140 -100.5 -241.5t-242.5 -99.5q-139 -2 -242.5 99.5t-99.5 241.5zM673 330q2 121 -82.5 204.5t-200.5 81.5q-116 2 -200 -81.5t-82 -204.5q-2 -121 82 -204.5t200 -81.5q116 -2 200 81.5 t83 204.5zM209 330q0 81 55.5 136.5t136.5 55.5q92 0 151 -78l-49 -42q-42 55 -101 55q-52 0 -86.5 -36.5t-34.5 -90.5q0 -53 34 -90q35 -36 86 -36q61 0 102 54l49 -42q-59 -77 -152 -77q-80 0 -135.5 55t-55.5 136z"></glyph><glyph glyph-name="ordfeminine" unicode="ª" d="M297 432v-188h-61v31q-35 -38 -96 -38q-48 0 -77.5 25t-29.5 66q0 42 30.5 65.5t82.5 23.5h85v19q0 65 -67 65q-42 0 -85 -38l-34 43q54 54 126 54q59 0 92.5 -33.5t33.5 -94.5zM231 359v10h-75q-54 0 -54 -39q0 -40 54 -40q33 0 54 19.5t21 49.5z"></glyph><glyph glyph-name="guillemotleft" unicode="«" d="M216 71l-178 188v23l178 189l50 -45l-141 -155l141 -157zM414 71l-178 188v23l178 189l50 -45l-141 -155l141 -157z"></glyph><glyph glyph-name="logicalnot" unicode="¬" d="M396 96v185h-341v68h418v-253h-77z"></glyph><glyph glyph-name="uni00AD" unicode="­" d="M53 282v65h239v-65h-239z"></glyph><glyph glyph-name="registered" unicode="®" d="M527 435q2 -99 -71 -174t-170 -73q-97 -2 -171 73t-72 174q-2 100 72 175t171 73q97 2 170 -73t71 -175zM477 436q0 83 -56 140t-135 57q-80 0 -135.5 -57.5t-55.5 -139.5t55.5 -140t135.5 -58q79 0 135 57.5t56 140.5zM341 407l70 -97h-65l-63 84h-36v-84h-58v251h101 q40 0 66 -23t26 -61q0 -47 -41 -70zM247 510v-66h42q15 0 24.5 9t9.5 23q0 15 -9.5 24.5t-24.5 9.5h-42z"></glyph><glyph glyph-name="overscore" unicode="¯" d="M163 642v62h275v-62h-275z"></glyph><glyph glyph-name="degree" unicode="°" d="M31 524q0 60 44 103.5t105 43.5t105 -43.5t44 -103.5q0 -61 -43.5 -104t-105.5 -43t-105.5 43t-43.5 104zM265 524q0 37 -24.5 61.5t-60.5 24.5q-35 0 -59.5 -25t-24.5 -61t24.5 -61t59.5 -25q36 0 60.5 25t24.5 61z"></glyph><glyph glyph-name="plusminus" unicode="±" d="M242 150v160h-176v68h176v158h77v-158h175v-68h-175v-160h-77zM66 0v68h428v-68h-428z"></glyph><glyph glyph-name="uni00B2" unicode="²" d="M154 424h175v-60h-294v15l148 159q34 36 49 61t15 54q0 31 -19.5 52t-49.5 21q-32 0 -51.5 -21t-19.5 -55l2 -32h-65q-4 15 -4 36q0 53 39 93t99 40q59 0 97.5 -36.5t38.5 -92.5q0 -40 -20.5 -74t-68.5 -85z"></glyph><glyph glyph-name="uni00B3" unicode="³" d="M314 498q0 -62 -43.5 -101.5t-106.5 -39.5q-97 0 -145 90l46 33q38 -62 97 -62q37 0 60.5 22t23.5 58q0 35 -24.5 54t-70.5 19h-41v18l97 131h-159v60h257v-19l-100 -135q47 -10 78 -43.5t31 -84.5z"></glyph><glyph glyph-name="acute" unicode="´" d="M210 566l85 214h94v-14l-120 -200h-59z"></glyph><glyph glyph-name="uni00B5" unicode="µ" d="M571 65v-65q-28 -7 -52 -7q-70 0 -94 59q-49 -63 -134 -63q-80 0 -129 57v-226h-77v667h77v-291q0 -59 34.5 -97.5t89.5 -38.5t90 38.5t35 97.5v291h77v-351q0 -74 54 -74q10 0 29 3z"></glyph><glyph glyph-name="paragraph" unicode="¶" d="M39 449q0 95 67 153t171 58h60v-424h-60q-102 0 -170 59.5t-68 153.5zM228 -180v66q50 -6 65 -6q52 0 78 23.5t26 77.5v679h77v-685q0 -166 -166 -166q-34 0 -80 11z"></glyph><glyph glyph-name="middot" unicode="·" d="M77 314q0 27 18.5 45t44.5 18t44.5 -18t18.5 -45t-18.5 -45t-44.5 -18t-44.5 18t-18.5 45z"></glyph><glyph glyph-name="cedilla" unicode="¸" d="M200 -181v55q28 -4 56 -4q78 0 78 65q0 40 -34 74l33 17q67 -34 67 -102q0 -50 -36 -82.5t-96 -32.5q-35 0 -68 10z"></glyph><glyph glyph-name="uni00B9" unicode="¹" d="M47 364v60h105v296h-100v60h167v-356h90v-60h-262z"></glyph><glyph glyph-name="ordmasculine" unicode="º" d="M38 398q0 67 47.5 114t115.5 47t116 -47t48 -114t-48 -114t-116 -47t-115.5 47t-47.5 114zM299 398q0 45 -27.5 73.5t-70.5 28.5t-70 -28.5t-27 -73.5t27 -73.5t70 -28.5t70.5 29t27.5 73z"></glyph><glyph glyph-name="guillemotright" unicode="»" d="M90 71l-51 43l142 157l-142 155l51 45l177 -189v-23zM288 71l-51 43l142 157l-142 155l51 45l177 -189v-23z"></glyph><glyph glyph-name="onequarter" unicode="¼" d="M47 244v60h105v296h-100v60h167v-356h90v-60h-262zM248 0l378 660h69l-378 -660h-69zM870 128v-55h-56v-73h-61v73h-207v18l130 325h67l-116 -288h126v130h61v-130h56z"></glyph><glyph glyph-name="onehalf" unicode="½" d="M47 244v60h105v296h-100v60h167v-356h90v-60h-262zM248 0l378 660h69l-378 -660h-69zM709 60h175v-60h-294v15l148 159q34 36 49 61t15 54q0 31 -19.5 52t-49.5 21q-32 0 -51.5 -21t-19.5 -55l2 -32h-65q-4 15 -4 36q0 53 39 93t99 40q59 0 97.5 -36.5t38.5 -92.5 q0 -40 -20.5 -74t-68.5 -85z"></glyph><glyph glyph-name="threequarters" unicode="¾" d="M314 378q0 -62 -43.5 -101.5t-106.5 -39.5q-97 0 -145 90l46 33q38 -62 97 -62q37 0 60.5 22t23.5 58q0 35 -24.5 54t-70.5 19h-41v18l97 131h-159v60h257v-19l-100 -135q47 -10 78 -43.5t31 -84.5zM214 0l378 660h69l-378 -660h-69zM836 128v-55h-56v-73h-61v73h-207v18 l130 325h67l-116 -288h126v130h61v-130h56z"></glyph><glyph glyph-name="questiondown" unicode="¿" d="M170 435q0 27 18.5 45t44.5 18t44.5 -18t18.5 -45t-18 -45.5t-45 -18.5t-45 18.5t-18 45.5zM44 -22q0 46 22.5 82.5t72.5 82.5q41 37 56 58t15 44q0 17 -4 33h67q10 -23 10 -44q0 -32 -18.5 -58.5t-62.5 -66.5q-44 -42 -61.5 -69t-17.5 -59q0 -43 29.5 -72t70.5 -29 q80 0 112 96l64 -27q-19 -67 -66 -103.5t-112 -36.5q-73 0 -125 48.5t-52 120.5z"></glyph><glyph glyph-name="Agrave" unicode="À" d="M549 0l-56 134h-324l-56 -134h-82l286 671h29l286 -671h-83zM463 204l-132 325l-132 -325h264zM303 724l-120 172v14h94l85 -186h-59z"></glyph><glyph glyph-name="Aacute" unicode="Á" d="M549 0l-56 134h-324l-56 -134h-82l286 671h29l286 -671h-83zM463 204l-132 325l-132 -325h264zM303 724l85 186h94v-14l-120 -172h-59z"></glyph><glyph glyph-name="Acircumflex" unicode="Â" d="M549 0l-56 134h-324l-56 -134h-82l286 671h29l286 -671h-83zM463 204l-132 325l-132 -325h264zM502 724h-60l-110 108l-111 -108h-60l147 186h47z"></glyph><glyph glyph-name="Atilde" unicode="Ã" d="M549 0l-56 134h-324l-56 -134h-82l286 671h29l286 -671h-83zM463 204l-132 325l-132 -325h264zM339 766l-33 20q-30 20 -43 20q-14 0 -22 -11t-8 -27v-16h-64q-2 18 -2 25q0 44 24 72.5t63 28.5q33 0 70 -23l34 -22q29 -20 44 -20q14 0 22 10.5t8 26.5v18h64q1 -5 1 -26 q0 -43 -23.5 -71.5t-61.5 -28.5q-34 0 -73 24z"></glyph><glyph glyph-name="Adieresis" unicode="Ä" d="M549 0l-56 134h-324l-56 -134h-82l286 671h29l286 -671h-83zM463 204l-132 325l-132 -325h264zM160 810q0 22 16.5 37.5t38.5 15.5q23 0 39 -15.5t16 -37.5t-16 -37.5t-39 -15.5q-22 0 -38.5 15.5t-16.5 37.5zM393 809q0 22 16.5 38t38.5 16q23 0 39 -16t16 -38 t-16 -37.5t-39 -15.5q-22 0 -38.5 15.5t-16.5 37.5z"></glyph><glyph glyph-name="Aring" unicode="Å" d="M549 0l-56 134h-324l-56 -134h-82l286 671h29l286 -671h-83zM463 204l-132 325l-132 -325h264zM221 806q0 45 31.5 76.5t78.5 31.5q48 0 79.5 -31.5t31.5 -76.5t-31.5 -76.5t-79.5 -31.5q-47 0 -78.5 31.5t-31.5 76.5zM382 806q0 22 -14.5 36.5t-35.5 14.5 q-22 0 -36.5 -14.5t-14.5 -36.5q0 -21 15 -35.5t36 -14.5t35.5 14.5t14.5 35.5z"></glyph><glyph glyph-name="AE" unicode="Æ" d="M535 70h246v-70h-314l-23 134h-276l-71 -134h-84l344 660h412v-70h-322l34 -202h208v-70h-196zM377 541l-172 -337h227z"></glyph><glyph glyph-name="Ccedilla" unicode="Ç" d="M48 330q-3 141 99.5 242t243.5 99q87 0 159.5 -38t114.5 -104l-58 -46q-81 116 -215 116q-112 0 -187.5 -77t-75.5 -192t75.5 -192t187.5 -77q134 0 215 116l58 -46q-42 -66 -114.5 -104t-159.5 -38q-141 -2 -243.5 99t-99.5 242zM271 -181v55q28 -4 56 -4q78 0 78 65 q0 40 -34 74l33 17q67 -34 67 -102q0 -50 -36 -82.5t-96 -32.5q-35 0 -68 10z"></glyph><glyph glyph-name="Egrave" unicode="È" d="M91 0v660h423v-70h-345v-202h264v-70h-264v-248h357v-70h-435zM274 724l-120 172v14h94l85 -186h-59z"></glyph><glyph glyph-name="Eacute" unicode="É" d="M91 0v660h423v-70h-345v-202h264v-70h-264v-248h357v-70h-435zM274 724l85 186h94v-14l-120 -172h-59z"></glyph><glyph glyph-name="Ecircumflex" unicode="Ê" d="M91 0v660h423v-70h-345v-202h264v-70h-264v-248h357v-70h-435zM473 724h-60l-110 108l-111 -108h-60l147 186h47z"></glyph><glyph glyph-name="Edieresis" unicode="Ë" d="M91 0v660h423v-70h-345v-202h264v-70h-264v-248h357v-70h-435zM131 810q0 22 16.5 37.5t38.5 15.5q23 0 39 -15.5t16 -37.5t-16 -37.5t-39 -15.5q-22 0 -38.5 15.5t-16.5 37.5zM364 809q0 22 16.5 38t38.5 16q23 0 39 -16t16 -38t-16 -37.5t-39 -15.5q-22 0 -38.5 15.5 t-16.5 37.5z"></glyph><glyph glyph-name="Igrave" unicode="Ì" d="M91 0v660h78v-660h-78zM102 724l-120 172v14h94l85 -186h-59z"></glyph><glyph glyph-name="Iacute" unicode="Í" d="M91 0v660h78v-660h-78zM101 724l85 186h94v-14l-120 -172h-59z"></glyph><glyph glyph-name="Icircumflex" unicode="Î" d="M91 0v660h78v-660h-78zM301 724h-60l-110 108l-111 -108h-60l147 186h47z"></glyph><glyph glyph-name="Idieresis" unicode="Ï" d="M91 0v660h78v-660h-78zM-41 810q0 22 16.5 37.5t38.5 15.5q23 0 39 -15.5t16 -37.5t-16 -37.5t-39 -15.5q-22 0 -38.5 15.5t-16.5 37.5zM192 809q0 22 16.5 38t38.5 16q23 0 39 -16t16 -38t-16 -37.5t-39 -15.5q-22 0 -38.5 15.5t-16.5 37.5z"></glyph><glyph glyph-name="Eth" unicode="Ð" d="M646 331q0 -145 -98 -238t-261 -93h-196v274h-95v66h95v320h196q164 0 261.5 -91.5t97.5 -237.5zM565 331q0 116 -75 187.5t-204 71.5h-117v-250h130v-66h-130v-204h117q128 0 203.5 73t75.5 188z"></glyph><glyph glyph-name="Ntilde" unicode="Ñ" d="M539 660h78v-671h-28l-420 506v-495h-78v671h28l420 -507v496zM361 766l-33 20q-30 20 -43 20q-14 0 -22 -11t-8 -27v-16h-64q-2 18 -2 25q0 44 24 72.5t63 28.5q33 0 70 -23l34 -22q29 -20 44 -20q14 0 22 10.5t8 26.5v18h64q1 -5 1 -26q0 -43 -23.5 -71.5t-61.5 -28.5 q-34 0 -73 24z"></glyph><glyph glyph-name="Ograve" unicode="Ò" d="M48 330q-3 141 99 242t243 99q140 2 243 -99t100 -242q3 -141 -100 -242t-243 -99q-140 -3 -242.5 99t-99.5 242zM652 331q2 112 -75 191t-186 77q-112 0 -187 -76.5t-75 -191.5t75 -192.5t187 -77.5q109 -2 186 77.5t75 192.5zM362 724l-120 172v14h94l85 -186h-59z"></glyph><glyph glyph-name="Oacute" unicode="Ó" d="M48 330q-3 141 99 242t243 99q140 2 243 -99t100 -242q3 -141 -100 -242t-243 -99q-140 -3 -242.5 99t-99.5 242zM652 331q2 112 -75 191t-186 77q-112 0 -187 -76.5t-75 -191.5t75 -192.5t187 -77.5q109 -2 186 77.5t75 192.5zM362 724l85 186h94v-14l-120 -172h-59z "></glyph><glyph glyph-name="Ocircumflex" unicode="Ô" d="M48 330q-3 141 99 242t243 99q140 2 243 -99t100 -242q3 -141 -100 -242t-243 -99q-140 -3 -242.5 99t-99.5 242zM652 331q2 112 -75 191t-186 77q-112 0 -187 -76.5t-75 -191.5t75 -192.5t187 -77.5q109 -2 186 77.5t75 192.5zM561 724h-60l-110 108l-111 -108h-60 l147 186h47z"></glyph><glyph glyph-name="Otilde" unicode="Õ" d="M48 330q-3 141 99 242t243 99q140 2 243 -99t100 -242q3 -141 -100 -242t-243 -99q-140 -3 -242.5 99t-99.5 242zM652 331q2 112 -75 191t-186 77q-112 0 -187 -76.5t-75 -191.5t75 -192.5t187 -77.5q109 -2 186 77.5t75 192.5zM398 766l-33 20q-30 20 -43 20 q-14 0 -22 -11t-8 -27v-16h-64q-2 18 -2 25q0 44 24 72.5t63 28.5q33 0 70 -23l34 -22q29 -20 44 -20q14 0 22 10.5t8 26.5v18h64q1 -5 1 -26q0 -43 -23.5 -71.5t-61.5 -28.5q-34 0 -73 24z"></glyph><glyph glyph-name="Odieresis" unicode="Ö" d="M48 330q-3 141 99 242t243 99q140 2 243 -99t100 -242q3 -141 -100 -242t-243 -99q-140 -3 -242.5 99t-99.5 242zM652 331q2 112 -75 191t-186 77q-112 0 -187 -76.5t-75 -191.5t75 -192.5t187 -77.5q109 -2 186 77.5t75 192.5zM219 810q0 22 16.5 37.5t38.5 15.5 q23 0 39 -15.5t16 -37.5t-16 -37.5t-39 -15.5q-22 0 -38.5 15.5t-16.5 37.5zM452 809q0 22 16.5 38t38.5 16q23 0 39 -16t16 -38t-16 -37.5t-39 -15.5q-22 0 -38.5 15.5t-16.5 37.5z"></glyph><glyph glyph-name="multiply" unicode="×" d="M124 112l-47 46l156 158l-156 156l47 47l156 -156l156 156l47 -47l-156 -156l156 -158l-46 -46l-157 156z"></glyph><glyph glyph-name="Oslash" unicode="Ø" d="M739 631l-83 -83q77 -94 77 -218q3 -141 -100 -242t-243 -99q-123 0 -217 75l-83 -83l-48 48l83 83q-77 94 -77 218q-3 141 99 242t243 99q122 0 217 -76l84 84zM126 331q0 -96 52 -166l379 379q-70 58 -166 58q-113 0 -189 -78t-76 -193zM655 331q0 95 -52 165 l-379 -381q70 -57 167 -57q112 0 188 79t76 194z"></glyph><glyph glyph-name="Ugrave" unicode="Ù" d="M82 262v398h78v-403q0 -94 50.5 -145t134.5 -51q83 0 133 51t50 145v403h78v-398q0 -127 -72.5 -200t-188.5 -73q-118 0 -190.5 73t-72.5 200zM315 724l-120 172v14h94l85 -186h-59z"></glyph><glyph glyph-name="Uacute" unicode="Ú" d="M82 262v398h78v-403q0 -94 50.5 -145t134.5 -51q83 0 133 51t50 145v403h78v-398q0 -127 -72.5 -200t-188.5 -73q-118 0 -190.5 73t-72.5 200zM314 724l85 186h94v-14l-120 -172h-59z"></glyph><glyph glyph-name="Ucircumflex" unicode="Û" d="M82 262v398h78v-403q0 -94 50.5 -145t134.5 -51q83 0 133 51t50 145v403h78v-398q0 -127 -72.5 -200t-188.5 -73q-118 0 -190.5 73t-72.5 200zM514 724h-60l-110 108l-111 -108h-60l147 186h47z"></glyph><glyph glyph-name="Udieresis" unicode="Ü" d="M82 262v398h78v-403q0 -94 50.5 -145t134.5 -51q83 0 133 51t50 145v403h78v-398q0 -127 -72.5 -200t-188.5 -73q-118 0 -190.5 73t-72.5 200zM172 810q0 22 16.5 37.5t38.5 15.5q23 0 39 -15.5t16 -37.5t-16 -37.5t-39 -15.5q-22 0 -38.5 15.5t-16.5 37.5zM405 809 q0 22 16.5 38t38.5 16q23 0 39 -16t16 -38t-16 -37.5t-39 -15.5q-22 0 -38.5 15.5t-16.5 37.5z"></glyph><glyph glyph-name="Yacute" unicode="Ý" d="M576 660l-229 -387v-273h-78v273l-229 387h88l180 -310l181 310h87zM276 724l85 186h94v-14l-120 -172h-59z"></glyph><glyph glyph-name="Thorn" unicode="Þ" d="M91 0v660h78v-118h154q96 0 153.5 -54t57.5 -142q0 -86 -58 -141.5t-153 -55.5h-154v-149h-78zM169 219h152q62 0 97 34t35 92t-35 92.5t-97 34.5h-152v-253z"></glyph><glyph glyph-name="germandbls" unicode="ß" d="M248 57l43 56q56 -53 128 -53q86 0 86 61q0 21 -11 35q-11 16 -24 23l-53 32q-57 34 -82 62t-25 63q0 33 18 79l42 116q15 41 15 72q0 40 -25.5 63.5t-69.5 23.5q-58 0 -93.5 -40t-35.5 -113v-537h-76v540q0 104 57 162q59 59 153 59q77 0 123 -39t46 -107q0 -38 -14 -78 l-42 -121q-17 -47 -17 -67q0 -17 9 -30q13 -16 73 -52q59 -35 84.5 -67t25.5 -75q0 -62 -48 -99t-122 -37q-99 0 -165 68z"></glyph><glyph glyph-name="agrave" unicode="à" d="M450 300v-300h-72v63q-56 -74 -164 -74q-76 0 -123 37.5t-47 99.5t48 99t127 37h154v42q0 59 -31.5 91t-86.5 32q-82 0 -142 -78l-51 42q65 107 198 107q88 0 139 -51.5t51 -146.5zM373 187v12h-145q-105 0 -105 -69q0 -36 28.5 -56.5t72.5 -20.5q61 0 105 39t44 95z M229 566l-120 200v14h94l85 -214h-59z"></glyph><glyph glyph-name="aacute" unicode="á" d="M450 300v-300h-72v63q-56 -74 -164 -74q-76 0 -123 37.5t-47 99.5t48 99t127 37h154v42q0 59 -31.5 91t-86.5 32q-82 0 -142 -78l-51 42q65 107 198 107q88 0 139 -51.5t51 -146.5zM373 187v12h-145q-105 0 -105 -69q0 -36 28.5 -56.5t72.5 -20.5q61 0 105 39t44 95z M231 566l85 214h94v-14l-120 -200h-59z"></glyph><glyph glyph-name="acircumflex" unicode="â" d="M450 300v-300h-72v63q-56 -74 -164 -74q-76 0 -123 37.5t-47 99.5t48 99t127 37h154v42q0 59 -31.5 91t-86.5 32q-82 0 -142 -78l-51 42q65 107 198 107q88 0 139 -51.5t51 -146.5zM373 187v12h-145q-105 0 -105 -69q0 -36 28.5 -56.5t72.5 -20.5q61 0 105 39t44 95z M418 566h-58l-100 128l-101 -128h-59l136 214h47z"></glyph><glyph glyph-name="atilde" unicode="ã" d="M450 300v-300h-72v63q-56 -74 -164 -74q-76 0 -123 37.5t-47 99.5t48 99t127 37h154v42q0 59 -31.5 91t-86.5 32q-82 0 -142 -78l-51 42q65 107 198 107q88 0 139 -51.5t51 -146.5zM373 187v12h-145q-105 0 -105 -69q0 -36 28.5 -56.5t72.5 -20.5q61 0 105 39t44 95z M263 622l-26 22q-1 1 -9 7t-11 8t-9.5 5t-12.5 3q-28 0 -28 -41v-17h-64q-1 6 -1 25q0 46 23.5 75t61.5 29q36 0 68 -26l26 -22q26 -23 42 -23q28 0 28 41v17h64q1 -6 1 -25q0 -46 -23.5 -75t-61.5 -29q-35 0 -68 26z"></glyph><glyph glyph-name="adieresis" unicode="ä" d="M450 300v-300h-72v63q-56 -74 -164 -74q-76 0 -123 37.5t-47 99.5t48 99t127 37h154v42q0 59 -31.5 91t-86.5 32q-82 0 -142 -78l-51 42q65 107 198 107q88 0 139 -51.5t51 -146.5zM373 187v12h-145q-105 0 -105 -69q0 -36 28.5 -56.5t72.5 -20.5q61 0 105 39t44 95z M97 673q0 21 17 37.5t38 16.5q23 0 39.5 -16t16.5 -38t-16.5 -37.5t-39.5 -15.5q-21 0 -38 16t-17 37zM309 673q0 22 17 38t39 16q23 0 39 -16t16 -38t-16 -37.5t-39 -15.5q-22 0 -39 16t-17 37z"></glyph><glyph glyph-name="aring" unicode="å" d="M450 300v-300h-72v63q-56 -74 -164 -74q-76 0 -123 37.5t-47 99.5t48 99t127 37h154v42q0 59 -31.5 91t-86.5 32q-82 0 -142 -78l-51 42q65 107 198 107q88 0 139 -51.5t51 -146.5zM373 187v12h-145q-105 0 -105 -69q0 -36 28.5 -56.5t72.5 -20.5q61 0 105 39t44 95z M148 668q0 46 31.5 77t78.5 31t79 -31t32 -77t-32 -77.5t-79 -31.5q-46 0 -78 31.5t-32 77.5zM309 668q0 22 -15 37t-35 15q-21 0 -36 -15t-15 -37t14.5 -36t36.5 -14q21 0 35.5 14t14.5 36z"></glyph><glyph glyph-name="ae" unicode="æ" d="M837 211h-382q10 -69 58.5 -110t118.5 -41q82 0 147 65l46 -51q-76 -85 -194 -85q-67 0 -123.5 31.5t-89.5 86.5q-26 -56 -79.5 -87t-122.5 -31q-77 0 -124.5 38.5t-47.5 102.5q0 65 48 104.5t127 39.5h154v30q0 59 -31.5 91t-85.5 32q-81 0 -141 -78l-51 42 q32 52 84 79.5t113 27.5q124 0 167 -102q33 48 84.5 75t111.5 27q93 0 156.5 -62.5t63.5 -158.5q0 -45 -7 -66zM455 274h309q4 69 -38 111.5t-106 42.5q-65 0 -110.5 -42.5t-54.5 -111.5zM373 186v25h-145q-105 0 -105 -73q0 -39 28.5 -61.5t73.5 -22.5q59 0 103.5 38.5 t44.5 93.5z"></glyph><glyph glyph-name="ccedilla" unicode="ç" d="M50 244q-2 104 74 180t181 74q63 0 115 -28t86 -78l-55 -44q-58 79 -145 79q-75 0 -126 -53.5t-51 -129.5q0 -77 51 -130.5t126 -53.5q86 0 144 78l55 -43q-72 -106 -200 -106q-106 0 -180.5 74.5t-74.5 180.5zM174 -181v55q28 -4 56 -4q78 0 78 65q0 40 -34 74l33 17 q67 -34 67 -102q0 -50 -36 -82.5t-96 -32.5q-35 0 -68 10z"></glyph><glyph glyph-name="egrave" unicode="è" d="M515 220h-385q7 -72 57 -116t122 -44q83 0 149 66l45 -52q-82 -85 -195 -85q-109 0 -183.5 73.5t-74.5 180.5q0 106 72.5 180.5t176.5 74.5q95 0 158.5 -62t63.5 -158q0 -28 -6 -58zM133 288h309q-1 64 -42 102t-103 38q-61 0 -106 -38.5t-58 -101.5zM267 566l-120 200 v14h94l85 -214h-59z"></glyph><glyph glyph-name="eacute" unicode="é" d="M515 220h-385q7 -72 57 -116t122 -44q83 0 149 66l45 -52q-82 -85 -195 -85q-109 0 -183.5 73.5t-74.5 180.5q0 106 72.5 180.5t176.5 74.5q95 0 158.5 -62t63.5 -158q0 -28 -6 -58zM133 288h309q-1 64 -42 102t-103 38q-61 0 -106 -38.5t-58 -101.5zM269 566l85 214h94 v-14l-120 -200h-59z"></glyph><glyph glyph-name="ecircumflex" unicode="ê" d="M515 220h-385q7 -72 57 -116t122 -44q83 0 149 66l45 -52q-82 -85 -195 -85q-109 0 -183.5 73.5t-74.5 180.5q0 106 72.5 180.5t176.5 74.5q95 0 158.5 -62t63.5 -158q0 -28 -6 -58zM133 288h309q-1 64 -42 102t-103 38q-61 0 -106 -38.5t-58 -101.5zM456 566h-58 l-100 128l-101 -128h-59l136 214h47z"></glyph><glyph glyph-name="edieresis" unicode="ë" d="M515 220h-385q7 -72 57 -116t122 -44q83 0 149 66l45 -52q-82 -85 -195 -85q-109 0 -183.5 73.5t-74.5 180.5q0 106 72.5 180.5t176.5 74.5q95 0 158.5 -62t63.5 -158q0 -28 -6 -58zM133 288h309q-1 64 -42 102t-103 38q-61 0 -106 -38.5t-58 -101.5zM135 673 q0 21 17 37.5t38 16.5q23 0 39.5 -16t16.5 -38t-16.5 -37.5t-39.5 -15.5q-21 0 -38 16t-17 37zM347 673q0 22 17 38t39 16q23 0 39 -16t16 -38t-16 -37.5t-39 -15.5q-22 0 -39 16t-17 37z"></glyph><glyph glyph-name="igrave" unicode="ì" d="M85 0v487h77v-487h-77zM95 566l-90 200v14h94l55 -214h-59z"></glyph><glyph glyph-name="iacute" unicode="í" d="M85 0v487h77v-487h-77zM93 566l55 214h94v-14l-90 -200h-59z"></glyph><glyph glyph-name="icircumflex" unicode="î" d="M85 0v487h77v-487h-77zM283 566h-58l-100 128l-101 -128h-59l136 214h47z"></glyph><glyph glyph-name="idieresis" unicode="ï" d="M85 0v487h77v-487h-77zM-23 673q0 22 16.5 38t38.5 16q23 0 39.5 -16t16.5 -38t-16.5 -37.5t-39.5 -15.5q-22 0 -38.5 15.5t-16.5 37.5zM159 673q0 22 17 38t39 16q23 0 39 -16t16 -38t-16 -37.5t-39 -15.5q-22 0 -39 16t-17 37z"></glyph><glyph glyph-name="eth" unicode="ð" d="M518 222q0 -99 -66.5 -166t-167.5 -67t-167.5 65.5t-66.5 162.5q0 95 65.5 160t159.5 65q30 0 60 -8l-101 140l-149 -72l-27 57l138 66l-67 93l58 43l77 -104l154 74l28 -55l-145 -70l109 -147q40 -55 60 -87q48 -74 48 -150zM439 217q0 67 -44 111.5t-111 44.5 t-111 -44.5t-44 -112.5t44 -112t111 -44t111 44.5t44 112.5z"></glyph><glyph glyph-name="ntilde" unicode="ñ" d="M488 306v-306h-77v297q0 58 -32.5 94t-88.5 36t-92 -36.5t-36 -93.5v-297h-77v487h72v-52q57 63 150 63q84 0 132.5 -52.5t48.5 -139.5zM289 622l-26 22q-1 1 -9 7t-11 8t-9.5 5t-12.5 3q-28 0 -28 -41v-17h-64q-1 6 -1 25q0 46 23.5 75t61.5 29q36 0 68 -26l26 -22 q26 -23 42 -23q28 0 28 41v17h64q1 -6 1 -25q0 -46 -23.5 -75t-61.5 -29q-35 0 -68 26z"></glyph><glyph glyph-name="ograve" unicode="ò" d="M50 244q-2 104 74.5 180t180.5 74q105 2 181 -74t74 -180q2 -103 -75 -179.5t-181 -74.5q-104 -2 -180 74.5t-74 179.5zM481 243q0 78 -50.5 131t-125.5 53t-125.5 -52.5t-50.5 -131.5q0 -77 50.5 -129.5t124.5 -52.5t125.5 53t51.5 129zM276 566l-120 200v14h94l85 -214 h-59z"></glyph><glyph glyph-name="oacute" unicode="ó" d="M50 244q-2 104 74.5 180t180.5 74q105 2 181 -74t74 -180q2 -103 -75 -179.5t-181 -74.5q-104 -2 -180 74.5t-74 179.5zM481 243q0 78 -50.5 131t-125.5 53t-125.5 -52.5t-50.5 -131.5q0 -77 50.5 -129.5t124.5 -52.5t125.5 53t51.5 129zM278 566l85 214h94v-14 l-120 -200h-59z"></glyph><glyph glyph-name="ocircumflex" unicode="ô" d="M50 244q-2 104 74.5 180t180.5 74q105 2 181 -74t74 -180q2 -103 -75 -179.5t-181 -74.5q-104 -2 -180 74.5t-74 179.5zM481 243q0 78 -50.5 131t-125.5 53t-125.5 -52.5t-50.5 -131.5q0 -77 50.5 -129.5t124.5 -52.5t125.5 53t51.5 129zM464 566h-58l-100 128l-101 -128 h-59l136 214h47z"></glyph><glyph glyph-name="otilde" unicode="õ" d="M50 244q-2 104 74.5 180t180.5 74q105 2 181 -74t74 -180q2 -103 -75 -179.5t-181 -74.5q-104 -2 -180 74.5t-74 179.5zM481 243q0 78 -50.5 131t-125.5 53t-125.5 -52.5t-50.5 -131.5q0 -77 50.5 -129.5t124.5 -52.5t125.5 53t51.5 129zM309 622l-26 22q-1 1 -9 7t-11 8 t-9.5 5t-12.5 3q-28 0 -28 -41v-17h-64q-1 6 -1 25q0 46 23.5 75t61.5 29q36 0 68 -26l26 -22q26 -23 42 -23q28 0 28 41v17h64q1 -6 1 -25q0 -46 -23.5 -75t-61.5 -29q-35 0 -68 26z"></glyph><glyph glyph-name="odieresis" unicode="ö" d="M50 244q-2 104 74.5 180t180.5 74q105 2 181 -74t74 -180q2 -103 -75 -179.5t-181 -74.5q-104 -2 -180 74.5t-74 179.5zM481 243q0 78 -50.5 131t-125.5 53t-125.5 -52.5t-50.5 -131.5q0 -77 50.5 -129.5t124.5 -52.5t125.5 53t51.5 129zM143 673q0 21 17 37.5t38 16.5 q23 0 39.5 -16t16.5 -38t-16.5 -37.5t-39.5 -15.5q-21 0 -38 16t-17 37zM355 673q0 22 17 38t39 16q23 0 39 -16t16 -38t-16 -37.5t-39 -15.5q-22 0 -39 16t-17 37z"></glyph><glyph glyph-name="divide" unicode="÷" d="M223 491q0 23 16 38.5t39 15.5t39 -15.5t16 -38.5q0 -22 -16 -37.5t-39 -15.5t-39 15.5t-16 37.5zM56 281v68h447v-68h-447zM223 135q0 23 16 38t39 15t39 -15t16 -38q0 -22 -16 -37.5t-39 -15.5t-39 15.5t-16 37.5z"></glyph><glyph glyph-name="oslash" unicode="ø" d="M572 458l-59 -60q52 -67 52 -155q2 -103 -75.5 -179.5t-180.5 -74.5q-87 0 -154 52l-58 -60l-48 48l59 59q-52 67 -52 155q-2 105 74 181t180 74q88 0 155 -52l59 58zM130 243q0 -61 30 -107l258 260q-49 34 -108 34q-78 0 -129 -53.5t-51 -133.5zM491 243q0 61 -30 107 l-259 -259q45 -36 107 -36q76 0 129 54.5t53 133.5z"></glyph><glyph glyph-name="ugrave" unicode="ù" d="M79 194v293h76v-298q0 -58 35.5 -93.5t90.5 -35.5q54 0 89 36t35 93v298h77v-293q0 -91 -57.5 -148t-143.5 -57q-87 0 -144.5 57t-57.5 148zM250 566l-120 200v14h94l85 -214h-59z"></glyph><glyph glyph-name="uacute" unicode="ú" d="M79 194v293h76v-298q0 -58 35.5 -93.5t90.5 -35.5q54 0 89 36t35 93v298h77v-293q0 -91 -57.5 -148t-143.5 -57q-87 0 -144.5 57t-57.5 148zM252 566l85 214h94v-14l-120 -200h-59z"></glyph><glyph glyph-name="ucircumflex" unicode="û" d="M79 194v293h76v-298q0 -58 35.5 -93.5t90.5 -35.5q54 0 89 36t35 93v298h77v-293q0 -91 -57.5 -148t-143.5 -57q-87 0 -144.5 57t-57.5 148zM439 566h-58l-100 128l-101 -128h-59l136 214h47z"></glyph><glyph glyph-name="udieresis" unicode="ü" d="M79 194v293h76v-298q0 -58 35.5 -93.5t90.5 -35.5q54 0 89 36t35 93v298h77v-293q0 -91 -57.5 -148t-143.5 -57q-87 0 -144.5 57t-57.5 148zM118 673q0 21 17 37.5t38 16.5q23 0 39.5 -16t16.5 -38t-16.5 -37.5t-39.5 -15.5q-21 0 -38 16t-17 37zM330 673q0 22 17 38 t39 16q23 0 39 -16t16 -38t-16 -37.5t-39 -15.5q-22 0 -39 16t-17 37z"></glyph><glyph glyph-name="yacute" unicode="ý" d="M431 487h82l-240 -555q-54 -123 -165 -123q-39 0 -75 10v65q42 -5 59 -5q40 0 66 17.5t44 60.5l26 58l-202 472h83l161 -388zM239 566l85 214h94v-14l-120 -200h-59z"></glyph><glyph glyph-name="thorn" unicode="þ" d="M582 244q0 -108 -69.5 -181.5t-171.5 -73.5q-115 0 -179 81v-250h-77v930h77v-334q29 38 76.5 60t102.5 22q104 0 172.5 -73t68.5 -181zM503 243q0 79 -49.5 131.5t-123.5 52.5q-70 0 -119.5 -48t-49.5 -135q0 -89 48.5 -136.5t120.5 -47.5q74 0 123.5 52t49.5 131z"></glyph><glyph glyph-name="ydieresis" unicode="ÿ" d="M431 487h82l-240 -555q-54 -123 -165 -123q-39 0 -75 10v65q42 -5 59 -5q40 0 66 17.5t44 60.5l26 58l-202 472h83l161 -388zM105 673q0 21 17 37.5t38 16.5q23 0 39.5 -16t16.5 -38t-16.5 -37.5t-39.5 -15.5q-21 0 -38 16t-17 37zM317 673q0 22 17 38t39 16q23 0 39 -16 t16 -38t-16 -37.5t-39 -15.5q-22 0 -39 16t-17 37z"></glyph><glyph glyph-name="Amacron" unicode="Ā" d="M549 0l-56 134h-324l-56 -134h-82l286 671h29l286 -671h-83zM463 204l-132 325l-132 -325h264zM185 770v63h295v-63h-295z"></glyph><glyph glyph-name="amacron" unicode="ā" d="M450 300v-300h-72v63q-56 -74 -164 -74q-76 0 -123 37.5t-47 99.5t48 99t127 37h154v42q0 59 -31.5 91t-86.5 32q-82 0 -142 -78l-51 42q65 107 198 107q88 0 139 -51.5t51 -146.5zM373 187v12h-145q-105 0 -105 -69q0 -36 28.5 -56.5t72.5 -20.5q61 0 105 39t44 95z M122 642v62h275v-62h-275z"></glyph><glyph glyph-name="Abreve" unicode="Ă" d="M549 0l-56 134h-324l-56 -134h-82l286 671h29l286 -671h-83zM463 204l-132 325l-132 -325h264zM180 885v25h63v-24q0 -45 24 -72t64 -27q41 0 65 26.5t24 72.5v24h63v-25q0 -71 -42.5 -115t-109.5 -44q-68 0 -109.5 43.5t-41.5 115.5z"></glyph><glyph glyph-name="abreve" unicode="ă" d="M450 300v-300h-72v63q-56 -74 -164 -74q-76 0 -123 37.5t-47 99.5t48 99t127 37h154v42q0 59 -31.5 91t-86.5 32q-82 0 -142 -78l-51 42q65 107 198 107q88 0 139 -51.5t51 -146.5zM373 187v12h-145q-105 0 -105 -69q0 -36 28.5 -56.5t72.5 -20.5q61 0 105 39t44 95z M107 731v31h63v-29q0 -46 24 -72.5t64 -26.5q41 0 65 26.5t24 72.5v29h63v-31q0 -71 -42 -114.5t-110 -43.5q-67 0 -109 44t-42 114z"></glyph><glyph glyph-name="Aogonek" unicode="Ą" d="M549 0l-56 134h-324l-56 -134h-82l286 671h29l286 -671h-83zM463 204l-132 325l-132 -325h264zM454 -104q0 37 32 67q32 29 116 72l31 -35l-50 -33q-33 -22 -42.5 -32.5t-9.5 -26.5q0 -37 48 -37q23 0 54 7v-58q-36 -11 -72 -11q-48 0 -77.5 24t-29.5 63z"></glyph><glyph glyph-name="aogonek" unicode="ą" d="M450 300v-300h-72v63q-56 -74 -164 -74q-76 0 -123 37.5t-47 99.5t48 99t127 37h154v42q0 59 -31.5 91t-86.5 32q-82 0 -142 -78l-51 42q65 107 198 107q88 0 139 -51.5t51 -146.5zM373 187v12h-145q-105 0 -105 -69q0 -36 28.5 -56.5t72.5 -20.5q61 0 105 39t44 95z M271 -104q0 37 32 67q32 29 116 72l31 -35l-50 -33q-23 -16 -31.5 -23t-14.5 -16t-6 -20q0 -37 48 -37q23 0 54 7v-58q-36 -11 -72 -11q-48 0 -77.5 24t-29.5 63z"></glyph><glyph glyph-name="Cacute" unicode="Ć" d="M48 330q-3 141 99.5 242t243.5 99q87 0 159.5 -38t114.5 -104l-58 -46q-81 116 -215 116q-112 0 -187.5 -77t-75.5 -192t75.5 -192t187.5 -77q134 0 215 116l58 -46q-42 -66 -114.5 -104t-159.5 -38q-141 -2 -243.5 99t-99.5 242zM362 724l85 186h94v-14l-120 -172h-59z "></glyph><glyph glyph-name="cacute" unicode="ć" d="M50 244q-2 104 74 180t181 74q63 0 115 -28t86 -78l-55 -44q-58 79 -145 79q-75 0 -126 -53.5t-51 -129.5q0 -77 51 -130.5t126 -53.5q86 0 144 78l55 -43q-72 -106 -200 -106q-106 0 -180.5 74.5t-74.5 180.5zM277 566l85 214h94v-14l-120 -200h-59z"></glyph><glyph glyph-name="Ccircumflex" unicode="Ĉ" d="M48 330q-3 141 99.5 242t243.5 99q87 0 159.5 -38t114.5 -104l-58 -46q-81 116 -215 116q-112 0 -187.5 -77t-75.5 -192t75.5 -192t187.5 -77q134 0 215 116l58 -46q-42 -66 -114.5 -104t-159.5 -38q-141 -2 -243.5 99t-99.5 242zM561 724h-60l-110 108l-111 -108h-60 l147 186h47z"></glyph><glyph glyph-name="ccircumflex" unicode="ĉ" d="M50 244q-2 104 74 180t181 74q63 0 115 -28t86 -78l-55 -44q-58 79 -145 79q-75 0 -126 -53.5t-51 -129.5q0 -77 51 -130.5t126 -53.5q86 0 144 78l55 -43q-72 -106 -200 -106q-106 0 -180.5 74.5t-74.5 180.5zM463 566h-58l-100 128l-101 -128h-59l136 214h47z"></glyph><glyph glyph-name="Cdotaccent" unicode="Ċ" d="M48 330q-3 141 99.5 242t243.5 99q87 0 159.5 -38t114.5 -104l-58 -46q-81 116 -215 116q-112 0 -187.5 -77t-75.5 -192t75.5 -192t187.5 -77q134 0 215 116l58 -46q-42 -66 -114.5 -104t-159.5 -38q-141 -2 -243.5 99t-99.5 242zM333 810q0 23 17 39.5t41 16.5 q23 0 40 -16.5t17 -39.5q0 -24 -16.5 -40t-40.5 -16t-41 16t-17 40z"></glyph><glyph glyph-name="cdotaccent" unicode="ċ" d="M50 244q-2 104 74 180t181 74q63 0 115 -28t86 -78l-55 -44q-58 79 -145 79q-75 0 -126 -53.5t-51 -129.5q0 -77 51 -130.5t126 -53.5q86 0 144 78l55 -43q-72 -106 -200 -106q-106 0 -180.5 74.5t-74.5 180.5zM246 673q0 23 17 39.5t41 16.5q23 0 40 -16.5t17 -39.5 q0 -24 -16.5 -40t-40.5 -16t-41 16t-17 40z"></glyph><glyph glyph-name="Ccaron" unicode="Č" d="M48 330q-3 141 99.5 242t243.5 99q87 0 159.5 -38t114.5 -104l-58 -46q-81 116 -215 116q-112 0 -187.5 -77t-75.5 -192t75.5 -192t187.5 -77q134 0 215 116l58 -46q-42 -66 -114.5 -104t-159.5 -38q-141 -2 -243.5 99t-99.5 242zM501 910h60l-147 -186h-47l-147 186h60 l111 -108z"></glyph><glyph glyph-name="ccaron" unicode="č" d="M50 244q-2 104 74 180t181 74q63 0 115 -28t86 -78l-55 -44q-58 79 -145 79q-75 0 -126 -53.5t-51 -129.5q0 -77 51 -130.5t126 -53.5q86 0 144 78l55 -43q-72 -106 -200 -106q-106 0 -180.5 74.5t-74.5 180.5zM405 780h58l-135 -214h-47l-136 214h59l101 -128z"></glyph><glyph glyph-name="Dcaron" unicode="Ď" d="M91 0v660h196q164 0 261.5 -91.5t97.5 -237.5q0 -145 -98 -238t-261 -93h-196zM169 70h117q128 0 203.5 73t75.5 188q0 116 -75 187.5t-204 71.5h-117v-520zM395 910h60l-147 -186h-47l-147 186h60l111 -108z"></glyph><glyph glyph-name="dcaron" unicode="ď" d="M471 750h77v-750h-73v77q-28 -41 -77.5 -64.5t-106.5 -23.5q-103 0 -172 73.5t-69 180.5q0 108 69.5 181.5t171.5 73.5q55 0 103 -22t77 -61v335zM472 243q0 88 -49.5 136t-120.5 48q-74 0 -123.5 -52t-49.5 -131t49.5 -131.5t123.5 -52.5q71 0 120.5 48t49.5 135z M648 539l13 211h83l-39 -211h-57z"></glyph><glyph glyph-name="Dcroat" unicode="Đ" d="M646 331q0 -145 -98 -238t-261 -93h-196v274h-95v66h95v320h196q164 0 261.5 -91.5t97.5 -237.5zM565 331q0 116 -75 187.5t-204 71.5h-117v-250h130v-66h-130v-204h117q128 0 203.5 73t75.5 188z"></glyph><glyph glyph-name="dslash" unicode="đ" d="M629 645v-64h-83v-581h-72v79q-29 -42 -79.5 -66t-107.5 -24q-100 0 -169 71.5t-69 175.5q0 106 68.5 177t169.5 71q56 0 104.5 -22.5t78.5 -62.5v182h-219v64h219v105h76v-105h83zM470 236q0 86 -49 132.5t-120 46.5q-75 0 -124 -50.5t-49 -128.5q0 -76 49.5 -127 t123.5 -51q71 0 120 46t49 132z"></glyph><glyph glyph-name="Emacron" unicode="Ē" d="M91 0v660h423v-70h-345v-202h264v-70h-264v-248h357v-70h-435zM156 770v63h295v-63h-295z"></glyph><glyph glyph-name="emacron" unicode="ē" d="M515 220h-385q7 -72 57 -116t122 -44q83 0 149 66l45 -52q-82 -85 -195 -85q-109 0 -183.5 73.5t-74.5 180.5q0 106 72.5 180.5t176.5 74.5q95 0 158.5 -62t63.5 -158q0 -28 -6 -58zM133 288h309q-1 64 -42 102t-103 38q-61 0 -106 -38.5t-58 -101.5zM160 642v62h275v-62 h-275z"></glyph><glyph glyph-name="Ebreve" unicode="Ĕ" d="M91 0v660h423v-70h-345v-202h264v-70h-264v-248h357v-70h-435zM151 885v25h63v-24q0 -45 24 -72t64 -27q41 0 65 26.5t24 72.5v24h63v-25q0 -71 -42.5 -115t-109.5 -44q-68 0 -109.5 43.5t-41.5 115.5z"></glyph><glyph glyph-name="ebreve" unicode="ĕ" d="M515 220h-385q7 -72 57 -116t122 -44q83 0 149 66l45 -52q-82 -85 -195 -85q-109 0 -183.5 73.5t-74.5 180.5q0 106 72.5 180.5t176.5 74.5q95 0 158.5 -62t63.5 -158q0 -28 -6 -58zM133 288h309q-1 64 -42 102t-103 38q-61 0 -106 -38.5t-58 -101.5zM145 731v31h63v-29 q0 -46 24 -72.5t64 -26.5q41 0 65 26.5t24 72.5v29h63v-31q0 -71 -42 -114.5t-110 -43.5q-67 0 -109 44t-42 114z"></glyph><glyph glyph-name="Edotaccent" unicode="Ė" d="M91 0v660h423v-70h-345v-202h264v-70h-264v-248h357v-70h-435zM245 810q0 23 17 39.5t41 16.5q23 0 40 -16.5t17 -39.5q0 -24 -16.5 -40t-40.5 -16t-41 16t-17 40z"></glyph><glyph glyph-name="edotaccent" unicode="ė" d="M515 220h-385q7 -72 57 -116t122 -44q83 0 149 66l45 -52q-82 -85 -195 -85q-109 0 -183.5 73.5t-74.5 180.5q0 106 72.5 180.5t176.5 74.5q95 0 158.5 -62t63.5 -158q0 -28 -6 -58zM133 288h309q-1 64 -42 102t-103 38q-61 0 -106 -38.5t-58 -101.5zM239 673 q0 23 17 39.5t41 16.5q23 0 40 -16.5t17 -39.5q0 -24 -16.5 -40t-40.5 -16t-41 16t-17 40z"></glyph><glyph glyph-name="Eogonek" unicode="Ę" d="M91 0v660h423v-70h-345v-202h264v-70h-264v-248h357v-70h-435zM347 -104q0 37 32 67q32 29 116 72l31 -35l-50 -33q-32 -22 -42 -32.5t-10 -26.5q0 -37 48 -37q23 0 54 7v-58q-36 -11 -72 -11q-48 0 -77.5 24t-29.5 63z"></glyph><glyph glyph-name="eogonek" unicode="ę" d="M515 220h-385q7 -72 57 -116t122 -44q83 0 149 66l45 -52q-82 -85 -195 -85q-109 0 -183.5 73.5t-74.5 180.5q0 106 72.5 180.5t176.5 74.5q95 0 158.5 -62t63.5 -158q0 -28 -6 -58zM133 288h309q-1 64 -42 102t-103 38q-61 0 -106 -38.5t-58 -101.5zM295 -104 q2 41 23 70.5t104 107.5h80l-92 -98q-22 -25 -29.5 -37.5t-7.5 -30.5q0 -37 47 -37q23 0 54 7v-58q-36 -11 -72 -11q-48 0 -77.5 23.5t-29.5 63.5z"></glyph><glyph glyph-name="Ecaron" unicode="Ě" d="M91 0v660h423v-70h-345v-202h264v-70h-264v-248h357v-70h-435zM413 910h60l-147 -186h-47l-147 186h60l111 -108z"></glyph><glyph glyph-name="ecaron" unicode="ě" d="M515 220h-385q7 -72 57 -116t122 -44q83 0 149 66l45 -52q-82 -85 -195 -85q-109 0 -183.5 73.5t-74.5 180.5q0 106 72.5 180.5t176.5 74.5q95 0 158.5 -62t63.5 -158q0 -28 -6 -58zM133 288h309q-1 64 -42 102t-103 38q-61 0 -106 -38.5t-58 -101.5zM398 780h58 l-135 -214h-47l-136 214h59l101 -128z"></glyph><glyph glyph-name="Gcircumflex" unicode="Ĝ" d="M48 330q-2 142 99.5 242.5t243.5 98.5q83 0 153 -35.5t116 -99.5l-59 -46q-81 109 -210 109q-112 2 -188 -77t-74 -191q-2 -114 75.5 -194t190.5 -78q71 0 128.5 31.5t91.5 86.5v89h-225v70h303v-176q-44 -78 -125 -125q-79 -46 -177 -46q-142 -2 -243.5 98.5 t-99.5 242.5zM563 724h-60l-110 108l-111 -108h-60l147 186h47z"></glyph><glyph glyph-name="gcircumflex" unicode="ĝ" d="M480 487h73v-440q0 -110 -64 -174t-173 -64q-135 0 -229 94l45 54q88 -77 182 -77q76 0 119 42.5t43 120.5v43q-29 -38 -77.5 -59.5t-103.5 -21.5q-103 0 -171 70t-68 176q0 105 68.5 176t170.5 71q58 0 107.5 -23.5t77.5 -65.5v78zM477 251q0 83 -49.5 128.5 t-120.5 45.5q-75 0 -124 -49.5t-49 -125.5q0 -77 49 -125.5t124 -48.5q72 0 121 45.5t49 129.5zM470 566h-58l-100 128l-101 -128h-59l136 214h47z"></glyph><glyph glyph-name="Gbreve" unicode="Ğ" d="M48 330q-2 142 99.5 242.5t243.5 98.5q83 0 153 -35.5t116 -99.5l-59 -46q-81 109 -210 109q-112 2 -188 -77t-74 -191q-2 -114 75.5 -194t190.5 -78q71 0 128.5 31.5t91.5 86.5v89h-225v70h303v-176q-44 -78 -125 -125q-79 -46 -177 -46q-142 -2 -243.5 98.5 t-99.5 242.5zM241 885v25h63v-24q0 -45 24 -72t64 -27q41 0 65 26.5t24 72.5v24h63v-25q0 -71 -42.5 -115t-109.5 -44q-68 0 -109.5 43.5t-41.5 115.5z"></glyph><glyph glyph-name="gbreve" unicode="ğ" d="M480 487h73v-440q0 -110 -64 -174t-173 -64q-135 0 -229 94l45 54q88 -77 182 -77q76 0 119 42.5t43 120.5v43q-29 -38 -77.5 -59.5t-103.5 -21.5q-103 0 -171 70t-68 176q0 105 68.5 176t170.5 71q58 0 107.5 -23.5t77.5 -65.5v78zM477 251q0 83 -49.5 128.5 t-120.5 45.5q-75 0 -124 -49.5t-49 -125.5q0 -77 49 -125.5t124 -48.5q72 0 121 45.5t49 129.5zM159 731v31h63v-29q0 -46 24 -72.5t64 -26.5q41 0 65 26.5t24 72.5v29h63v-31q0 -71 -42 -114.5t-110 -43.5q-67 0 -109 44t-42 114z"></glyph><glyph glyph-name="Gdotaccent" unicode="Ġ" d="M48 330q-2 142 99.5 242.5t243.5 98.5q83 0 153 -35.5t116 -99.5l-59 -46q-81 109 -210 109q-112 2 -188 -77t-74 -191q-2 -114 75.5 -194t190.5 -78q71 0 128.5 31.5t91.5 86.5v89h-225v70h303v-176q-44 -78 -125 -125q-79 -46 -177 -46q-142 -2 -243.5 98.5 t-99.5 242.5zM335 810q0 23 17 39.5t41 16.5q23 0 40 -16.5t17 -39.5q0 -24 -16.5 -40t-40.5 -16t-41 16t-17 40z"></glyph><glyph glyph-name="gdotaccent" unicode="ġ" d="M480 487h73v-440q0 -110 -64 -174t-173 -64q-135 0 -229 94l45 54q88 -77 182 -77q76 0 119 42.5t43 120.5v43q-29 -38 -77.5 -59.5t-103.5 -21.5q-103 0 -171 70t-68 176q0 105 68.5 176t170.5 71q58 0 107.5 -23.5t77.5 -65.5v78zM477 251q0 83 -49.5 128.5 t-120.5 45.5q-75 0 -124 -49.5t-49 -125.5q0 -77 49 -125.5t124 -48.5q72 0 121 45.5t49 129.5zM253 673q0 23 17 39.5t41 16.5q23 0 40 -16.5t17 -39.5q0 -24 -16.5 -40t-40.5 -16t-41 16t-17 40z"></glyph><glyph glyph-name="uni0122" unicode="Ģ" d="M48 330q-2 142 99.5 242.5t243.5 98.5q83 0 153 -35.5t116 -99.5l-59 -46q-81 109 -210 109q-112 2 -188 -77t-74 -191q-2 -114 75.5 -194t190.5 -78q71 0 128.5 31.5t91.5 86.5v89h-225v70h303v-176q-44 -78 -125 -125q-79 -46 -177 -46q-142 -2 -243.5 98.5 t-99.5 242.5zM345 -220l9 171h76l-25 -171h-60z"></glyph><glyph glyph-name="uni0123" unicode="ģ" d="M480 487h73v-440q0 -110 -64 -174t-173 -64q-135 0 -229 94l45 54q88 -77 182 -77q76 0 119 42.5t43 120.5v43q-29 -38 -77.5 -59.5t-103.5 -21.5q-103 0 -171 70t-68 176q0 105 68.5 176t170.5 71q58 0 107.5 -23.5t77.5 -65.5v78zM477 251q0 83 -49.5 128.5 t-120.5 45.5q-75 0 -124 -49.5t-49 -125.5q0 -77 49 -125.5t124 -48.5q72 0 121 45.5t49 129.5zM273 566l32 214h58l-14 -214h-76z"></glyph><glyph glyph-name="Hcircumflex" unicode="Ĥ" d="M91 0v660h78v-272h370v272h78v-660h-78v318h-370v-318h-78zM524 724h-60l-110 108l-111 -108h-60l147 186h47z"></glyph><glyph glyph-name="hcircumflex" unicode="ĥ" d="M488 306v-306h-77v296q0 60 -32.5 95.5t-88.5 35.5t-92 -37t-36 -94v-296h-77v750h77v-318q53 66 146 66q83 0 131.5 -52.5t48.5 -139.5zM332 814h-60l-110 108l-111 -108h-60l147 186h47z"></glyph><glyph glyph-name="Hbar" unicode="Ħ" d="M95 0v460h-99v66h99v134h78v-134h371v134h78v-134h100v-66h-100v-460h-78v253h-371v-253h-78zM173 324h371v136h-371v-136z"></glyph><glyph glyph-name="hbar" unicode="ħ" d="M492 293v-293h-77v284q0 58 -33 93.5t-88 35.5q-57 0 -93.5 -36.5t-36.5 -92.5v-284h-76v579h-83v68h83v103h76v-103h202v-68h-202v-162q51 67 147 67q83 0 132 -52t49 -139z"></glyph><glyph glyph-name="Itilde" unicode="Ĩ" d="M91 0v660h78v-660h-78zM138 766l-33 20q-30 20 -43 20q-14 0 -22 -11t-8 -27v-16h-64q-2 18 -2 25q0 44 24 72.5t63 28.5q33 0 70 -23l34 -22q29 -20 44 -20q14 0 22 10.5t8 26.5v18h64q1 -5 1 -26q0 -43 -23.5 -71.5t-61.5 -28.5q-34 0 -73 24z"></glyph><glyph glyph-name="itilde" unicode="ĩ" d="M85 0v487h77v-487h-77zM124 626l-19 18q-23 23 -36 23q-27 0 -27 -41v-17h-64q-2 14 -2 24q0 46 23 75.5t61 29.5q36 0 65 -29l19 -19q23 -23 36 -23q26 0 26 41v17h63q2 -14 2 -24q0 -46 -22 -75.5t-60 -29.5q-33 0 -65 30z"></glyph><glyph glyph-name="Imacron" unicode="Ī" d="M91 0v660h78v-660h-78zM-16 770v63h295v-63h-295z"></glyph><glyph glyph-name="imacron" unicode="ī" d="M85 0v487h77v-487h-77zM14 641v64h220v-64h-220z"></glyph><glyph glyph-name="Ibreve" unicode="Ĭ" d="M91 0v660h78v-660h-78zM-21 885v25h63v-24q0 -45 24 -72t64 -27q41 0 65 26.5t24 72.5v24h63v-25q0 -71 -42.5 -115t-109.5 -44q-68 0 -109.5 43.5t-41.5 115.5z"></glyph><glyph glyph-name="ibreve" unicode="ĭ" d="M85 0v487h77v-487h-77zM-28 731v31h63v-29q0 -46 24 -72.5t64 -26.5q41 0 65 26.5t24 72.5v29h63v-31q0 -71 -42 -114.5t-110 -43.5q-67 0 -109 44t-42 114z"></glyph><glyph glyph-name="Iogonek" unicode="Į" d="M91 0v660h78v-660h-78zM-10 -104q0 37 32 67q32 29 116 72l31 -35l-50 -33q-33 -22 -42.5 -32.5t-9.5 -26.5q0 -37 48 -37q23 0 54 7v-58q-36 -11 -72 -11q-48 0 -77.5 24t-29.5 63z"></glyph><glyph glyph-name="iogonek" unicode="į" d="M85 0v487h77v-487h-77zM66 673q0 23 17 39.5t41 16.5q23 0 40 -16.5t17 -39.5q0 -24 -16.5 -40t-40.5 -16t-41 16t-17 40zM-17 -104q0 37 32 67q32 29 116 72l31 -35l-50 -33q-32 -22 -42 -32.5t-10 -26.5q0 -37 48 -37q23 0 54 7v-58q-36 -11 -72 -11q-48 0 -77.5 24 t-29.5 63z"></glyph><glyph glyph-name="Idot" unicode="İ" d="M91 0v660h78v-660h-78zM73 810q0 23 17 39.5t41 16.5q23 0 40 -16.5t17 -39.5q0 -24 -16.5 -40t-40.5 -16t-41 16t-17 40z"></glyph><glyph glyph-name="dotlessi" unicode="ı" d="M85 0v487h77v-487h-77z"></glyph><glyph glyph-name="IJ" unicode="Ĳ" d="M91 0v660h78v-660h-78zM283 0v67q41 -6 72 -6q56 0 82.5 22.5t26.5 76.5v500h78v-507q0 -82 -45 -123t-127 -41q-37 0 -87 11z"></glyph><glyph glyph-name="ij" unicode="ĳ" d="M85 0v487h77v-487h-77zM66 673q0 23 17 39.5t41 16.5q23 0 40 -16.5t17 -39.5q0 -24 -16.5 -40t-40.5 -16t-41 16t-17 40zM186 -183v65q26 -3 45 -3q50 0 75 22t25 71v515h77v-520q0 -78 -42.5 -118t-117.5 -40q-32 0 -62 8zM312 673q0 23 17 39.5t41 16.5q23 0 40 -16.5 t17 -39.5q0 -24 -16.5 -40t-40.5 -16t-41 16t-17 40z"></glyph><glyph glyph-name="Jcircumflex" unicode="Ĵ" d="M24 0v67q40 -6 72 -6q56 0 82.5 22.5t26.5 76.5v500h78v-507q0 -82 -45 -123t-127 -41q-37 0 -87 11zM405 724h-60l-110 108l-111 -108h-60l147 186h47z"></glyph><glyph glyph-name="jcircumflex" unicode="ĵ" d="M-60 -183v65q26 -3 45 -3q50 0 75 22t25 71v515h77v-520q0 -78 -42.5 -118t-117.5 -40q-32 0 -62 8zM283 566h-58l-100 128l-101 -128h-59l136 214h47z"></glyph><glyph glyph-name="uni0136" unicode="Ķ" d="M91 0v660h78v-660h-78zM280 354l322 -354h-99l-325 354l297 306h100zM256 -220l9 171h76l-25 -171h-60z"></glyph><glyph glyph-name="uni0137" unicode="ķ" d="M85 0v750h77v-750h-77zM263 273l230 -273h-99l-224 274l203 213h101zM206 -220l9 171h76l-25 -171h-60z"></glyph><glyph glyph-name="Lacute" unicode="Ĺ" d="M91 0v660h78v-590h313v-70h-391zM100 724l85 186h94v-14l-120 -172h-59z"></glyph><glyph glyph-name="lacute" unicode="ĺ" d="M85 0v750h77v-750h-77zM94 814l85 186h94v-14l-120 -172h-59z"></glyph><glyph glyph-name="uni013B" unicode="Ļ" d="M91 0v660h78v-590h313v-70h-391zM231 -220l9 171h76l-25 -171h-60z"></glyph><glyph glyph-name="uni013C" unicode="ļ" d="M85 0v750h77v-750h-77zM76 -220l9 171h76l-25 -171h-60z"></glyph><glyph glyph-name="Lcaron" unicode="Ľ" d="M91 0v660h78v-590h313v-70h-391zM363 509l13 211h83l-39 -211h-57z"></glyph><glyph glyph-name="lcaron" unicode="ľ" d="M85 0v750h77v-750h-77zM262 539l13 211h83l-39 -211h-57z"></glyph><glyph glyph-name="Ldot" unicode="Ŀ" d="M91 0v660h78v-590h313v-70h-391zM325 368q0 27 18.5 45t44.5 18t44.5 -18t18.5 -45t-18.5 -45t-44.5 -18t-44.5 18t-18.5 45z"></glyph><glyph glyph-name="ldot" unicode="ŀ" d="M85 0v750h77v-750h-77zM213 314q0 27 18.5 45t44.5 18t44.5 -18t18.5 -45t-18.5 -45t-44.5 -18t-44.5 18t-18.5 45z"></glyph><glyph glyph-name="Lslash" unicode="Ł" d="M169 70h313v-70h-391v254l-79 -35v72l79 35v334h78v-304l220 101v-74l-220 -100v-213z"></glyph><glyph glyph-name="lslash" unicode="ł" d="M298 450v-73l-87 -40v-337h-77v310l-78 -36v73l78 37v366h77v-340z"></glyph><glyph glyph-name="Nacute" unicode="Ń" d="M539 660h78v-671h-28l-420 506v-495h-78v671h28l420 -507v496zM325 724l85 186h94v-14l-120 -172h-59z"></glyph><glyph glyph-name="nacute" unicode="ń" d="M488 306v-306h-77v297q0 58 -32.5 94t-88.5 36t-92 -36.5t-36 -93.5v-297h-77v487h72v-52q57 63 150 63q84 0 132.5 -52.5t48.5 -139.5zM258 566l85 214h94v-14l-120 -200h-59z"></glyph><glyph glyph-name="uni0145" unicode="Ņ" d="M539 660h78v-671h-28l-420 506v-495h-78v671h28l420 -507v496zM306 -220l9 171h76l-25 -171h-60z"></glyph><glyph glyph-name="uni0146" unicode="ņ" d="M488 306v-306h-77v297q0 58 -32.5 94t-88.5 36t-92 -36.5t-36 -93.5v-297h-77v487h72v-52q57 63 150 63q84 0 132.5 -52.5t48.5 -139.5zM237 -220l9 171h76l-25 -171h-60z"></glyph><glyph glyph-name="Ncaron" unicode="Ň" d="M539 660h78v-671h-28l-420 506v-495h-78v671h28l420 -507v496zM464 910h60l-147 -186h-47l-147 186h60l111 -108z"></glyph><glyph glyph-name="ncaron" unicode="ň" d="M488 306v-306h-77v297q0 58 -32.5 94t-88.5 36t-92 -36.5t-36 -93.5v-297h-77v487h72v-52q57 63 150 63q84 0 132.5 -52.5t48.5 -139.5zM386 780h58l-135 -214h-47l-136 214h59l101 -128z"></glyph><glyph glyph-name="Eng" unicode="Ŋ" d="M539 660h78v-693q0 -79 -42 -118.5t-118 -39.5q-31 0 -61 8v65q26 -3 45 -3q50 0 74 21.5t24 71.5v41l-370 474v-487h-78v671h28l420 -540v529z"></glyph><glyph glyph-name="eng" unicode="ŋ" d="M488 306v-339q0 -78 -42.5 -118t-117.5 -40q-32 0 -62 8v65q26 -3 44 -3q51 0 76 21.5t25 71.5v324q0 60 -32.5 95.5t-88.5 35.5t-92 -37t-36 -94v-296h-77v487h72v-52q57 63 150 63q84 0 132.5 -52.5t48.5 -139.5z"></glyph><glyph glyph-name="Omacron" unicode="Ō" d="M48 330q-3 141 99 242t243 99q140 2 243 -99t100 -242q3 -141 -100 -242t-243 -99q-140 -3 -242.5 99t-99.5 242zM652 331q2 112 -75 191t-186 77q-112 0 -187 -76.5t-75 -191.5t75 -192.5t187 -77.5q109 -2 186 77.5t75 192.5zM244 770v63h295v-63h-295z"></glyph><glyph glyph-name="omacron" unicode="ō" d="M50 244q-2 104 74.5 180t180.5 74q105 2 181 -74t74 -180q2 -103 -75 -179.5t-181 -74.5q-104 -2 -180 74.5t-74 179.5zM481 243q0 78 -50.5 131t-125.5 53t-125.5 -52.5t-50.5 -131.5q0 -77 50.5 -129.5t124.5 -52.5t125.5 53t51.5 129zM168 642v62h275v-62h-275z"></glyph><glyph glyph-name="Obreve" unicode="Ŏ" d="M48 330q-3 141 99 242t243 99q140 2 243 -99t100 -242q3 -141 -100 -242t-243 -99q-140 -3 -242.5 99t-99.5 242zM652 331q2 112 -75 191t-186 77q-112 0 -187 -76.5t-75 -191.5t75 -192.5t187 -77.5q109 -2 186 77.5t75 192.5zM239 885v25h63v-24q0 -45 24 -72t64 -27 q41 0 65 26.5t24 72.5v24h63v-25q0 -71 -42.5 -115t-109.5 -44q-68 0 -109.5 43.5t-41.5 115.5z"></glyph><glyph glyph-name="obreve" unicode="ŏ" d="M50 244q-2 104 74.5 180t180.5 74q105 2 181 -74t74 -180q2 -103 -75 -179.5t-181 -74.5q-104 -2 -180 74.5t-74 179.5zM481 243q0 78 -50.5 131t-125.5 53t-125.5 -52.5t-50.5 -131.5q0 -77 50.5 -129.5t124.5 -52.5t125.5 53t51.5 129zM153 731v31h63v-29 q0 -46 24 -72.5t64 -26.5q41 0 65 26.5t24 72.5v29h63v-31q0 -71 -42 -114.5t-110 -43.5q-67 0 -109 44t-42 114z"></glyph><glyph glyph-name="Ohungarumlaut" unicode="Ő" d="M48 330q-3 141 99 242t243 99q140 2 243 -99t100 -242q3 -141 -100 -242t-243 -99q-140 -3 -242.5 99t-99.5 242zM652 331q2 112 -75 191t-186 77q-112 0 -187 -76.5t-75 -191.5t75 -192.5t187 -77.5q109 -2 186 77.5t75 192.5zM242 724l86 186h83v-14l-114 -172h-55z M461 724l86 186h83v-14l-114 -172h-55z"></glyph><glyph glyph-name="ohungarumlaut" unicode="ő" d="M50 244q-2 104 74.5 180t180.5 74q105 2 181 -74t74 -180q2 -103 -75 -179.5t-181 -74.5q-104 -2 -180 74.5t-74 179.5zM481 243q0 78 -50.5 131t-125.5 53t-125.5 -52.5t-50.5 -131.5q0 -77 50.5 -129.5t124.5 -52.5t125.5 53t51.5 129zM173 566l86 214h83v-14 l-114 -200h-55zM372 566l86 214h83v-14l-114 -200h-55z"></glyph><glyph glyph-name="OE" unicode="Œ" d="M730 70h357v-70h-435v125q-41 -64 -110.5 -100t-152.5 -36q-142 -2 -242.5 98.5t-98.5 242.5q-2 141 99.5 242t242.5 99q83 0 152.5 -36t109.5 -99v124h423v-70h-345v-202h264v-70h-264v-248zM652 330q0 114 -75.5 191.5t-186.5 77.5q-112 0 -186.5 -77t-74.5 -192 t74.5 -192t186.5 -77q111 0 186.5 77.5t75.5 191.5z"></glyph><glyph glyph-name="oe" unicode="œ" d="M925 219h-378q7 -72 55 -115.5t119 -43.5q82 0 145 65l47 -51q-79 -85 -194 -85q-66 0 -122.5 32.5t-88.5 89.5q-31 -58 -84.5 -90t-121.5 -32q-103 -2 -178.5 74t-73.5 180q0 107 74 181t179 74q67 0 121 -32.5t84 -90.5q33 57 86.5 89.5t118.5 32.5q91 0 154.5 -62.5 t63.5 -157.5q0 -28 -6 -58zM471 243q0 79 -47 131.5t-121 52.5q-75 0 -124.5 -53t-49.5 -131t49.5 -130.5t123.5 -52.5t121.5 52.5t47.5 130.5zM550 287h302q-1 64 -41.5 102t-102.5 38q-59 0 -102.5 -38t-55.5 -102z"></glyph><glyph glyph-name="Racute" unicode="Ŕ" d="M606 0h-91l-205 277h-141v-277h-78v660h232q95 0 153 -53.5t58 -137.5q0 -67 -37 -115.5t-102 -67.5zM169 590v-243h151q63 0 98 32.5t35 88.5q0 55 -35.5 88.5t-97.5 33.5h-151zM233 724l85 186h94v-14l-120 -172h-59z"></glyph><glyph glyph-name="racute" unicode="ŕ" d="M344 487v-68h-29q-64 0 -108.5 -39t-44.5 -104v-276h-77v487h72v-69q54 73 151 73q19 0 36 -4zM146 566l85 214h94v-14l-120 -200h-59z"></glyph><glyph glyph-name="uni0156" unicode="Ŗ" d="M606 0h-91l-205 277h-141v-277h-78v660h232q95 0 153 -53.5t58 -137.5q0 -67 -37 -115.5t-102 -67.5zM169 590v-243h151q63 0 98 32.5t35 88.5q0 55 -35.5 88.5t-97.5 33.5h-151zM264 -220l9 171h76l-25 -171h-60z"></glyph><glyph glyph-name="uni0157" unicode="ŗ" d="M344 487v-68h-29q-64 0 -108.5 -39t-44.5 -104v-276h-77v487h72v-69q54 73 151 73q19 0 36 -4zM75 -220l9 171h76l-25 -171h-60z"></glyph><glyph glyph-name="Rcaron" unicode="Ř" d="M606 0h-91l-205 277h-141v-277h-78v660h232q95 0 153 -53.5t58 -137.5q0 -67 -37 -115.5t-102 -67.5zM169 590v-243h151q63 0 98 32.5t35 88.5q0 55 -35.5 88.5t-97.5 33.5h-151zM372 910h60l-147 -186h-47l-147 186h60l111 -108z"></glyph><glyph glyph-name="rcaron" unicode="ř" d="M344 487v-68h-29q-64 0 -108.5 -39t-44.5 -104v-276h-77v487h72v-69q54 73 151 73q19 0 36 -4zM274 780h58l-135 -214h-47l-136 214h59l101 -128z"></glyph><glyph glyph-name="Sacute" unicode="Ś" d="M41 131l58 43q74 -113 184 -113q60 0 96.5 30t36.5 80q0 42 -23.5 63.5t-86.5 52.5l-74 35q-75 35 -112 75t-37 102q0 76 58 124t141 48q65 0 119.5 -30.5t87.5 -81.5l-57 -43q-56 83 -151 83q-50 0 -83.5 -26t-33.5 -70q0 -29 13 -48q12 -18 31 -30t62 -33l73 -35 q81 -40 117.5 -81t36.5 -103q0 -81 -60 -132.5t-153 -51.5q-76 0 -140 37.5t-103 104.5zM254 724l85 186h94v-14l-120 -172h-59z"></glyph><glyph glyph-name="sacute" unicode="ś" d="M39 84l49 51q38 -39 69.5 -57t70.5 -18q41 0 67 18.5t26 50.5q0 28 -18.5 43.5t-66.5 34.5l-47 20q-63 26 -92 57t-29 78q0 62 46.5 99t117.5 37q99 0 163 -77l-47 -48q-54 54 -120 54q-37 0 -59 -16t-22 -45q0 -23 16.5 -37.5t62.5 -33.5l45 -19q70 -30 99.5 -62.5 t29.5 -81.5q0 -68 -50 -106q-49 -37 -121 -37q-117 0 -190 95zM203 566l85 214h94v-14l-120 -200h-59z"></glyph><glyph glyph-name="Scircumflex" unicode="Ŝ" d="M41 131l58 43q74 -113 184 -113q60 0 96.5 30t36.5 80q0 42 -23.5 63.5t-86.5 52.5l-74 35q-75 35 -112 75t-37 102q0 76 58 124t141 48q65 0 119.5 -30.5t87.5 -81.5l-57 -43q-56 83 -151 83q-50 0 -83.5 -26t-33.5 -70q0 -29 13 -48q12 -18 31 -30t62 -33l73 -35 q81 -40 117.5 -81t36.5 -103q0 -81 -60 -132.5t-153 -51.5q-76 0 -140 37.5t-103 104.5zM453 724h-60l-110 108l-111 -108h-60l147 186h47z"></glyph><glyph glyph-name="scircumflex" unicode="ŝ" d="M39 84l49 51q38 -39 69.5 -57t70.5 -18q41 0 67 18.5t26 50.5q0 28 -18.5 43.5t-66.5 34.5l-47 20q-63 26 -92 57t-29 78q0 62 46.5 99t117.5 37q99 0 163 -77l-47 -48q-54 54 -120 54q-37 0 -59 -16t-22 -45q0 -23 16.5 -37.5t62.5 -33.5l45 -19q70 -30 99.5 -62.5 t29.5 -81.5q0 -68 -50 -106q-49 -37 -121 -37q-117 0 -190 95zM389 566h-58l-100 128l-101 -128h-59l136 214h47z"></glyph><glyph glyph-name="Scedilla" unicode="Ş" d="M41 131l58 43q74 -113 184 -113q60 0 96.5 30t36.5 80q0 42 -23.5 63.5t-86.5 52.5l-74 35q-75 35 -112 75t-37 102q0 76 58 124t141 48q65 0 119.5 -30.5t87.5 -81.5l-57 -43q-56 83 -151 83q-50 0 -83.5 -26t-33.5 -70q0 -29 13 -48q12 -18 31 -30t62 -33l73 -35 q81 -40 117.5 -81t36.5 -103q0 -81 -60 -132.5t-153 -51.5q-76 0 -140 37.5t-103 104.5zM162 -181v55q28 -4 56 -4q78 0 78 65q0 40 -34 74l33 17q67 -34 67 -102q0 -50 -36 -82.5t-96 -32.5q-35 0 -68 10z"></glyph><glyph glyph-name="scedilla" unicode="ş" d="M39 84l49 51q38 -39 69.5 -57t70.5 -18q41 0 67 18.5t26 50.5q0 28 -18.5 43.5t-66.5 34.5l-47 20q-63 26 -92 57t-29 78q0 62 46.5 99t117.5 37q99 0 163 -77l-47 -48q-54 54 -120 54q-37 0 -59 -16t-22 -45q0 -23 16.5 -37.5t62.5 -33.5l45 -19q70 -30 99.5 -62.5 t29.5 -81.5q0 -68 -50 -106q-49 -37 -121 -37q-117 0 -190 95zM112 -181v55q28 -4 56 -4q78 0 78 65q0 40 -34 74l33 17q67 -34 67 -102q0 -50 -36 -82.5t-96 -32.5q-35 0 -68 10z"></glyph><glyph glyph-name="Scaron" unicode="Š" d="M41 131l58 43q74 -113 184 -113q60 0 96.5 30t36.5 80q0 42 -23.5 63.5t-86.5 52.5l-74 35q-75 35 -112 75t-37 102q0 76 58 124t141 48q65 0 119.5 -30.5t87.5 -81.5l-57 -43q-56 83 -151 83q-50 0 -83.5 -26t-33.5 -70q0 -29 13 -48q12 -18 31 -30t62 -33l73 -35 q81 -40 117.5 -81t36.5 -103q0 -81 -60 -132.5t-153 -51.5q-76 0 -140 37.5t-103 104.5zM393 910h60l-147 -186h-47l-147 186h60l111 -108z"></glyph><glyph glyph-name="scaron" unicode="š" d="M39 84l49 51q38 -39 69.5 -57t70.5 -18q41 0 67 18.5t26 50.5q0 28 -18.5 43.5t-66.5 34.5l-47 20q-63 26 -92 57t-29 78q0 62 46.5 99t117.5 37q99 0 163 -77l-47 -48q-54 54 -120 54q-37 0 -59 -16t-22 -45q0 -23 16.5 -37.5t62.5 -33.5l45 -19q70 -30 99.5 -62.5 t29.5 -81.5q0 -68 -50 -106q-49 -37 -121 -37q-117 0 -190 95zM331 780h58l-135 -214h-47l-136 214h59l101 -128z"></glyph><glyph glyph-name="uni0162" unicode="Ţ" d="M251 0v590h-232v70h543v-70h-233v-590h-78zM161 -181v55q28 -4 56 -4q78 0 78 65q0 40 -34 74l33 17q67 -34 67 -102q0 -50 -36 -82.5t-96 -32.5q-35 0 -68 10z"></glyph><glyph glyph-name="uni0163" unicode="ţ" d="M351 65v-65q-49 -11 -81 -11q-78 0 -121 40t-43 118v271h-82v69h82v133h77v-133h152v-69h-152v-266q0 -50 25.5 -71.5t77.5 -21.5q28 0 65 6zM93 -181v55q28 -4 56 -4q78 0 78 65q0 40 -34 74l33 17q67 -34 67 -102q0 -50 -36 -82.5t-96 -32.5q-35 0 -68 10z"></glyph><glyph glyph-name="Tcaron" unicode="Ť" d="M251 0v590h-232v70h543v-70h-233v-590h-78zM401 910h60l-147 -186h-47l-147 186h60l111 -108z"></glyph><glyph glyph-name="tcaron" unicode="ť" d="M351 65v-65q-49 -11 -81 -11q-78 0 -121 40t-43 118v271h-82v69h82v133h77v-133h152v-69h-152v-266q0 -50 25.5 -71.5t77.5 -21.5q28 0 65 6zM278 539l13 211h83l-39 -211h-57z"></glyph><glyph glyph-name="Tbar" unicode="Ŧ" d="M251 0v260h-195v66h195v264h-232v70h543v-70h-233v-264h196v-66h-196v-260h-78z"></glyph><glyph glyph-name="tbar" unicode="ŧ" d="M360 65v-65q-46 -11 -81 -11q-77 0 -120 40t-43 118v72h-83v66h83v135h-83v67h83v133h76v-133h152v-67h-152v-135h152v-66h-152v-67q0 -49 25.5 -71t75.5 -22q29 0 67 6z"></glyph><glyph glyph-name="Utilde" unicode="Ũ" d="M82 262v398h78v-403q0 -94 50.5 -145t134.5 -51q83 0 133 51t50 145v403h78v-398q0 -127 -72.5 -200t-188.5 -73q-118 0 -190.5 73t-72.5 200zM351 766l-33 20q-30 20 -43 20q-14 0 -22 -11t-8 -27v-16h-64q-2 18 -2 25q0 44 24 72.5t63 28.5q33 0 70 -23l34 -22 q29 -20 44 -20q14 0 22 10.5t8 26.5v18h64q1 -5 1 -26q0 -43 -23.5 -71.5t-61.5 -28.5q-34 0 -73 24z"></glyph><glyph glyph-name="utilde" unicode="ũ" d="M79 194v293h76v-298q0 -58 35.5 -93.5t90.5 -35.5q54 0 89 36t35 93v298h77v-293q0 -91 -57.5 -148t-143.5 -57q-87 0 -144.5 57t-57.5 148zM284 622l-26 22q-1 1 -9 7t-11 8t-9.5 5t-12.5 3q-28 0 -28 -41v-17h-64q-1 6 -1 25q0 46 23.5 75t61.5 29q36 0 68 -26l26 -22 q26 -23 42 -23q28 0 28 41v17h64q1 -6 1 -25q0 -46 -23.5 -75t-61.5 -29q-36 0 -68 26z"></glyph><glyph glyph-name="Umacron" unicode="Ū" d="M82 262v398h78v-403q0 -94 50.5 -145t134.5 -51q83 0 133 51t50 145v403h78v-398q0 -127 -72.5 -200t-188.5 -73q-118 0 -190.5 73t-72.5 200zM197 770v63h295v-63h-295z"></glyph><glyph glyph-name="umacron" unicode="ū" d="M79 194v293h76v-298q0 -58 35.5 -93.5t90.5 -35.5q54 0 89 36t35 93v298h77v-293q0 -91 -57.5 -148t-143.5 -57q-87 0 -144.5 57t-57.5 148zM143 642v62h275v-62h-275z"></glyph><glyph glyph-name="Ubreve" unicode="Ŭ" d="M82 262v398h78v-403q0 -94 50.5 -145t134.5 -51q83 0 133 51t50 145v403h78v-398q0 -127 -72.5 -200t-188.5 -73q-118 0 -190.5 73t-72.5 200zM192 885v25h63v-24q0 -45 24 -72t64 -27q41 0 65 26.5t24 72.5v24h63v-25q0 -71 -42.5 -115t-109.5 -44q-68 0 -109.5 43.5 t-41.5 115.5z"></glyph><glyph glyph-name="ubreve" unicode="ŭ" d="M79 194v293h76v-298q0 -58 35.5 -93.5t90.5 -35.5q54 0 89 36t35 93v298h77v-293q0 -91 -57.5 -148t-143.5 -57q-87 0 -144.5 57t-57.5 148zM128 731v31h63v-29q0 -46 24 -72.5t64 -26.5q41 0 65 26.5t24 72.5v29h63v-31q0 -71 -42 -114.5t-110 -43.5q-67 0 -109 44 t-42 114z"></glyph><glyph glyph-name="Uring" unicode="Ů" d="M82 262v398h78v-403q0 -94 50.5 -145t134.5 -51q83 0 133 51t50 145v403h78v-398q0 -127 -72.5 -200t-188.5 -73q-118 0 -190.5 73t-72.5 200zM233 806q0 45 31.5 76.5t78.5 31.5q48 0 79.5 -31.5t31.5 -76.5t-31.5 -76.5t-79.5 -31.5q-47 0 -78.5 31.5t-31.5 76.5z M394 806q0 22 -14.5 36.5t-35.5 14.5q-22 0 -36.5 -14.5t-14.5 -36.5q0 -21 15 -35.5t36 -14.5t35.5 14.5t14.5 35.5z"></glyph><glyph glyph-name="uring" unicode="ů" d="M79 194v293h76v-298q0 -58 35.5 -93.5t90.5 -35.5q54 0 89 36t35 93v298h77v-293q0 -91 -57.5 -148t-143.5 -57q-87 0 -144.5 57t-57.5 148zM169 668q0 46 31.5 77t78.5 31t79 -31t32 -77t-32 -77.5t-79 -31.5q-46 0 -78 31.5t-32 77.5zM330 668q0 22 -15 37t-35 15 q-21 0 -36 -15t-15 -37t14.5 -36t36.5 -14q21 0 35.5 14t14.5 36z"></glyph><glyph glyph-name="Uhungarumlaut" unicode="Ű" d="M82 262v398h78v-403q0 -94 50.5 -145t134.5 -51q83 0 133 51t50 145v403h78v-398q0 -127 -72.5 -200t-188.5 -73q-118 0 -190.5 73t-72.5 200zM195 724l86 186h83v-14l-114 -172h-55zM414 724l86 186h83v-14l-114 -172h-55z"></glyph><glyph glyph-name="uhungarumlaut" unicode="ű" d="M79 194v293h76v-298q0 -58 35.5 -93.5t90.5 -35.5q54 0 89 36t35 93v298h77v-293q0 -91 -57.5 -148t-143.5 -57q-87 0 -144.5 57t-57.5 148zM148 566l86 214h83v-14l-114 -200h-55zM347 566l86 214h83v-14l-114 -200h-55z"></glyph><glyph glyph-name="Uogonek" unicode="Ų" d="M82 262v398h78v-403q0 -94 50.5 -145t134.5 -51q83 0 133 51t50 145v403h78v-398q0 -127 -72.5 -200t-188.5 -73q-118 0 -190.5 73t-72.5 200zM336 -104q2 41 23 70.5t104 107.5h80l-92 -98q-22 -25 -29.5 -37.5t-7.5 -30.5q0 -37 47 -37q23 0 54 7v-58q-36 -11 -72 -11 q-48 0 -77.5 23.5t-29.5 63.5z"></glyph><glyph glyph-name="uogonek" unicode="ų" d="M405 487h77v-293q0 -50 -15 -84q-12 -32 -35 -56q-18 -20 -75 -70q-28 -26 -38.5 -41t-10.5 -33q0 -42 52 -42q24 0 53 7v-53q-39 -13 -74 -13q-48 0 -76 21.5t-28 62.5q0 53 57 96h-11q-87 0 -144.5 57t-57.5 148v293h76v-298q0 -58 35.5 -93.5t90.5 -35.5q54 0 89 36 t35 93v298z"></glyph><glyph glyph-name="Wcircumflex" unicode="Ŵ" d="M935 660h85l-250 -671h-28l-209 524l-209 -524h-28l-251 671h86l182 -503l206 514h28l206 -513zM703 724h-60l-110 108l-111 -108h-60l147 186h47z"></glyph><glyph glyph-name="wcircumflex" unicode="ŵ" d="M742 487h82l-205 -498h-28l-166 368l-165 -368h-27l-207 498h82l141 -361l162 372h29l164 -369zM582 566h-58l-100 128l-101 -128h-59l136 214h47z"></glyph><glyph glyph-name="Ycircumflex" unicode="Ŷ" d="M576 660l-229 -387v-273h-78v273l-229 387h88l180 -310l181 310h87zM475 724h-60l-110 108l-111 -108h-60l147 186h47z"></glyph><glyph glyph-name="ycircumflex" unicode="ŷ" d="M431 487h82l-240 -555q-54 -123 -165 -123q-39 0 -75 10v65q42 -5 59 -5q40 0 66 17.5t44 60.5l26 58l-202 472h83l161 -388zM426 566h-58l-100 128l-101 -128h-59l136 214h47z"></glyph><glyph glyph-name="Ydieresis" unicode="Ÿ" d="M576 660l-229 -387v-273h-78v273l-229 387h88l180 -310l181 310h87zM133 810q0 22 16.5 37.5t38.5 15.5q23 0 39 -15.5t16 -37.5t-16 -37.5t-39 -15.5q-22 0 -38.5 15.5t-16.5 37.5zM366 809q0 22 16.5 38t38.5 16q23 0 39 -16t16 -38t-16 -37.5t-39 -15.5 q-22 0 -38.5 15.5t-16.5 37.5z"></glyph><glyph glyph-name="Zacute" unicode="Ź" d="M154 70h401v-70h-523v23l398 567h-355v70h479v-23zM271 724l85 186h94v-14l-120 -172h-59z"></glyph><glyph glyph-name="zacute" unicode="ź" d="M145 68h282v-68h-400v23l278 395h-255v69h374v-23zM210 566l85 214h94v-14l-120 -200h-59z"></glyph><glyph glyph-name="Zdotaccent" unicode="Ż" d="M154 70h401v-70h-523v23l398 567h-355v70h479v-23zM242 810q0 23 17 39.5t41 16.5q23 0 40 -16.5t17 -39.5q0 -24 -16.5 -40t-40.5 -16t-41 16t-17 40z"></glyph><glyph glyph-name="zdotaccent" unicode="ż" d="M145 68h282v-68h-400v23l278 395h-255v69h374v-23zM179 673q0 23 17 39.5t41 16.5q23 0 40 -16.5t17 -39.5q0 -24 -16.5 -40t-40.5 -16t-41 16t-17 40z"></glyph><glyph glyph-name="Zcaron" unicode="Ž" d="M154 70h401v-70h-523v23l398 567h-355v70h479v-23zM410 910h60l-147 -186h-47l-147 186h60l111 -108z"></glyph><glyph glyph-name="zcaron" unicode="ž" d="M145 68h282v-68h-400v23l278 395h-255v69h374v-23zM338 780h58l-135 -214h-47l-136 214h59l101 -128z"></glyph><glyph glyph-name="uni018F" unicode="Ə" d="M683 332q2 -142 -93.5 -243.5t-232.5 -99.5q-129 0 -219 82t-90 211q0 29 6 71h547q-6 108 -73 177t-168 69q-144 0 -225 -111l-54 45q100 138 280 138q136 2 230 -98t92 -241zM599 283h-473q-3 -99 65.5 -160.5t168.5 -61.5q95 0 159 61q65 62 80 161z"></glyph><glyph glyph-name="florin" unicode="ƒ" d="M437 663v-64q-9 0 -19.5 0.5t-16 1t-8.5 0.5q-49 0 -73 -21.5t-31 -71.5l-13 -109h104v-69h-113l-37 -306q-19 -157 -166 -157q-31 0 -59 7v65q25 -3 44 -3q49 0 73.5 22t31.5 72l37 300h-98v69h106l14 114q20 158 166 158q31 0 58 -8z"></glyph><glyph glyph-name="uni01D4" unicode="ǔ" d="M79 194v293h76v-298q0 -58 35.5 -93.5t90.5 -35.5q54 0 89 36t35 93v298h77v-293q0 -91 -57.5 -148t-143.5 -57q-87 0 -144.5 57t-57.5 148zM381 780h58l-135 -214h-47l-136 214h59l101 -128z"></glyph><glyph glyph-name="AEacute" unicode="Ǽ" d="M535 70h246v-70h-314l-23 134h-276l-71 -134h-84l344 660h412v-70h-322l34 -202h208v-70h-196zM377 541l-172 -337h227zM388 724l85 186h94v-14l-120 -172h-59z"></glyph><glyph glyph-name="aeacute" unicode="ǽ" d="M837 211h-382q10 -69 58.5 -110t118.5 -41q82 0 147 65l46 -51q-76 -85 -194 -85q-67 0 -123.5 31.5t-89.5 86.5q-26 -56 -79.5 -87t-122.5 -31q-77 0 -124.5 38.5t-47.5 102.5q0 65 48 104.5t127 39.5h154v30q0 59 -31.5 91t-85.5 32q-81 0 -141 -78l-51 42 q32 52 84 79.5t113 27.5q124 0 167 -102q33 48 84.5 75t111.5 27q93 0 156.5 -62.5t63.5 -158.5q0 -45 -7 -66zM455 274h309q4 69 -38 111.5t-106 42.5q-65 0 -110.5 -42.5t-54.5 -111.5zM373 186v25h-145q-105 0 -105 -73q0 -39 28.5 -61.5t73.5 -22.5q59 0 103.5 38.5 t44.5 93.5zM399 566l85 214h94v-14l-120 -200h-59z"></glyph><glyph glyph-name="Oslashacute" unicode="Ǿ" d="M739 631l-83 -83q77 -94 77 -218q3 -141 -100 -242t-243 -99q-123 0 -217 75l-83 -83l-48 48l83 83q-77 94 -77 218q-3 141 99 242t243 99q122 0 217 -76l84 84zM126 331q0 -96 52 -166l379 379q-70 58 -166 58q-113 0 -189 -78t-76 -193zM655 331q0 95 -52 165 l-379 -381q70 -57 167 -57q112 0 188 79t76 194zM362 724l85 186h94v-14l-120 -172h-59z"></glyph><glyph glyph-name="oslashacute" unicode="ǿ" d="M572 458l-59 -60q52 -67 52 -155q2 -103 -75.5 -179.5t-180.5 -74.5q-87 0 -154 52l-58 -60l-48 48l59 59q-52 67 -52 155q-2 105 74 181t180 74q88 0 155 -52l59 58zM130 243q0 -61 30 -107l258 260q-49 34 -108 34q-78 0 -129 -53.5t-51 -133.5zM491 243q0 61 -30 107 l-259 -259q45 -36 107 -36q76 0 129 54.5t53 133.5zM284 566l85 214h94v-14l-120 -200h-59z"></glyph><glyph glyph-name="uni0218" unicode="Ș" d="M41 131l58 43q74 -113 184 -113q60 0 96.5 30t36.5 80q0 42 -23.5 63.5t-86.5 52.5l-74 35q-75 35 -112 75t-37 102q0 76 58 124t141 48q65 0 119.5 -30.5t87.5 -81.5l-57 -43q-56 83 -151 83q-50 0 -83.5 -26t-33.5 -70q0 -29 13 -48q12 -18 31 -30t62 -33l73 -35 q81 -40 117.5 -81t36.5 -103q0 -81 -60 -132.5t-153 -51.5q-76 0 -140 37.5t-103 104.5zM244 -220l9 171h76l-25 -171h-60z"></glyph><glyph glyph-name="uni0219" unicode="ș" d="M39 84l49 51q38 -39 69.5 -57t70.5 -18q41 0 67 18.5t26 50.5q0 28 -18.5 43.5t-66.5 34.5l-47 20q-63 26 -92 57t-29 78q0 62 46.5 99t117.5 37q99 0 163 -77l-47 -48q-54 54 -120 54q-37 0 -59 -16t-22 -45q0 -23 16.5 -37.5t62.5 -33.5l45 -19q70 -30 99.5 -62.5 t29.5 -81.5q0 -68 -50 -106q-49 -37 -121 -37q-117 0 -190 95zM194 -220l9 171h76l-25 -171h-60z"></glyph><glyph glyph-name="uni021A" unicode="Ț" d="M251 0v590h-232v70h543v-70h-233v-590h-78zM243 -220l9 171h76l-25 -171h-60z"></glyph><glyph glyph-name="uni021B" unicode="ț" d="M351 65v-65q-49 -11 -81 -11q-78 0 -121 40t-43 118v271h-82v69h82v133h77v-133h152v-69h-152v-266q0 -50 25.5 -71.5t77.5 -21.5q28 0 65 6zM174 -220l9 171h76l-25 -171h-60z"></glyph><glyph glyph-name="uni0237" unicode="ȷ" d="M-60 -183v65q26 -3 45 -3q50 0 75 22t25 71v515h77v-520q0 -78 -42.5 -118t-117.5 -40q-32 0 -62 8z"></glyph><glyph glyph-name="uni0259" unicode="ə" d="M521 244q0 -108 -68.5 -181.5t-173.5 -73.5q-97 0 -163 62t-66 158q0 28 6 58h385q-7 73 -53.5 116.5t-118.5 43.5q-90 0 -156 -66l-45 52q79 85 202 85q109 0 180 -73t71 -181zM438 199h-308q2 -64 44.5 -102.5t106.5 -38.5q62 0 104 38.5t53 102.5z"></glyph><glyph glyph-name="circumflex" unicode="ˆ" d="M459 566h-58l-100 128l-101 -128h-59l136 214h47z"></glyph><glyph glyph-name="caron" unicode="ˇ" d="M401 780h58l-135 -214h-47l-136 214h59l101 -128z"></glyph><glyph glyph-name="breve" unicode="˘" d="M148 731v31h63v-29q0 -46 24 -72.5t64 -26.5q41 0 65 26.5t24 72.5v29h63v-31q0 -71 -42 -114.5t-110 -43.5q-67 0 -109 44t-42 114z"></glyph><glyph glyph-name="dotaccent" unicode="˙" d="M242 673q0 23 17 39.5t41 16.5q23 0 40 -16.5t17 -39.5q0 -24 -16.5 -40t-40.5 -16t-41 16t-17 40z"></glyph><glyph glyph-name="ring" unicode="˚" d="M189 668q0 46 31.5 77t78.5 31t79 -31t32 -77t-32 -77.5t-79 -31.5q-46 0 -78 31.5t-32 77.5zM350 668q0 22 -15 37t-35 15q-21 0 -36 -15t-15 -37t14.5 -36t36.5 -14q21 0 35.5 14t14.5 36z"></glyph><glyph glyph-name="ogonek" unicode="˛" d="M211 -104q0 37 32 67q32 29 116 72l31 -35l-50 -33q-23 -16 -31.5 -23t-14.5 -16t-6 -20q0 -37 48 -37q23 0 54 7v-58q-36 -11 -72 -11q-48 0 -77.5 24t-29.5 63z"></glyph><glyph glyph-name="tilde" unicode="˜" d="M304 622l-26 22q-1 1 -9 7t-11 8t-9.5 5t-12.5 3q-28 0 -28 -41v-17h-64q-1 6 -1 25q0 46 23.5 75t61.5 29q36 0 68 -26l26 -22q26 -23 42 -23q28 0 28 41v17h64q1 -6 1 -25q0 -46 -23.5 -75t-61.5 -29q-35 0 -68 26z"></glyph><glyph glyph-name="hungarumlaut" unicode="˝" d="M116 566l86 214h83v-14l-114 -200h-55zM315 566l86 214h83v-14l-114 -200h-55z"></glyph><glyph glyph-name="gravecomb" unicode="̀" d="M-220 566l-120 200v14h94l85 -214h-59z"></glyph><glyph glyph-name="acutecomb" unicode="́" d="M-340 566l85 214h94v-14l-120 -200h-59z"></glyph><glyph glyph-name="uni0302" unicode="̂" d="M-91 566h-58l-100 128l-101 -128h-59l136 214h47z"></glyph><glyph glyph-name="tildecomb" unicode="̃" d="M-246 622l-26 22q-1 1 -9 7t-11 8t-9.5 5t-12.5 3q-28 0 -28 -41v-17h-64q-1 6 -1 25q0 46 23.5 75t61.5 29q36 0 68 -26l26 -22q26 -23 42 -23q28 0 28 41v17h64q1 -6 1 -25q0 -46 -23.5 -75t-61.5 -29q-36 0 -68 26z"></glyph><glyph glyph-name="uni0304" unicode="̄" d="M-387 642v62h275v-62h-275z"></glyph><glyph glyph-name="uni0306" unicode="̆" d="M-402 731v31h63v-29q0 -46 24 -72.5t64 -26.5q41 0 65 26.5t24 72.5v29h63v-31q0 -71 -42 -114.5t-110 -43.5q-67 0 -109 44t-42 114z"></glyph><glyph glyph-name="uni0307" unicode="̇" d="M-308 673q0 23 17 39.5t41 16.5q23 0 40 -16.5t17 -39.5q0 -24 -16.5 -40t-40.5 -16t-41 16t-17 40z"></glyph><glyph glyph-name="uni0308" unicode="̈" d="M-412 673q0 21 17 37.5t38 16.5q23 0 39.5 -16t16.5 -38t-16.5 -37.5t-39.5 -15.5q-21 0 -38 16t-17 37zM-200 673q0 22 17 38t39 16q23 0 39 -16t16 -38t-16 -37.5t-39 -15.5q-22 0 -39 16t-17 37z"></glyph><glyph glyph-name="uni030A" unicode="̊" d="M-361 668q0 46 31.5 77t78.5 31t79 -31t32 -77t-32 -77.5t-79 -31.5q-46 0 -78 31.5t-32 77.5zM-200 668q0 22 -15 37t-35 15q-21 0 -36 -15t-15 -37t14.5 -36t36.5 -14q21 0 35.5 14t14.5 36z"></glyph><glyph glyph-name="uni030B" unicode="̋" d="M-434 566l86 214h83v-14l-114 -200h-55zM-235 566l86 214h83v-14l-114 -200h-55z"></glyph><glyph glyph-name="uni030C" unicode="̌" d="M-149 780h58l-135 -214h-47l-136 214h59l101 -128z"></glyph><glyph glyph-name="uni0326" unicode="̦" d="M-293 -220l9 171h76l-25 -171h-60z"></glyph><glyph glyph-name="uni0327" unicode="̧" d="M-350 -181v55q28 -4 56 -4q78 0 78 65q0 40 -34 74l33 17q67 -34 67 -102q0 -50 -36 -82.5t-96 -32.5q-35 0 -68 10z"></glyph><glyph glyph-name="uni0328" unicode="̨" d="M-339 -104q0 37 33 67q30 29 115 72l31 -35l-50 -33q-32 -22 -42 -32.5t-10 -26.5q0 -37 48 -37q23 0 54 7v-58q-36 -11 -72 -11q-48 0 -77.5 24t-29.5 63z"></glyph><glyph glyph-name="tonos" unicode="΄" d="M188 566l30 214h93v-14l-63 -200h-60z"></glyph><glyph glyph-name="dieresistonos" unicode="΅" d="M190 566l39 214h93v-14l-74 -200h-58zM43 673q0 21 17 37.5t38 16.5q23 0 39 -15.5t16 -38.5q0 -22 -16 -37.5t-39 -15.5q-21 0 -38 16t-17 37zM346 673q0 22 16 38t39 16t39 -16t16 -38t-16 -37.5t-39 -15.5t-39 15.5t-16 37.5z"></glyph><glyph glyph-name="Alphatonos" unicode="Ά" d="M549 0l-56 134h-324l-56 -134h-82l286 671h29l286 -671h-83zM463 204l-132 325l-132 -325h264zM36 449l13 211h83l-39 -211h-57z"></glyph><glyph glyph-name="anoteleia" unicode="·" d="M77 314q0 27 18.5 45t44.5 18t44.5 -18t18.5 -45t-18.5 -45t-44.5 -18t-44.5 18t-18.5 45z"></glyph><glyph glyph-name="Epsilontonos" unicode="Έ" d="M91 0v660h423v-70h-345v-202h264v-70h-264v-248h357v-70h-435zM-96 449l13 211h83l-39 -211h-57z"></glyph><glyph glyph-name="Etatonos" unicode="Ή" d="M91 0v660h78v-272h370v272h78v-660h-78v318h-370v-318h-78zM-96 449l13 211h83l-39 -211h-57z"></glyph><glyph glyph-name="Iotatonos" unicode="Ί" d="M91 0v660h78v-660h-78zM-96 449l13 211h83l-39 -211h-57z"></glyph><glyph glyph-name="Omicrontonos" unicode="Ό" d="M48 330q-3 141 99 242t243 99q140 2 243 -99t100 -242q3 -141 -100 -242t-243 -99q-140 -3 -242.5 99t-99.5 242zM652 331q2 112 -75 191t-186 77q-112 0 -187 -76.5t-75 -191.5t75 -192.5t187 -77.5q109 -2 186 77.5t75 192.5zM-48 449l13 211h83l-39 -211h-57z"></glyph><glyph glyph-name="Upsilontonos" unicode="Ύ" d="M576 660l-229 -387v-273h-78v273l-229 387h88l180 -310l181 310h87zM-117 449l13 211h83l-39 -211h-57z"></glyph><glyph glyph-name="Omegatonos" unicode="Ώ" d="M576 70h152v-70h-269v70q198 92 198 270q0 112 -74.5 185.5t-187.5 73.5t-187 -73t-74 -185q0 -176 198 -271v-70h-269v70h150q-160 106 -160 273q-2 137 98.5 233.5t243.5 94.5q142 2 243.5 -95t99.5 -233q0 -160 -162 -273zM-48 449l13 211h83l-39 -211h-57z"></glyph><glyph glyph-name="iotadieresistonos" unicode="ΐ" d="M82 143v344h77v-335q0 -49 19.5 -71t62.5 -22q27 0 65 6v-65q-49 -11 -81 -11q-143 0 -143 154zM68 566l39 214h93v-14l-74 -200h-58zM-79 673q0 21 17 37.5t38 16.5q23 0 39 -15.5t16 -38.5q0 -22 -16 -37.5t-39 -15.5q-21 0 -38 16t-17 37zM224 673q0 22 16 38t39 16 t39 -16t16 -38t-16 -37.5t-39 -15.5t-39 15.5t-16 37.5z"></glyph><glyph glyph-name="Alpha" unicode="Α" d="M549 0l-56 134h-324l-56 -134h-82l286 671h29l286 -671h-83zM463 204l-132 325l-132 -325h264z"></glyph><glyph glyph-name="Beta" unicode="Β" d="M572 190q0 -84 -57 -137t-152 -53h-272v660h227q85 0 137 -47q51 -47 51 -120q0 -81 -63 -130q61 -18 95 -63.5t34 -109.5zM310 590h-141v-205h141q56 0 86 27.5t30 75.5t-30 75t-86 27zM492 192q0 56 -36.5 89t-100.5 33h-186v-244h186q64 0 100.5 33t36.5 89z"></glyph><glyph glyph-name="Gamma" unicode="Γ" d="M91 0v660h391v-70h-313v-590h-78z"></glyph><glyph glyph-name="uni0394" unicode="Δ" d="M346 671l277 -648v-23h-583v23l277 648h29zM520 70l-189 447l-188 -447h377z"></glyph><glyph glyph-name="Epsilon" unicode="Ε" d="M91 0v660h423v-70h-345v-202h264v-70h-264v-248h357v-70h-435z"></glyph><glyph glyph-name="Zeta" unicode="Ζ" d="M154 70h401v-70h-523v23l398 567h-355v70h479v-23z"></glyph><glyph glyph-name="Eta" unicode="Η" d="M91 0v660h78v-272h370v272h78v-660h-78v318h-370v-318h-78z"></glyph><glyph glyph-name="Theta" unicode="Θ" d="M48 330q-3 141 99 242t243 99q140 2 243 -99t100 -242q3 -141 -100 -242t-243 -99q-140 -3 -242.5 99t-99.5 242zM656 330q2 113 -76 193.5t-190 78.5q-113 0 -188.5 -78t-75.5 -194t75.5 -194t188.5 -78q112 -2 190 78.5t76 193.5zM232 293v70h317v-70h-317z"></glyph><glyph glyph-name="Iota" unicode="Ι" d="M91 0v660h78v-660h-78z"></glyph><glyph glyph-name="Kappa" unicode="Κ" d="M91 0v660h78v-660h-78zM280 354l322 -354h-99l-325 354l297 306h100z"></glyph><glyph glyph-name="Lambda" unicode="Λ" d="M632 0h-83l-218 518l-218 -518h-82l286 671h29z"></glyph><glyph glyph-name="Mu" unicode="Μ" d="M671 671h27v-671h-78v473l-211 -286h-28l-212 288v-475h-78v671h28l275 -381z"></glyph><glyph glyph-name="Nu" unicode="Ν" d="M539 660h78v-671h-28l-420 506v-495h-78v671h28l420 -507v496z"></glyph><glyph glyph-name="Xi" unicode="Ξ" d="M40 590v70h535v-70h-535zM108 298v70h401v-70h-401zM40 0v70h535v-70h-535z"></glyph><glyph glyph-name="Omicron" unicode="Ο" d="M48 330q-3 141 99 242t243 99q140 2 243 -99t100 -242q3 -141 -100 -242t-243 -99q-140 -3 -242.5 99t-99.5 242zM652 331q2 112 -75 191t-186 77q-112 0 -187 -76.5t-75 -191.5t75 -192.5t187 -77.5q109 -2 186 77.5t75 192.5z"></glyph><glyph glyph-name="Pi" unicode="Π" d="M91 0v660h500v-660h-78v590h-344v-590h-78z"></glyph><glyph glyph-name="Rho" unicode="Ρ" d="M91 0v660h232q95 0 153 -53.5t58 -137.5q0 -85 -58 -139t-153 -54h-154v-276h-78zM169 346h152q62 0 97 33t35 89q0 55 -35 88.5t-97 33.5h-152v-244z"></glyph><glyph glyph-name="Sigma" unicode="Σ" d="M186 70h348v-70h-469v23l236 315l-236 299v23h457v-70h-333l192 -243v-16z"></glyph><glyph glyph-name="Tau" unicode="Τ" d="M251 0v590h-232v70h543v-70h-233v-590h-78z"></glyph><glyph glyph-name="Upsilon" unicode="Υ" d="M576 660l-229 -387v-273h-78v273l-229 387h88l180 -310l181 310h87z"></glyph><glyph glyph-name="Phi" unicode="Φ" d="M438 19v-61h-78v61q-134 0 -223 89t-89 223q-2 131 88.5 221t223.5 89v60h78v-60q134 1 224.5 -88.5t88.5 -221.5q2 -133 -89 -223.5t-224 -88.5zM360 89v481q-101 0 -166 -68t-65 -173q0 -106 65 -173t166 -67zM670 329q0 105 -65.5 173t-166.5 68v-481q100 0 166 68 t66 172z"></glyph><glyph glyph-name="Chi" unicode="Χ" d="M569 0h-91l-178 271l-179 -271h-91l227 338l-211 322h90l164 -257l163 257h90l-208 -323z"></glyph><glyph glyph-name="Psi" unicode="Ψ" d="M341 0v152q-131 16 -204 95t-73 210v203h78v-207q0 -99 54 -160q56 -62 145 -68v435h78v-435q90 6 144 68q55 61 55 160v207h78v-203q0 -131 -73 -210t-204 -95v-152h-78z"></glyph><glyph glyph-name="uni03A9" unicode="Ω" d="M576 70h152v-70h-269v70q198 92 198 270q0 112 -74.5 185.5t-187.5 73.5t-187 -73t-74 -185q0 -176 198 -271v-70h-269v70h150q-160 106 -160 273q-2 137 98.5 233.5t243.5 94.5q142 2 243.5 -95t99.5 -233q0 -160 -162 -273z"></glyph><glyph glyph-name="Iotadieresis" unicode="Ϊ" d="M91 0v660h78v-660h-78zM-41 810q0 22 16.5 37.5t38.5 15.5q23 0 39 -15.5t16 -37.5t-16 -37.5t-39 -15.5q-22 0 -38.5 15.5t-16.5 37.5zM192 809q0 22 16.5 38t38.5 16q23 0 39 -16t16 -38t-16 -37.5t-39 -15.5q-22 0 -38.5 15.5t-16.5 37.5z"></glyph><glyph glyph-name="Upsilondieresis" unicode="Ϋ" d="M576 660l-229 -387v-273h-78v273l-229 387h88l180 -310l181 310h87zM136 810q0 22 16.5 37.5t38.5 15.5q23 0 39 -15.5t16 -37.5t-16 -37.5t-39 -15.5q-22 0 -38.5 15.5t-16.5 37.5zM369 809q0 22 16.5 38t38.5 16q23 0 39 -16t16 -38t-16 -37.5t-39 -15.5 q-22 0 -38.5 15.5t-16.5 37.5z"></glyph><glyph glyph-name="alphatonos" unicode="ά" d="M623 65v-65q-28 -7 -53 -7q-86 0 -102 85q-28 -42 -76 -65.5t-105 -23.5q-100 -2 -169.5 73.5t-67.5 181.5q0 108 67.5 181t169.5 73q58 0 107.5 -25.5t77.5 -69.5l5 84h73q-10 -144 -10 -232v-122q0 -71 53 -71q9 0 30 3zM464 243q0 86 -48 135t-119 49 q-72 0 -120 -52.5t-48 -130.5q0 -79 47.5 -131.5t120.5 -52.5q69 0 118 48.5t49 134.5zM252 566l30 214h93v-14l-63 -200h-60z"></glyph><glyph glyph-name="epsilontonos" unicode="έ" d="M410 129l52 -46q-67 -94 -209 -94q-202 0 -202 138q0 47 24.5 79t69.5 44q-72 31 -72 112q0 64 48.5 100t135.5 36q136 0 197 -85l-52 -46q-51 60 -140 60q-110 0 -110 -78q0 -70 96 -70h101v-68h-99q-63 0 -91.5 -17.5t-28.5 -54.5q0 -42 27.5 -60.5t95.5 -18.5 q56 0 91.5 16t65.5 53zM217 566l30 214h93v-14l-63 -200h-60z"></glyph><glyph glyph-name="etatonos" unicode="ή" d="M508 306v-486h-77v476q0 59 -33.5 95t-87.5 36q-57 0 -93 -37t-36 -94v-296h-76v354q0 69 -55 69l-29 -1v65q27 7 54 7q72 0 95 -65q56 69 156 69q83 0 132.5 -52t49.5 -140zM269 566l30 214h93v-14l-63 -200h-60z"></glyph><glyph glyph-name="iotatonos" unicode="ί" d="M82 143v344h77v-335q0 -49 19.5 -71t62.5 -22q27 0 65 6v-65q-49 -11 -81 -11q-143 0 -143 154zM81 566l30 214h93v-14l-63 -200h-60z"></glyph><glyph glyph-name="upsilondieresistonos" unicode="ΰ" d="M79 200v287h77v-291q0 -62 35 -99.5t93 -37.5q57 0 92.5 38t35.5 99v291h77v-287q0 -96 -56 -153.5t-149 -57.5q-94 0 -149.5 57.5t-55.5 153.5zM225 566l39 214h93v-14l-74 -200h-58zM78 673q0 21 17 37.5t38 16.5q23 0 39 -15.5t16 -38.5q0 -22 -16 -37.5t-39 -15.5 q-21 0 -38 16t-17 37zM381 673q0 22 16 38t39 16t39 -16t16 -38t-16 -37.5t-39 -15.5t-39 15.5t-16 37.5z"></glyph><glyph glyph-name="alpha" unicode="α" d="M623 65v-65q-28 -7 -53 -7q-86 0 -102 85q-28 -42 -76 -65.5t-105 -23.5q-100 -2 -169.5 73.5t-67.5 181.5q0 108 67.5 181t169.5 73q58 0 107.5 -25.5t77.5 -69.5l5 84h73q-10 -144 -10 -232v-122q0 -71 53 -71q9 0 30 3zM464 243q0 86 -48 135t-119 49 q-72 0 -120 -52.5t-48 -130.5q0 -79 47.5 -131.5t120.5 -52.5q69 0 118 48.5t49 134.5z"></glyph><glyph glyph-name="beta" unicode="β" d="M560 215q0 -98 -66 -162t-167 -64q-96 0 -165 60v-229h-77v734q0 91 60.5 150t155.5 59q88 0 144.5 -52t56.5 -133q0 -108 -90 -157q69 -22 108.5 -76.5t39.5 -129.5zM481 217q0 71 -46 114.5t-121 43.5h-62v68h47q57 0 90.5 34.5t33.5 93.5q0 53 -35 87t-89 34 q-61 0 -99 -40t-38 -102v-419q63 -71 157 -71q72 0 117 43.5t45 113.5z"></glyph><glyph glyph-name="gamma" unicode="γ" d="M531 487l-214 -506v-161h-76v161l-215 506h82l171 -406l170 406h82z"></glyph><glyph glyph-name="delta" unicode="δ" d="M546 237q2 -101 -73 -175.5t-176 -72.5q-102 -2 -175.5 72t-71.5 176q-2 100 71 172.5t174 70.5h10l-244 247v23h445v-73h-290l217 -220q61 -64 87 -113.5t26 -106.5zM467 233q0 77 -49 127.5t-123 50.5t-120 -49t-46 -127q0 -79 46.5 -127t122.5 -48t122 48 q47 49 47 125z"></glyph><glyph glyph-name="epsilon" unicode="ε" d="M410 129l52 -46q-67 -94 -209 -94q-202 0 -202 138q0 47 24.5 79t69.5 44q-72 31 -72 112q0 64 48.5 100t135.5 36q136 0 197 -85l-52 -46q-51 60 -140 60q-110 0 -110 -78q0 -70 96 -70h101v-68h-99q-63 0 -91.5 -17.5t-28.5 -54.5q0 -42 27.5 -60.5t95.5 -18.5 q56 0 91.5 16t65.5 53z"></glyph><glyph glyph-name="zeta" unicode="ζ" d="M455 727l-199 -284q-70 -99 -100 -153q-28 -50 -28 -92q0 -52 32.5 -82.5t103.5 -46.5l39 -8q63 -13 96 -50.5t33 -94.5q0 -50 -24 -96h-77q23 43 23 83q0 41 -22.5 63t-70.5 31l-40 8q-83 17 -127 66t-44 122q0 36 14 75q15 38 44 85q28 44 89 131l136 194h-280v72h402 v-23z"></glyph><glyph glyph-name="eta" unicode="η" d="M508 306v-486h-77v476q0 59 -33.5 95t-87.5 36q-57 0 -93 -37t-36 -94v-296h-76v354q0 69 -55 69l-29 -1v65q27 7 54 7q72 0 95 -65q56 69 156 69q83 0 132.5 -52t49.5 -140z"></glyph><glyph glyph-name="theta" unicode="θ" d="M567 376q0 -186 -68.5 -286.5t-189.5 -100.5t-189.5 100.5t-68.5 286.5t68 285.5t190 99.5t190 -99.5t68 -285.5zM131 415h356q-6 134 -53 204.5t-125 70.5q-79 0 -125.5 -70.5t-52.5 -204.5zM487 342h-356q5 -137 52 -210t126 -73q78 0 125.5 73t52.5 210z"></glyph><glyph glyph-name="iota" unicode="ι" d="M82 143v344h77v-335q0 -49 19.5 -71t62.5 -22q27 0 65 6v-65q-49 -11 -81 -11q-143 0 -143 154z"></glyph><glyph glyph-name="kappa" unicode="κ" d="M85 0v487h77v-487h-77zM268 265l227 -265h-97l-226 264l210 223h99z"></glyph><glyph glyph-name="lambda" unicode="λ" d="M513 64h22v-64q-19 -6 -39 -6q-37 0 -60 20t-39 66l-122 329l-176 -409h-82l222 500l-37 106q-18 46 -38.5 65.5t-55.5 19.5q-18 0 -48 -3v65q29 8 61 8q53 0 87.5 -30t60.5 -98l193 -520q18 -49 51 -49z"></glyph><glyph glyph-name="uni03BC" unicode="μ" d="M571 65v-65q-28 -7 -52 -7q-70 0 -94 59q-49 -63 -134 -63q-80 0 -129 57v-226h-77v667h77v-291q0 -59 34.5 -97.5t89.5 -38.5t90 38.5t35 97.5v291h77v-351q0 -74 54 -74q10 0 29 3z"></glyph><glyph glyph-name="nu" unicode="ν" d="M431 487h82l-229 -498h-28l-230 498h82l162 -367z"></glyph><glyph glyph-name="xi" unicode="ξ" d="M169 550q0 -51 33 -90q33 -38 89 -38h119v-70h-119q-69 0 -111 -38.5t-42 -104.5q0 -114 145 -143l41 -8q127 -25 127 -142q0 -50 -24 -96h-76q22 45 22 82q0 42 -21 63.5t-69 28.5l-43 7q-84 13 -132.5 66.5t-48.5 132.5q0 68 34 117.5t97 72.5q-47 21 -72.5 60 t-25.5 86q0 92 67 142h-94v72h386v-72h-148q-62 0 -98 -37t-36 -91z"></glyph><glyph glyph-name="omicron" unicode="ο" d="M50 244q-2 104 74.5 180t180.5 74q105 2 181 -74t74 -180q2 -103 -75 -179.5t-181 -74.5q-104 -2 -180 74.5t-74 179.5zM481 243q0 78 -50.5 131t-125.5 53t-125.5 -52.5t-50.5 -131.5q0 -77 50.5 -129.5t124.5 -52.5t125.5 53t51.5 129z"></glyph><glyph glyph-name="pi" unicode="π" d="M102 0v414h-79v73h545v-73h-78v-414h-76v414h-235v-414h-77z"></glyph><glyph glyph-name="rho" unicode="ρ" d="M571 244q0 -108 -68.5 -181.5t-169.5 -73.5q-55 0 -102 22t-76 60v-251h-76v421q0 114 67 185.5t175 71.5q109 0 179.5 -72t70.5 -182zM492 243q0 79 -49 131.5t-123 52.5q-76 0 -121 -50.5t-45 -134.5q0 -82 46 -132q47 -50 121 -50t122.5 52.5t48.5 130.5z"></glyph><glyph glyph-name="uni03C2" unicode="ς" d="M373 -98q0 38 -19.5 58.5t-64.5 32.5l-51 13q-92 24 -140 85.5t-48 152.5q0 111 68.5 182.5t175.5 71.5q137 0 206 -109l-55 -44q-61 82 -149 82q-72 0 -119.5 -51.5t-47.5 -128.5q0 -139 150 -177l52 -13q121 -30 121 -141q0 -48 -24 -96h-76q21 44 21 82z"></glyph><glyph glyph-name="sigma" unicode="σ" d="M620 487v-73h-147q80 -67 80 -177q2 -103 -73 -176.5t-179 -71.5q-106 0 -178.5 73t-72.5 180q0 106 72.5 175.5t182.5 69.5h315zM474 243q0 76 -48.5 125t-123.5 49q-76 0 -124.5 -49t-48.5 -126t49.5 -129.5t122.5 -52.5q74 0 123.5 52.5t49.5 130.5z"></glyph><glyph glyph-name="tau" unicode="τ" d="M448 414h-190v-262q0 -93 100 -93q30 0 67 6v-65q-46 -11 -80 -11q-79 0 -121 41t-42 117v267h-165v73h431v-73z"></glyph><glyph glyph-name="upsilon" unicode="υ" d="M79 200v287h77v-291q0 -62 35 -99.5t93 -37.5q57 0 92.5 38t35.5 99v291h77v-287q0 -96 -56 -153.5t-149 -57.5q-94 0 -149.5 57.5t-55.5 153.5z"></glyph><glyph glyph-name="phi" unicode="φ" d="M411 -11v-169h-77v170q-121 5 -203 75t-81 178q0 109 80.5 177.5t203.5 74.5v165h77v-164q123 -6 204.5 -75.5t81.5 -177.5q0 -109 -81.5 -178.5t-204.5 -75.5zM621 242q0 82 -60 132q-60 49 -152 54v-371q91 4 152 53q60 50 60 132zM336 57v371q-90 -4 -150 -55 q-59 -50 -59 -131q0 -82 59 -132q59 -49 150 -53z"></glyph><glyph glyph-name="chi" unicode="χ" d="M482 -116v-64q-23 -6 -46 -6q-71 0 -106 79l-93 196l-127 -269h-85l168 344l-96 213q-12 25 -25 35.5t-36 10.5t-31 -1v65q24 6 49 6q41 0 63 -18t42 -62l80 -180l123 254h84l-165 -329l109 -229q14 -28 26.5 -37t37.5 -9q22 0 28 1z"></glyph><glyph glyph-name="psi" unicode="ψ" d="M331 -180v169q-111 0 -181.5 71.5t-70.5 183.5v243h76v-237q0 -81 51 -136t125 -55v601h77v-601q74 0 125.5 55t51.5 136v237h76v-243q0 -112 -70.5 -183.5t-182.5 -71.5v-169h-77z"></glyph><glyph glyph-name="omega" unicode="ω" d="M734 233q0 -112 -54 -178q-52 -66 -145 -66q-101 0 -143 82q-39 -82 -143 -82q-92 0 -146 66q-53 67 -53 178q0 97 43.5 164t125.5 96l28 -68q-119 -57 -119 -193q0 -79 33.5 -125.5t89.5 -46.5q49 0 77 34t28 92v138h73v-138q0 -59 27.5 -92.5t76.5 -33.5q56 0 89.5 46 t33.5 125q0 139 -118 194l27 68q82 -29 125.5 -96t43.5 -164z"></glyph><glyph glyph-name="iotadieresis" unicode="ϊ" d="M82 143v344h77v-335q0 -49 19.5 -71t62.5 -22q27 0 65 6v-65q-49 -11 -81 -11q-143 0 -143 154zM-26 673q0 22 16.5 38t38.5 16q23 0 39.5 -16t16.5 -38t-16.5 -37.5t-39.5 -15.5q-22 0 -38.5 15.5t-16.5 37.5zM156 673q0 22 17 38t39 16q23 0 39 -16t16 -38t-16 -37.5 t-39 -15.5q-22 0 -39 16t-17 37z"></glyph><glyph glyph-name="upsilondieresis" unicode="ϋ" d="M79 200v287h77v-291q0 -62 35 -99.5t93 -37.5q57 0 92.5 38t35.5 99v291h77v-287q0 -96 -56 -153.5t-149 -57.5q-94 0 -149.5 57.5t-55.5 153.5zM115 673q0 21 17 37.5t38 16.5q23 0 39.5 -16t16.5 -38t-16.5 -37.5t-39.5 -15.5q-21 0 -38 16t-17 37zM327 673q0 22 17 38 t39 16q23 0 39 -16t16 -38t-16 -37.5t-39 -15.5q-22 0 -39 16t-17 37z"></glyph><glyph glyph-name="omicrontonos" unicode="ό" d="M50 244q-2 104 74.5 180t180.5 74q105 2 181 -74t74 -180q2 -103 -75 -179.5t-181 -74.5q-104 -2 -180 74.5t-74 179.5zM481 243q0 78 -50.5 131t-125.5 53t-125.5 -52.5t-50.5 -131.5q0 -77 50.5 -129.5t124.5 -52.5t125.5 53t51.5 129zM265 566l30 214h93v-14l-63 -200 h-60z"></glyph><glyph glyph-name="upsilontonos" unicode="ύ" d="M79 200v287h77v-291q0 -62 35 -99.5t93 -37.5q57 0 92.5 38t35.5 99v291h77v-287q0 -96 -56 -153.5t-149 -57.5q-94 0 -149.5 57.5t-55.5 153.5zM237 566l30 214h93v-14l-63 -200h-60z"></glyph><glyph glyph-name="omegatonos" unicode="ώ" d="M734 233q0 -112 -54 -178q-52 -66 -145 -66q-101 0 -143 82q-39 -82 -143 -82q-92 0 -146 66q-53 67 -53 178q0 97 43.5 164t125.5 96l28 -68q-119 -57 -119 -193q0 -79 33.5 -125.5t89.5 -46.5q49 0 77 34t28 92v138h73v-138q0 -59 27.5 -92.5t76.5 -33.5q56 0 89.5 46 t33.5 125q0 139 -118 194l27 68q82 -29 125.5 -96t43.5 -164zM353 566l30 214h93v-14l-63 -200h-60z"></glyph><glyph glyph-name="uni0400" unicode="Ѐ" d="M91 0v660h423v-70h-345v-202h264v-70h-264v-248h357v-70h-435zM274 724l-120 172v14h94l85 -186h-59z"></glyph><glyph glyph-name="uni0401" unicode="Ё" d="M91 0v660h423v-70h-345v-202h264v-70h-264v-248h357v-70h-435zM131 810q0 22 16.5 37.5t38.5 15.5q23 0 39 -15.5t16 -37.5t-16 -37.5t-39 -15.5q-22 0 -38.5 15.5t-16.5 37.5zM364 809q0 22 16.5 38t38.5 16q23 0 39 -16t16 -38t-16 -37.5t-39 -15.5q-22 0 -38.5 15.5 t-16.5 37.5z"></glyph><glyph glyph-name="uni0402" unicode="Ђ" d="M465 -11l-14 70q150 19 150 140q0 61 -41.5 94t-111.5 33q-83 0 -148 -25v-301h-78v590h-203v70h523v-70h-242v-218q69 24 151 24q105 0 167 -52q64 -52 64 -146t-62 -147q-62 -52 -155 -62z"></glyph><glyph glyph-name="uni0403" unicode="Ѓ" d="M91 0v660h391v-70h-313v-590h-78zM234 724l85 186h94v-14l-120 -172h-59z"></glyph><glyph glyph-name="uni0404" unicode="Є" d="M607 177l58 -46q-42 -66 -114.5 -104t-159.5 -38q-141 -2 -243.5 99t-99.5 242q-3 141 99.5 242t243.5 99q87 0 159.5 -38t114.5 -104l-58 -46q-81 116 -215 116q-101 0 -173.5 -64t-86.5 -164h317v-70h-319q11 -104 85 -172t177 -68q134 0 215 116z"></glyph><glyph glyph-name="uni0405" unicode="Ѕ" d="M41 131l58 43q74 -113 184 -113q60 0 96.5 30t36.5 80q0 42 -23.5 63.5t-86.5 52.5l-74 35q-75 35 -112 75t-37 102q0 76 58 124t141 48q65 0 119.5 -30.5t87.5 -81.5l-57 -43q-56 83 -151 83q-50 0 -83.5 -26t-33.5 -70q0 -29 13 -48q12 -18 31 -30t62 -33l73 -35 q81 -40 117.5 -81t36.5 -103q0 -81 -60 -132.5t-153 -51.5q-76 0 -140 37.5t-103 104.5z"></glyph><glyph glyph-name="uni0406" unicode="І" d="M91 0v660h78v-660h-78z"></glyph><glyph glyph-name="uni0407" unicode="Ї" d="M91 0v660h78v-660h-78zM-42 810q0 22 16.5 37.5t38.5 15.5q23 0 39 -15.5t16 -37.5t-16 -37.5t-39 -15.5q-22 0 -38.5 15.5t-16.5 37.5zM191 809q0 22 16.5 38t38.5 16q23 0 39 -16t16 -38t-16 -37.5t-39 -15.5q-22 0 -38.5 15.5t-16.5 37.5z"></glyph><glyph glyph-name="uni0408" unicode="Ј" d="M24 0v67q40 -6 72 -6q56 0 82.5 22.5t26.5 76.5v500h78v-507q0 -82 -45 -123t-127 -41q-37 0 -87 11z"></glyph><glyph glyph-name="uni0409" unicode="Љ" d="M915 200q0 -89 -60 -144.5t-160 -55.5h-224v590h-228q-8 -231 -28.5 -355.5t-61 -181.5t-113.5 -60q-24 0 -39 7v68q9 -3 27 -3q71 0 102.5 119t37.5 377l2 99h379v-260h146q100 0 160 -55.5t60 -144.5zM834 199q0 59 -37 94.5t-103 35.5h-145v-259h145q66 0 103 35.5 t37 93.5z"></glyph><glyph glyph-name="uni040A" unicode="Њ" d="M91 0v660h78v-260h303v260h78v-260h145q100 0 160.5 -55.5t60.5 -144.5t-60.5 -144.5t-160.5 -55.5h-223v330h-303v-330h-78zM550 70h144q66 0 103.5 35.5t37.5 93.5q0 59 -37.5 95t-103.5 36h-144v-260z"></glyph><glyph glyph-name="uni040B" unicode="Ћ" d="M692 147v-147h-78v141q0 88 -45 136.5t-121 48.5q-83 0 -148 -25v-301h-78v590h-203v70h523v-70h-242v-219q66 25 151 25q108 0 175 -65q66 -64 66 -184z"></glyph><glyph glyph-name="uni040C" unicode="Ќ" d="M91 0v660h78v-660h-78zM280 354l322 -354h-99l-325 354l297 306h100zM287 724l85 186h94v-14l-120 -172h-59z"></glyph><glyph glyph-name="uni040D" unicode="Ѝ" d="M599 671h28v-671h-78v512l-430 -523h-28v671h78v-512zM330 724l-120 172v14h94l85 -186h-59z"></glyph><glyph glyph-name="uni040E" unicode="Ў" d="M550 660h79l-237 -505q-43 -91 -82 -127q-41 -38 -106 -38q-28 0 -54 10v68q27 -6 52 -6q34 0 57 16.5t44 56.5l-263 525h88l218 -435zM194 885v25h65v-26q0 -47 22.5 -73.5t63.5 -26.5t64 26t23 74v26h65v-25q0 -72 -41.5 -115.5t-110.5 -43.5q-68 0 -109.5 43.5 t-41.5 115.5z"></glyph><glyph glyph-name="uni040F" unicode="Џ" d="M607 660v-660h-219v-141h-78v141h-219v660h78v-590h360v590h78z"></glyph><glyph glyph-name="uni0410" unicode="А" d="M549 0l-56 134h-324l-56 -134h-82l286 671h29l286 -671h-83zM463 204l-132 325l-132 -325h264z"></glyph><glyph glyph-name="uni0411" unicode="Б" d="M91 0v660h391v-70h-313v-200h145q100 0 160 -54.5t60 -139.5q0 -87 -60 -141.5t-160 -54.5h-223zM169 70h144q65 0 102.5 34.5t37.5 90.5t-37.5 90.5t-102.5 34.5h-144v-250z"></glyph><glyph glyph-name="uni0412" unicode="В" d="M572 190q0 -84 -57 -137t-152 -53h-272v660h227q85 0 137 -47q51 -47 51 -120q0 -81 -63 -130q61 -18 95 -63.5t34 -109.5zM310 590h-141v-205h141q56 0 86 27.5t30 75.5t-30 75t-86 27zM492 192q0 56 -36.5 89t-100.5 33h-186v-244h186q64 0 100.5 33t36.5 89z"></glyph><glyph glyph-name="uni0413" unicode="Г" d="M91 0v660h391v-70h-313v-590h-78z"></glyph><glyph glyph-name="uni0414" unicode="Д" d="M565 70h80v-211h-78v141h-479v-141h-78v211h51q53 50 78 168t25 339l1 83h400v-590zM148 70h339v520h-251q-1 -405 -88 -520z"></glyph><glyph glyph-name="uni0415" unicode="Е" d="M91 0v660h423v-70h-345v-202h264v-70h-264v-248h357v-70h-435z"></glyph><glyph glyph-name="uni0416" unicode="Ж" d="M57 660h101l277 -306l-305 -354h-100l305 354zM444 0v660h78v-660h-78zM631 354l304 -354h-99l-305 354l277 306h101z"></glyph><glyph glyph-name="uni0417" unicode="З" d="M535 192q0 -87 -68 -145t-168 -58q-80 0 -145 38.5t-105 106.5l57 42q76 -115 192 -115q68 0 112 37q45 38 45 96q0 55 -39.5 87.5t-114.5 32.5h-78v71h82q55 0 84.5 28.5t29.5 76.5q0 50 -31 79.5t-89 29.5q-99 0 -161 -90l-56 42q72 120 217 120q91 0 146 -50t55 -127 q0 -89 -79 -137q54 -21 84 -64.5t30 -100.5z"></glyph><glyph glyph-name="uni0418" unicode="И" d="M599 671h28v-671h-78v512l-430 -523h-28v671h78v-512z"></glyph><glyph glyph-name="uni0419" unicode="Й" d="M599 671h28v-671h-78v512l-430 -523h-28v671h78v-512zM207 885v25h65v-26q0 -47 22.5 -73.5t63.5 -26.5t64 26t23 74v26h65v-25q0 -72 -41.5 -115.5t-110.5 -43.5q-68 0 -109.5 43.5t-41.5 115.5z"></glyph><glyph glyph-name="uni041A" unicode="К" d="M91 0v660h78v-660h-78zM280 354l322 -354h-99l-325 354l297 306h100z"></glyph><glyph glyph-name="uni041B" unicode="Л" d="M170 660h409v-660h-78v590h-258q-8 -234 -29 -356q-22 -127 -63.5 -184t-110.5 -57q-24 0 -39 7v68q9 -3 27 -3q71 0 102.5 119t37.5 377z"></glyph><glyph glyph-name="uni041C" unicode="М" d="M671 671h27v-671h-78v473l-211 -286h-28l-212 288v-475h-78v671h28l275 -381z"></glyph><glyph glyph-name="uni041D" unicode="Н" d="M91 0v660h78v-272h370v272h78v-660h-78v318h-370v-318h-78z"></glyph><glyph glyph-name="uni041E" unicode="О" d="M48 330q-3 141 99 242t243 99q140 2 243 -99t100 -242q3 -141 -100 -242t-243 -99q-140 -3 -242.5 99t-99.5 242zM652 331q2 112 -75 191t-186 77q-112 0 -187 -76.5t-75 -191.5t75 -192.5t187 -77.5q109 -2 186 77.5t75 192.5z"></glyph><glyph glyph-name="uni041F" unicode="П" d="M91 0v660h516v-660h-78v590h-360v-590h-78z"></glyph><glyph glyph-name="uni0420" unicode="Р" d="M91 0v660h232q95 0 153 -53.5t58 -137.5q0 -85 -58 -139t-153 -54h-154v-276h-78zM169 346h152q62 0 97 33t35 89q0 55 -35 88.5t-97 33.5h-152v-244z"></glyph><glyph glyph-name="uni0421" unicode="С" d="M48 330q-3 141 99.5 242t243.5 99q87 0 159.5 -38t114.5 -104l-58 -46q-81 116 -215 116q-112 0 -187.5 -77t-75.5 -192t75.5 -192t187.5 -77q134 0 215 116l58 -46q-42 -66 -114.5 -104t-159.5 -38q-141 -2 -243.5 99t-99.5 242z"></glyph><glyph glyph-name="uni0422" unicode="Т" d="M251 0v590h-232v70h543v-70h-233v-590h-78z"></glyph><glyph glyph-name="uni0423" unicode="У" d="M550 660h79l-237 -505q-43 -91 -82 -127q-41 -38 -106 -38q-28 0 -54 10v68q27 -6 52 -6q34 0 57 16.5t44 56.5l-263 525h88l218 -435z"></glyph><glyph glyph-name="uni0424" unicode="Ф" d="M437 62v-82h-78v82q-140 2 -228 76t-88 197t88 195.5t228 74.5v75h78v-75q141 -2 229 -74.5t88 -195.5q0 -124 -88 -197.5t-229 -75.5zM359 133v401q-108 0 -171.5 -53.5t-63.5 -147.5q0 -93 63.5 -146.5t171.5 -53.5zM673 333q0 94 -64 147.5t-172 53.5v-401 q106 0 171 53t65 147z"></glyph><glyph glyph-name="uni0425" unicode="Х" d="M569 0h-91l-178 271l-179 -271h-91l227 338l-211 322h90l164 -257l163 257h90l-208 -323z"></glyph><glyph glyph-name="uni0426" unicode="Ц" d="M610 -141v141h-519v660h78v-590h360v590h78v-590h81v-211h-78z"></glyph><glyph glyph-name="uni0427" unicode="Ч" d="M480 660h78v-660h-78v266q-62 -28 -159 -28q-125 0 -192.5 63.5t-67.5 188.5v170h78v-165q0 -187 184 -187q95 0 157 29v323z"></glyph><glyph glyph-name="uni0428" unicode="Ш" d="M91 0v660h78v-590h274v590h78v-590h275v590h78v-660h-783z"></glyph><glyph glyph-name="uni0429" unicode="Щ" d="M876 -141v141h-785v660h78v-590h274v590h78v-590h275v590h78v-590h80v-211h-78z"></glyph><glyph glyph-name="uni042A" unicode="Ъ" d="M170 0v590h-151v70h229v-260h145q100 0 160 -55.5t60 -144.5t-60 -144.5t-160 -55.5h-223zM248 70h144q66 0 103.5 35.5t37.5 93.5q0 59 -37.5 94.5t-103.5 35.5h-144v-259z"></glyph><glyph glyph-name="uni042B" unicode="Ы" d="M91 0v660h78v-260h145q100 0 160 -55.5t60 -144.5t-60 -144.5t-160 -55.5h-223zM169 70h144q66 0 103.5 35.5t37.5 93.5q0 59 -37.5 94.5t-103.5 35.5h-144v-259zM665 0v660h78v-660h-78z"></glyph><glyph glyph-name="uni042C" unicode="Ь" d="M91 0v660h78v-260h145q100 0 160 -55.5t60 -144.5t-60 -144.5t-160 -55.5h-223zM169 70h144q66 0 103.5 35.5t37.5 93.5q0 59 -37.5 94.5t-103.5 35.5h-144v-259z"></glyph><glyph glyph-name="uni042D" unicode="Э" d="M666 330q3 -141 -99 -242t-243 -99q-87 0 -160 38t-115 104l59 46q81 -116 215 -116q104 0 177 68t84 172h-309v70h307q-14 100 -86.5 164t-172.5 64q-134 0 -215 -116l-59 46q43 66 115.5 104t159.5 38q141 2 243 -99t99 -242z"></glyph><glyph glyph-name="uni042E" unicode="Ю" d="M928 330q2 -142 -94.5 -242.5t-233.5 -98.5q-133 -2 -228.5 95t-97.5 234h-105v-318h-78v660h78v-272h109q18 123 108.5 203t213.5 80q137 2 233.5 -98.5t94.5 -242.5zM847 331q0 116 -69 192t-177 76t-177 -76t-69 -192q0 -117 69 -193.5t177 -76.5t177 77t69 193z"></glyph><glyph glyph-name="uni042F" unicode="Я" d="M308 660h220v-660h-78v257h-131l-185 -257h-89l192 267q-72 20 -113.5 71.5t-41.5 120.5q0 90 62.5 145.5t163.5 55.5zM450 328v262h-142q-66 0 -105.5 -36t-39.5 -95q0 -60 39.5 -95.5t105.5 -35.5h142z"></glyph><glyph glyph-name="uni0430" unicode="а" d="M450 300v-300h-72v63q-56 -74 -164 -74q-76 0 -123 37.5t-47 99.5t48 99t127 37h154v42q0 59 -31.5 91t-86.5 32q-82 0 -142 -78l-51 42q65 107 198 107q88 0 139 -51.5t51 -146.5zM373 187v12h-145q-105 0 -105 -69q0 -36 28.5 -56.5t72.5 -20.5q61 0 105 39t44 95z"></glyph><glyph glyph-name="uni0431" unicode="б" d="M565 235q2 -100 -74 -173.5t-180 -71.5q-112 0 -181.5 76t-69.5 198v85q0 114 22 184q48 150 278 189q123 22 164 39v-74q-47 -20 -155 -36q-103 -15 -155 -53t-65 -88q-14 -51 -14 -128q31 46 80.5 72t106.5 26q98 2 171.5 -72.5t71.5 -172.5zM486 235q0 73 -50.5 123.5 t-123.5 50.5q-72 0 -123 -51t-51 -123q0 -71 51.5 -122.5t122.5 -51.5q73 0 123.5 50.5t50.5 123.5z"></glyph><glyph glyph-name="uni0432" unicode="в" d="M484 147q0 -66 -47.5 -106.5t-125.5 -40.5h-226v487h201q72 0 114.5 -35t42.5 -94q0 -61 -51 -94q92 -32 92 -117zM162 418v-130h125q80 0 80 66q0 64 -80 64h-125zM407 147q0 34 -26.5 53.5t-74.5 19.5h-144v-152h144q47 0 74 21.5t27 57.5z"></glyph><glyph glyph-name="uni0433" unicode="г" d="M85 0v487h328v-69h-251v-418h-77z"></glyph><glyph glyph-name="uni0434" unicode="д" d="M463 68h79v-209h-77v141h-383v-141h-77v209h55q60 62 64 282l3 137h336v-419zM141 68h245v350h-186l-3 -69q-5 -209 -56 -281z"></glyph><glyph glyph-name="uni0435" unicode="е" d="M515 220h-385q7 -72 57 -116t122 -44q83 0 149 66l45 -52q-82 -85 -195 -85q-109 0 -183.5 73.5t-74.5 180.5q0 106 72.5 180.5t176.5 74.5q95 0 158.5 -62t63.5 -158q0 -28 -6 -58zM133 288h309q-1 64 -42 102t-103 38q-61 0 -106 -38.5t-58 -101.5z"></glyph><glyph glyph-name="uni0436" unicode="ж" d="M39 487h96l201 -223l-222 -264h-94l223 264zM346 0v487h77v-487h-77zM527 266l224 -266h-96l-222 264l201 223h95z"></glyph><glyph glyph-name="uni0437" unicode="з" d="M416 140q0 -69 -50.5 -110t-133.5 -41q-118 0 -187 94l52 46q52 -69 134 -69q50 0 78 23t28 62q0 36 -28 57.5t-78 21.5h-53v68h52q85 0 85 68q0 31 -22.5 49t-64.5 18q-73 0 -122 -60l-52 46q62 85 177 85q73 0 116.5 -35.5t43.5 -97.5q0 -69 -58 -105q83 -33 83 -120z "></glyph><glyph glyph-name="uni0438" unicode="и" d="M459 498h28v-498h-77v344l-297 -355h-28v498h77v-345z"></glyph><glyph glyph-name="uni0439" unicode="й" d="M459 498h28v-498h-77v344l-297 -355h-28v498h77v-345zM146 731v31h65v-29q0 -49 22.5 -75.5t63.5 -26.5q42 0 64.5 26.5t22.5 75.5v29h65v-31q0 -71 -41.5 -114.5t-110.5 -43.5q-68 0 -109.5 43.5t-41.5 114.5z"></glyph><glyph glyph-name="uni043A" unicode="к" d="M85 0v487h77v-487h-77zM266 266l229 -266h-97l-226 264l205 223h96z"></glyph><glyph glyph-name="uni043B" unicode="л" d="M123 487h330v-487h-77v418h-181l-2 -60q-7 -197 -40 -278t-117 -84q-15 0 -26 4v65q16 -2 20 -2q46 0 66.5 71t23.5 226z"></glyph><glyph glyph-name="uni043C" unicode="м" d="M85 0v498h28l231 -274l230 274h27v-498h-77v329l-166 -198h-30l-166 198v-329h-77z"></glyph><glyph glyph-name="uni043D" unicode="н" d="M85 0v487h77v-194h239v194h77v-487h-77v225h-239v-225h-77z"></glyph><glyph glyph-name="uni043E" unicode="о" d="M50 244q-2 104 74.5 180t180.5 74q105 2 181 -74t74 -180q2 -103 -75 -179.5t-181 -74.5q-104 -2 -180 74.5t-74 179.5zM481 243q0 78 -50.5 131t-125.5 53t-125.5 -52.5t-50.5 -131.5q0 -77 50.5 -129.5t124.5 -52.5t125.5 53t51.5 129z"></glyph><glyph glyph-name="uni043F" unicode="п" d="M85 0v487h389v-487h-78v418h-234v-418h-77z"></glyph><glyph glyph-name="uni0440" unicode="р" d="M582 244q0 -108 -69.5 -181.5t-171.5 -73.5q-115 0 -179 81v-250h-77v667h72v-78q28 42 77 65.5t107 23.5q104 0 172.5 -73t68.5 -181zM503 243q0 79 -49.5 131.5t-123.5 52.5q-70 0 -119.5 -48t-49.5 -135q0 -89 48.5 -136.5t120.5 -47.5q74 0 123.5 52t49.5 131z"></glyph><glyph glyph-name="uni0441" unicode="с" d="M50 244q-2 104 74 180t181 74q63 0 115 -28t86 -78l-55 -44q-58 79 -145 79q-75 0 -126 -53.5t-51 -129.5q0 -77 51 -130.5t126 -53.5q86 0 144 78l55 -43q-72 -106 -200 -106q-106 0 -180.5 74.5t-74.5 180.5z"></glyph><glyph glyph-name="uni0442" unicode="т" d="M184 0v418h-164v69h404v-69h-164v-418h-76z"></glyph><glyph glyph-name="uni0443" unicode="у" d="M431 487h82l-240 -555q-54 -123 -165 -123q-39 0 -75 10v65q42 -5 59 -5q40 0 66 17.5t44 60.5l26 58l-202 472h83l161 -388z"></glyph><glyph glyph-name="uni0444" unicode="ф" d="M402 -11v-169h-77v169q-122 5 -198.5 73.5t-76.5 180.5q0 111 77 179.5t198 73.5v254h77v-254q122 -5 198.5 -73.5t76.5 -180.5t-76.5 -180t-198.5 -73zM326 57v371q-91 -4 -144 -53t-53 -133q0 -83 53 -132t144 -53zM598 243q0 83 -53 132t-144 53v-371q91 4 144 53 t53 133z"></glyph><glyph glyph-name="uni0445" unicode="х" d="M476 0h-89l-139 200l-138 -200h-90l181 254l-166 233h89l124 -179l125 179h89l-169 -233z"></glyph><glyph glyph-name="uni0446" unicode="ц" d="M475 -141v141h-390v487h77v-419h234v419h77v-419h79v-209h-77z"></glyph><glyph glyph-name="uni0447" unicode="ч" d="M366 487h77v-487h-77v192q-45 -22 -123 -22q-89 0 -141 49.5t-52 140.5v127h77v-123q0 -125 131 -125q61 0 108 21v227z"></glyph><glyph glyph-name="uni0448" unicode="ш" d="M85 0v487h77v-419h204v419h77v-419h205v419h77v-487h-640z"></glyph><glyph glyph-name="uni0449" unicode="щ" d="M727 -141v141h-642v487h77v-419h204v419h77v-419h205v419h77v-419h79v-209h-77z"></glyph><glyph glyph-name="uni044A" unicode="ъ" d="M131 0v418h-111v69h188v-168h117q83 0 132.5 -43.5t49.5 -115.5t-49.5 -116t-132.5 -44h-194zM208 68h112q51 0 79.5 24.5t28.5 66.5t-29.5 67t-79.5 25h-111v-183z"></glyph><glyph glyph-name="uni044B" unicode="ы" d="M85 0v487h77v-168h116q82 0 132 -43.5t50 -115.5q0 -73 -49.5 -116.5t-132.5 -43.5h-193zM531 0v487h77v-487h-77zM162 68h112q52 0 79.5 23.5t27.5 67.5t-28 68t-80 24h-111v-183z"></glyph><glyph glyph-name="uni044C" unicode="ь" d="M85 0v487h77v-168h116q83 0 132.5 -43.5t49.5 -115.5t-49.5 -116t-132.5 -44h-193zM162 68h112q50 0 78.5 24.5t28.5 66.5t-29 67t-79 25h-111v-183z"></glyph><glyph glyph-name="uni044D" unicode="э" d="M501 244q0 -106 -74.5 -180.5t-180.5 -74.5q-128 0 -200 106l54 43q58 -78 145 -78q68 0 117 44q49 43 58 112h-210v68h208q-13 63 -60.5 103t-112.5 40q-88 0 -146 -79l-54 44q71 106 201 106q105 2 181 -74t74 -180z"></glyph><glyph glyph-name="uni044E" unicode="ю" d="M749 244q2 -103 -73.5 -179.5t-177.5 -74.5q-99 0 -170.5 68t-77.5 167h-88v-225h-77v487h77v-194h91q17 89 86 147t160 58q102 2 177 -74t73 -180zM670 243q0 77 -49.5 130.5t-121.5 53.5q-74 0 -122.5 -52.5t-48.5 -131.5q0 -77 49 -129.5t121 -52.5q73 0 122.5 52.5 t49.5 129.5z"></glyph><glyph glyph-name="uni044F" unicode="я" d="M246 487h194v-487h-77v178h-92l-134 -178h-90l142 188q-54 16 -84.5 53.5t-30.5 89.5q0 71 47 113.5t125 42.5zM363 246v172h-112q-46 0 -72 -23t-26 -63q0 -39 26.5 -62.5t72.5 -23.5h111z"></glyph><glyph glyph-name="uni0450" unicode="ѐ" d="M515 220h-385q7 -72 57 -116t122 -44q83 0 149 66l45 -52q-82 -85 -195 -85q-109 0 -183.5 73.5t-74.5 180.5q0 106 72.5 180.5t176.5 74.5q95 0 158.5 -62t63.5 -158q0 -28 -6 -58zM133 288h309q-1 64 -42 102t-103 38q-61 0 -106 -38.5t-58 -101.5zM267 566l-120 200 v14h94l85 -214h-59z"></glyph><glyph glyph-name="uni0451" unicode="ё" d="M515 220h-385q7 -72 57 -116t122 -44q83 0 149 66l45 -52q-82 -85 -195 -85q-109 0 -183.5 73.5t-74.5 180.5q0 106 72.5 180.5t176.5 74.5q95 0 158.5 -62t63.5 -158q0 -28 -6 -58zM133 288h309q-1 64 -42 102t-103 38q-61 0 -106 -38.5t-58 -101.5zM135 673 q0 21 17 37.5t38 16.5q23 0 39.5 -16t16.5 -38t-16.5 -37.5t-39.5 -15.5q-21 0 -38 16t-17 37zM347 673q0 22 17 38t39 16q23 0 39 -16t16 -38t-16 -37.5t-39 -15.5q-22 0 -39 16t-17 37z"></glyph><glyph glyph-name="uni0452" unicode="ђ" d="M492 293v-326q0 -78 -42.5 -118t-118.5 -40q-32 0 -61 8v65q24 -3 43 -3q51 0 76.5 21.5t25.5 71.5v312q0 58 -33 93.5t-88 35.5q-57 0 -93.5 -36.5t-36.5 -92.5v-284h-76v580h-83v68h83v102h76v-102h202v-68h-202v-163q51 67 147 67q83 0 132 -52t49 -139z"></glyph><glyph glyph-name="uni0453" unicode="ѓ" d="M85 0v487h328v-69h-251v-418h-77zM210 566l85 214h94v-14l-120 -200h-59z"></glyph><glyph glyph-name="uni0454" unicode="є" d="M451 138l54 -43q-72 -106 -200 -106q-106 0 -180.5 74.5t-74.5 180.5q-2 104 74 180t181 74q63 0 115 -28t86 -78l-54 -44q-58 79 -146 79q-65 0 -112.5 -40t-60.5 -103h208v-68h-210q9 -69 57 -112q50 -44 118 -44q86 0 145 78z"></glyph><glyph glyph-name="uni0455" unicode="ѕ" d="M39 84l49 51q38 -39 69.5 -57t70.5 -18q41 0 67 18.5t26 50.5q0 28 -18.5 43.5t-66.5 34.5l-47 20q-63 26 -92 57t-29 78q0 62 46.5 99t117.5 37q99 0 163 -77l-47 -48q-54 54 -120 54q-37 0 -59 -16t-22 -45q0 -23 16.5 -37.5t62.5 -33.5l45 -19q70 -30 99.5 -62.5 t29.5 -81.5q0 -68 -50 -106q-49 -37 -121 -37q-117 0 -190 95z"></glyph><glyph glyph-name="uni0456" unicode="і" d="M77 673q0 23 16.5 39.5t41.5 16.5q23 0 40 -16.5t17 -39.5q0 -24 -16.5 -40t-40.5 -16q-25 0 -41.5 16t-16.5 40zM96 0v487h77v-487h-77z"></glyph><glyph glyph-name="uni0457" unicode="ї" d="M10 673q0 23 15.5 39.5t37.5 16.5q21 0 36.5 -16.5t15.5 -39.5q0 -24 -15.5 -40t-36.5 -16q-23 0 -38 16t-15 40zM132 673q0 23 15.5 39.5t37.5 16.5q21 0 36.5 -16.5t15.5 -39.5q0 -24 -15.5 -40t-36.5 -16q-23 0 -38 16t-15 40zM85 0v487h77v-487h-77z"></glyph><glyph glyph-name="uni0458" unicode="ј" d="M-60 -183v65q26 -3 45 -3q50 0 75 22t25 71v515h77v-520q0 -78 -42.5 -118t-117.5 -40q-32 0 -62 8zM66 673q0 23 17 39.5t41 16.5q23 0 40 -16.5t17 -39.5q0 -24 -16.5 -40t-40.5 -16t-41 16t-17 40z"></glyph><glyph glyph-name="uni0459" unicode="љ" d="M726 160q0 -72 -49 -116t-132 -44h-193v418h-157l-2 -60q-7 -197 -40 -278t-117 -84q-15 0 -26 4v65q16 -2 20 -2q46 0 66.5 71t23.5 226l3 127h306v-168h116q83 0 132 -43.5t49 -115.5zM647 159q0 42 -29 67t-79 25h-110v-183h111q50 0 78.5 24.5t28.5 66.5z"></glyph><glyph glyph-name="uni045A" unicode="њ" d="M752 157q0 -74 -50 -115.5t-137 -41.5h-194v243h-209v-243h-77v487h77v-176h209v176h77v-176h117q86 0 136.5 -41.5t50.5 -112.5zM673 156q0 39 -30 63t-83 24h-112v-175h112q54 0 83.5 23t29.5 65z"></glyph><glyph glyph-name="uni045B" unicode="ћ" d="M492 293v-293h-77v284q0 58 -33 93.5t-88 35.5q-57 0 -93.5 -36.5t-36.5 -92.5v-284h-76v579h-83v68h83v103h76v-103h202v-68h-202v-162q51 67 147 67q83 0 132 -52t49 -139z"></glyph><glyph glyph-name="uni045C" unicode="ќ" d="M85 0v487h77v-487h-77zM266 266l229 -266h-97l-226 264l205 223h96zM241 566l85 214h94v-14l-120 -200h-59z"></glyph><glyph glyph-name="uni045D" unicode="ѝ" d="M459 498h28v-498h-77v344l-297 -355h-28v498h77v-345zM269 566l-120 200v14h94l85 -214h-59z"></glyph><glyph glyph-name="uni045E" unicode="ў" d="M431 487h82l-240 -555q-54 -123 -165 -123q-39 0 -75 10v65q42 -5 59 -5q40 0 66 17.5t44 60.5l26 58l-202 472h83l161 -388zM115 731v31h65v-29q0 -49 22.5 -75.5t63.5 -26.5q42 0 64.5 26.5t22.5 75.5v29h65v-31q0 -71 -41.5 -114.5t-110.5 -43.5q-68 0 -109.5 43.5 t-41.5 114.5z"></glyph><glyph glyph-name="uni045F" unicode="џ" d="M473 487v-487h-155v-141h-77v141h-156v487h77v-419h234v419h77z"></glyph><glyph glyph-name="uni0462" unicode="Ѣ" d="M161 0v502h-142v65h142v93h78v-93h188v-65h-188v-121h150q98 0 156.5 -53t58.5 -137q0 -85 -58 -138t-157 -53h-228zM239 70h149q64 0 99.5 33t35.5 87q0 55 -35.5 87.5t-99.5 32.5h-149v-240z"></glyph><glyph glyph-name="uni0463" unicode="ѣ" d="M143 0v418h-138v69h138v263h77v-263h159v-69h-159v-109h117q83 0 132.5 -42t49.5 -111q0 -71 -49.5 -113.5t-132.5 -42.5h-194zM220 68h112q51 0 79.5 23.5t28.5 63.5q0 39 -29.5 62.5t-79.5 23.5h-111v-173z"></glyph><glyph glyph-name="uni0472" unicode="Ѳ" d="M733 330q3 -141 -100 -242t-243 -99q-140 -3 -242.5 99t-99.5 242q-3 141 99 242t243 99q140 2 243 -99t100 -242zM130 361q72 29 137 29q46 0 126 -20q75 -20 124 -20q68 0 131 27q-15 97 -87 159.5t-171 62.5q-103 0 -176 -67.5t-84 -170.5zM651 307q-66 -27 -134 -27 q-50 0 -128 20q-82 20 -122 20q-66 0 -136 -29q14 -100 86 -165t173 -65q106 0 179.5 70t81.5 176z"></glyph><glyph glyph-name="uni0473" unicode="ѳ" d="M560 244q0 -106 -75 -180t-181 -74q-104 -2 -180 74t-74 180q-2 104 74.5 180t180.5 74q104 2 180.5 -74t74.5 -180zM133 283q39 16 81 16q36 0 92 -17q54 -16 90 -16q40 0 81 16q-12 64 -59.5 104.5t-112.5 40.5q-66 0 -113 -40t-59 -104zM479 218q-43 -18 -83 -18 q-32 0 -94 17q-54 17 -88 17q-37 0 -83 -17q8 -68 56 -112q50 -44 117 -44q68 0 118 44q49 45 57 113z"></glyph><glyph glyph-name="uni0474" unicode="Ѵ" d="M687 660v-67q-17 3 -30 3q-30 0 -48.5 -15t-33.5 -52l-229 -540h-29l-286 671h86l214 -518l172 415q24 58 57.5 83t85.5 25q9 0 41 -5z"></glyph><glyph glyph-name="uni0475" unicode="ѵ" d="M546 487v-66q-22 2 -25 2q-41 0 -62 -50l-175 -384h-28l-230 498h82l162 -369l123 282q22 47 48.5 69t65.5 22q24 0 39 -4z"></glyph><glyph glyph-name="uni0490" unicode="Ґ" d="M91 0v660h296v140h78v-210h-296v-590h-78z"></glyph><glyph glyph-name="uni0491" unicode="ґ" d="M85 0v487h251v140h77v-209h-251v-418h-77z"></glyph><glyph glyph-name="uni0492" unicode="Ғ" d="M506 590h-315v-250h169v-65h-169v-275h-78v275h-95v65h95v320h393v-70z"></glyph><glyph glyph-name="uni0493" unicode="ғ" d="M414 418h-253v-150h143v-68h-143v-200h-76v200h-80v68h80v219h329v-69z"></glyph><glyph glyph-name="uni0496" unicode="Җ" d="M57 660h101l277 -306l-305 -354h-100l305 354zM444 0v660h78v-660h-78zM875 70h87v-211h-78v141h-48l-305 354l277 306h101l-278 -306z"></glyph><glyph glyph-name="uni0497" unicode="җ" d="M39 487h96l201 -223l-222 -264h-94l223 264zM346 0v487h77v-487h-77zM694 68h78v-209h-77v141h-40l-222 264l201 223h95l-202 -221z"></glyph><glyph glyph-name="uni0498" unicode="Ҙ" d="M535 192q0 -87 -68 -145t-168 -58q-80 0 -145 38.5t-105 106.5l57 42q76 -115 192 -115q68 0 112 37q45 38 45 96q0 55 -39.5 87.5t-114.5 32.5h-78v71h82q55 0 84.5 28.5t29.5 76.5q0 50 -31 79.5t-89 29.5q-99 0 -161 -90l-56 42q72 120 217 120q91 0 146 -50t55 -127 q0 -89 -79 -137q54 -21 84 -64.5t30 -100.5zM172 -181v55q28 -4 56 -4q78 0 78 65q0 40 -34 74l33 17q67 -34 67 -102q0 -50 -36 -82.5t-96 -32.5q-35 0 -68 10z"></glyph><glyph glyph-name="uni0499" unicode="ҙ" d="M416 140q0 -69 -50.5 -110t-133.5 -41q-118 0 -187 94l52 46q52 -69 134 -69q50 0 78 23t28 62q0 36 -28 57.5t-78 21.5h-53v68h52q85 0 85 68q0 31 -22.5 49t-64.5 18q-73 0 -122 -60l-52 46q62 85 177 85q73 0 116.5 -35.5t43.5 -97.5q0 -69 -58 -105q83 -33 83 -120z M122 -181v55q28 -4 56 -4q78 0 78 65q0 40 -34 74l33 17q67 -34 67 -102q0 -50 -36 -82.5t-96 -32.5q-35 0 -68 10z"></glyph><glyph glyph-name="uni049A" unicode="Қ" d="M91 0v660h78v-660h-78zM539 70h89v-211h-78v141h-47l-325 354l297 306h100l-296 -306z"></glyph><glyph glyph-name="uni049B" unicode="қ" d="M85 0v487h77v-487h-77zM437 68h77v-209h-77v141h-39l-226 264l205 223h96l-207 -221z"></glyph><glyph glyph-name="uni04A0" unicode="Ҡ" d="M20 590v70h317v-660h-78v590h-239zM448 354l323 -354h-100l-325 354l297 306h101z"></glyph><glyph glyph-name="uni04A1" unicode="ҡ" d="M20 418v69h257v-487h-77v418h-180zM381 266l229 -266h-97l-226 264l205 223h96z"></glyph><glyph glyph-name="uni04A2" unicode="Ң" d="M620 -141v141h-81v318h-370v-318h-78v660h78v-272h370v272h78v-590h81v-211h-78z"></glyph><glyph glyph-name="uni04A3" unicode="ң" d="M481 -141v141h-80v225h-239v-225h-77v487h77v-194h239v194h77v-419h80v-209h-77z"></glyph><glyph glyph-name="uni04AA" unicode="Ҫ" d="M48 330q-3 141 99.5 242t243.5 99q87 0 159.5 -38t114.5 -104l-58 -46q-81 116 -215 116q-112 0 -187.5 -77t-75.5 -192t75.5 -192t187.5 -77q134 0 215 116l58 -46q-42 -66 -114.5 -104t-159.5 -38q-141 -2 -243.5 99t-99.5 242zM271 -181v55q28 -4 56 -4q78 0 78 65 q0 40 -34 74l33 17q67 -34 67 -102q0 -50 -36 -82.5t-96 -32.5q-35 0 -68 10z"></glyph><glyph glyph-name="uni04AB" unicode="ҫ" d="M50 244q-2 104 74 180t181 74q63 0 115 -28t86 -78l-55 -44q-58 79 -145 79q-75 0 -126 -53.5t-51 -129.5q0 -77 51 -130.5t126 -53.5q86 0 144 78l55 -43q-72 -106 -200 -106q-106 0 -180.5 74.5t-74.5 180.5zM174 -181v55q28 -4 56 -4q78 0 78 65q0 40 -34 74l33 17 q67 -34 67 -102q0 -50 -36 -82.5t-96 -32.5q-35 0 -68 10z"></glyph><glyph glyph-name="uni04AE" unicode="Ү" d="M576 660l-229 -387v-273h-78v273l-229 387h88l180 -310l181 310h87z"></glyph><glyph glyph-name="uni04AF" unicode="ү" d="M513 487l-204 -483v-184h-77v177l-206 490h82l162 -410l161 410h82z"></glyph><glyph glyph-name="uni04B0" unicode="Ұ" d="M576 660l-229 -386h151v-66h-151v-208h-78v208h-151v66h151l-229 386h88l180 -310l181 310h87z"></glyph><glyph glyph-name="uni04B1" unicode="ұ" d="M309 2v-2h131v-68h-131v-112h-77v112h-132v68h130l-204 487h82l162 -412l161 412h82z"></glyph><glyph glyph-name="uni04B2" unicode="Ҳ" d="M522 70h82v-211h-78v141h-48l-178 271l-179 -271h-91l227 338l-211 322h90l164 -257l163 257h90l-208 -323z"></glyph><glyph glyph-name="uni04B3" unicode="ҳ" d="M427 68h78v-209h-77v141h-39l-141 198l-140 -198h-88l183 254l-168 233h87l127 -177l125 177h88l-170 -234z"></glyph><glyph glyph-name="uni04B6" unicode="Ҷ" d="M558 70h80v-211h-78v141h-80v266q-62 -28 -159 -28q-125 0 -192.5 63.5t-67.5 188.5v170h78v-165q0 -187 184 -187q95 0 157 29v323h78v-590z"></glyph><glyph glyph-name="uni04B7" unicode="ҷ" d="M443 68h80v-209h-77v141h-80v197q-56 -27 -123 -27q-89 0 -141 49.5t-52 140.5v127h77v-123q0 -62 31 -93.5t86 -31.5q73 0 122 26v222h77v-419z"></glyph><glyph glyph-name="uni04BA" unicode="Һ" d="M587 170v-170h-78v165q0 187 -184 187q-94 0 -156 -29v-323h-78v660h78v-266q62 28 158 28q125 0 192.5 -63.5t67.5 -188.5z"></glyph><glyph glyph-name="uni04BB" unicode="һ" d="M488 306v-306h-77v296q0 60 -32.5 95.5t-88.5 35.5t-92 -37t-36 -94v-296h-77v750h77v-318q53 66 146 66q83 0 131.5 -52.5t48.5 -139.5z"></glyph><glyph glyph-name="uni04C0" unicode="Ӏ" d="M91 0v660h78v-660h-78z"></glyph><glyph glyph-name="uni04C1" unicode="Ӂ" d="M57 660h101l277 -306l-305 -354h-100l305 354zM444 0v660h78v-660h-78zM631 354l304 -354h-99l-305 354l277 306h101zM331 885v25h65v-26q0 -47 22.5 -73.5t63.5 -26.5t64 26t23 74v26h65v-25q0 -72 -41.5 -115.5t-110.5 -43.5q-68 0 -109.5 43.5t-41.5 115.5z"></glyph><glyph glyph-name="uni04C2" unicode="ӂ" d="M39 487h96l201 -223l-222 -264h-94l223 264zM346 0v487h77v-487h-77zM527 266l224 -266h-96l-222 264l201 223h95zM234 731v31h65v-29q0 -49 22.5 -75.5t63.5 -26.5q42 0 64.5 26.5t22.5 75.5v29h65v-31q0 -71 -41.5 -114.5t-110.5 -43.5q-68 0 -109.5 43.5t-41.5 114.5z "></glyph><glyph glyph-name="uni04CF" unicode="ӏ" d="M85 0v750h77v-750h-77z"></glyph><glyph glyph-name="uni04D0" unicode="Ӑ" d="M549 0l-56 134h-324l-56 -134h-82l286 671h29l286 -671h-83zM463 204l-132 325l-132 -325h264zM180 885v25h65v-26q0 -47 22.5 -73.5t63.5 -26.5t64 26t23 74v26h65v-25q0 -72 -41.5 -115.5t-110.5 -43.5q-68 0 -109.5 43.5t-41.5 115.5z"></glyph><glyph glyph-name="uni04D1" unicode="ӑ" d="M450 300v-300h-72v63q-56 -74 -164 -74q-76 0 -123 37.5t-47 99.5t48 99t127 37h154v42q0 59 -31.5 91t-86.5 32q-82 0 -142 -78l-51 42q65 107 198 107q88 0 139 -51.5t51 -146.5zM373 187v12h-145q-105 0 -105 -69q0 -36 28.5 -56.5t72.5 -20.5q61 0 105 39t44 95z M107 731v31h65v-29q0 -49 22.5 -75.5t63.5 -26.5q42 0 64.5 26.5t22.5 75.5v29h65v-31q0 -71 -41.5 -114.5t-110.5 -43.5q-68 0 -109.5 43.5t-41.5 114.5z"></glyph><glyph glyph-name="uni04D4" unicode="Ӕ" d="M535 70h246v-70h-314l-23 134h-276l-71 -134h-84l344 660h412v-70h-322l34 -202h208v-70h-196zM377 541l-172 -337h227z"></glyph><glyph glyph-name="uni04D5" unicode="ӕ" d="M837 211h-382q10 -69 58.5 -110t118.5 -41q82 0 147 65l46 -51q-76 -85 -194 -85q-67 0 -123.5 31.5t-89.5 86.5q-26 -56 -79.5 -87t-122.5 -31q-77 0 -124.5 38.5t-47.5 102.5q0 65 48 104.5t127 39.5h154v30q0 59 -31.5 91t-85.5 32q-81 0 -141 -78l-51 42 q32 52 84 79.5t113 27.5q124 0 167 -102q33 48 84.5 75t111.5 27q93 0 156.5 -62.5t63.5 -158.5q0 -45 -7 -66zM455 274h309q4 69 -38 111.5t-106 42.5q-65 0 -110.5 -42.5t-54.5 -111.5zM373 186v25h-145q-105 0 -105 -73q0 -39 28.5 -61.5t73.5 -22.5q59 0 103.5 38.5 t44.5 93.5z"></glyph><glyph glyph-name="uni04D6" unicode="Ӗ" d="M91 0v660h423v-70h-345v-202h264v-70h-264v-248h357v-70h-435zM132 885v25h65v-26q0 -47 22.5 -73.5t63.5 -26.5t64 26t23 74v26h65v-25q0 -72 -41.5 -115.5t-110.5 -43.5q-68 0 -109.5 43.5t-41.5 115.5z"></glyph><glyph glyph-name="uni04D7" unicode="ӗ" d="M515 220h-385q7 -72 57 -116t122 -44q83 0 149 66l45 -52q-82 -85 -195 -85q-109 0 -183.5 73.5t-74.5 180.5q0 106 72.5 180.5t176.5 74.5q95 0 158.5 -62t63.5 -158q0 -28 -6 -58zM133 288h309q-1 64 -42 102t-103 38q-61 0 -106 -38.5t-58 -101.5zM134 731v31h65v-29 q0 -49 22.5 -75.5t63.5 -26.5q42 0 64.5 26.5t22.5 75.5v29h65v-31q0 -71 -41.5 -114.5t-110.5 -43.5q-68 0 -109.5 43.5t-41.5 114.5z"></glyph><glyph glyph-name="uni04D8" unicode="Ә" d="M683 332q2 -142 -93.5 -243.5t-232.5 -99.5q-129 0 -219 82t-90 211q0 29 6 71h547q-6 108 -73 177t-168 69q-144 0 -225 -111l-54 45q100 138 280 138q136 2 230 -98t92 -241zM599 283h-473q-3 -99 65.5 -160.5t168.5 -61.5q95 0 159 61q65 62 80 161z"></glyph><glyph glyph-name="uni04D9" unicode="ә" d="M521 244q0 -108 -68.5 -181.5t-173.5 -73.5q-97 0 -163 62t-66 158q0 28 6 58h385q-7 73 -53.5 116.5t-118.5 43.5q-90 0 -156 -66l-45 52q79 85 202 85q109 0 180 -73t71 -181zM438 199h-308q2 -64 44.5 -102.5t106.5 -38.5q62 0 104 38.5t53 102.5z"></glyph><glyph glyph-name="uni04E2" unicode="Ӣ" d="M599 671h28v-671h-78v512l-430 -523h-28v671h78v-512zM212 770v63h295v-63h-295z"></glyph><glyph glyph-name="uni04E3" unicode="ӣ" d="M459 498h28v-498h-77v344l-297 -355h-28v498h77v-345zM161 642v62h275v-62h-275z"></glyph><glyph glyph-name="uni04E6" unicode="Ӧ" d="M48 330q-3 141 99 242t243 99q140 2 243 -99t100 -242q3 -141 -100 -242t-243 -99q-140 -3 -242.5 99t-99.5 242zM652 331q2 112 -75 191t-186 77q-112 0 -187 -76.5t-75 -191.5t75 -192.5t187 -77.5q109 -2 186 77.5t75 192.5zM219 810q0 22 16.5 37.5t38.5 15.5 q23 0 39 -15.5t16 -37.5t-16 -37.5t-39 -15.5q-22 0 -38.5 15.5t-16.5 37.5zM452 809q0 22 16.5 38t38.5 16q23 0 39 -16t16 -38t-16 -37.5t-39 -15.5q-22 0 -38.5 15.5t-16.5 37.5z"></glyph><glyph glyph-name="uni04E7" unicode="ӧ" d="M50 244q-2 104 74.5 180t180.5 74q105 2 181 -74t74 -180q2 -103 -75 -179.5t-181 -74.5q-104 -2 -180 74.5t-74 179.5zM481 243q0 78 -50.5 131t-125.5 53t-125.5 -52.5t-50.5 -131.5q0 -77 50.5 -129.5t124.5 -52.5t125.5 53t51.5 129zM143 673q0 21 17 37.5t38 16.5 q23 0 39.5 -16t16.5 -38t-16.5 -37.5t-39.5 -15.5q-21 0 -38 16t-17 37zM355 673q0 22 17 38t39 16q23 0 39 -16t16 -38t-16 -37.5t-39 -15.5q-22 0 -39 16t-17 37z"></glyph><glyph glyph-name="uni04E8" unicode="Ө" d="M733 330q3 -141 -100 -242t-243 -99q-140 -3 -242.5 99t-99.5 242q-3 141 99 242t243 99q140 2 243 -99t100 -242zM132 372h517q-14 98 -86 162.5t-172 64.5q-101 0 -173 -64t-86 -163zM651 302h-521q9 -104 83 -172.5t178 -68.5q103 0 177 68.5t83 172.5z"></glyph><glyph glyph-name="uni04E9" unicode="ө" d="M560 244q0 -106 -75 -180t-181 -74q-104 -2 -180 74t-74 180q-2 104 74.5 180t180.5 74q104 2 180.5 -74t74.5 -180zM133 284h344q-13 63 -60.5 103t-111.5 40q-65 0 -112 -39.5t-60 -103.5zM479 216h-348q7 -67 56 -111q50 -44 117 -44t117 44q49 43 58 111z"></glyph><glyph glyph-name="uni04EE" unicode="Ӯ" d="M550 660h79l-237 -505q-43 -91 -82 -127q-41 -38 -106 -38q-28 0 -54 10v68q27 -6 52 -6q34 0 57 16.5t44 56.5l-263 525h88l218 -435zM199 770v63h295v-63h-295z"></glyph><glyph glyph-name="uni04EF" unicode="ӯ" d="M431 487h82l-240 -555q-54 -123 -165 -123q-39 0 -75 10v65q42 -5 59 -5q40 0 66 17.5t44 60.5l26 58l-202 472h83l161 -388zM133 642v62h275v-62h-275z"></glyph><glyph glyph-name="uni04F2" unicode="Ӳ" d="M550 660h79l-237 -505q-43 -91 -82 -127q-41 -38 -106 -38q-28 0 -54 10v68q27 -6 52 -6q34 0 57 16.5t44 56.5l-263 525h88l218 -435zM197 724l86 186h83v-14l-114 -172h-55zM416 724l86 186h83v-14l-114 -172h-55z"></glyph><glyph glyph-name="uni04F3" unicode="ӳ" d="M431 487h82l-240 -555q-54 -123 -165 -123q-39 0 -75 10v65q42 -5 59 -5q40 0 66 17.5t44 60.5l26 58l-202 472h83l161 -388zM137 566l86 214h83v-14l-114 -200h-55zM336 566l86 214h83v-14l-114 -200h-55z"></glyph><glyph glyph-name="Wgrave" unicode="Ẁ" d="M935 660h85l-250 -671h-28l-209 524l-209 -524h-28l-251 671h86l182 -503l206 514h28l206 -513zM505 724l-120 172v14h94l85 -186h-59z"></glyph><glyph glyph-name="wgrave" unicode="ẁ" d="M742 487h82l-205 -498h-28l-166 368l-165 -368h-27l-207 498h82l141 -361l162 372h29l164 -369zM393 566l-120 200v14h94l85 -214h-59z"></glyph><glyph glyph-name="Wacute" unicode="Ẃ" d="M935 660h85l-250 -671h-28l-209 524l-209 -524h-28l-251 671h86l182 -503l206 514h28l206 -513zM504 724l85 186h94v-14l-120 -172h-59z"></glyph><glyph glyph-name="wacute" unicode="ẃ" d="M742 487h82l-205 -498h-28l-166 368l-165 -368h-27l-207 498h82l141 -361l162 372h29l164 -369zM396 566l85 214h94v-14l-120 -200h-59z"></glyph><glyph glyph-name="Wdieresis" unicode="Ẅ" d="M935 660h85l-250 -671h-28l-209 524l-209 -524h-28l-251 671h86l182 -503l206 514h28l206 -513zM361 810q0 22 16.5 37.5t38.5 15.5q23 0 39 -15.5t16 -37.5t-16 -37.5t-39 -15.5q-22 0 -38.5 15.5t-16.5 37.5zM594 809q0 22 16.5 38t38.5 16q23 0 39 -16t16 -38 t-16 -37.5t-39 -15.5q-22 0 -38.5 15.5t-16.5 37.5z"></glyph><glyph glyph-name="wdieresis" unicode="ẅ" d="M742 487h82l-205 -498h-28l-166 368l-165 -368h-27l-207 498h82l141 -361l162 372h29l164 -369zM261 673q0 21 17 37.5t38 16.5q23 0 39.5 -16t16.5 -38t-16.5 -37.5t-39.5 -15.5q-21 0 -38 16t-17 37zM473 673q0 22 17 38t39 16q23 0 39 -16t16 -38t-16 -37.5t-39 -15.5 q-22 0 -39 16t-17 37z"></glyph><glyph glyph-name="uni1E9E" unicode="ẞ" d="M660 200q0 -91 -63.5 -151t-152.5 -60q-111 0 -186 85l47 56q60 -69 136 -69q60 0 99 39.5t39 100.5q0 66 -46.5 105t-121.5 39h-53v22l137 223h-326v-590h-78v660h518v-23l-139 -226q81 -11 135.5 -69t54.5 -142z"></glyph><glyph glyph-name="Ygrave" unicode="Ỳ" d="M576 660l-229 -387v-273h-78v273l-229 387h88l180 -310l181 310h87zM276 724l-120 172v14h94l85 -186h-59z"></glyph><glyph glyph-name="ygrave" unicode="ỳ" d="M431 487h82l-240 -555q-54 -123 -165 -123q-39 0 -75 10v65q42 -5 59 -5q40 0 66 17.5t44 60.5l26 58l-202 472h83l161 -388zM237 566l-120 200v14h94l85 -214h-59z"></glyph><glyph glyph-name="uni2009" unicode=" "></glyph><glyph glyph-name="endash" unicode="–" d="M43 282v65h419v-65h-419z"></glyph><glyph glyph-name="emdash" unicode="—" d="M50 282v65h900v-65h-900z"></glyph><glyph glyph-name="uni2015" unicode="―" d="M50 282v65h900v-65h-900z"></glyph><glyph glyph-name="quoteleft" unicode="‘" d="M83 403l42 257h61l-13 -257h-90z"></glyph><glyph glyph-name="quoteright" unicode="’" d="M94 403l14 257h90l-43 -257h-61z"></glyph><glyph glyph-name="quotesinglbase" unicode="‚" d="M94 -167l14 257h90l-43 -257h-61z"></glyph><glyph glyph-name="quotedblleft" unicode="“" d="M83 403l42 257h61l-13 -257h-90zM266 403l42 257h61l-13 -257h-90z"></glyph><glyph glyph-name="quotedblright" unicode="”" d="M94 403l14 257h90l-43 -257h-61zM277 403l14 257h90l-43 -257h-61z"></glyph><glyph glyph-name="quotedblbase" unicode="„" d="M94 -167l14 257h90l-43 -257h-61zM277 -167l14 257h90l-43 -257h-61z"></glyph><glyph glyph-name="dagger" unicode="†" d="M187 325v224h-124v68h124v133h76v-133h125v-68h-125v-224h-76z"></glyph><glyph glyph-name="daggerdbl" unicode="‡" d="M187 271v104h-124v69h124v135h-124v68h124v103h76v-103h125v-68h-125v-135h125v-69h-125v-104h-76z"></glyph><glyph glyph-name="bullet" unicode="•" d="M57 267q0 55 39 92.5t93 37.5q53 0 92 -37.5t39 -92.5t-38.5 -92t-92.5 -37t-93 37t-39 92z"></glyph><glyph glyph-name="ellipsis" unicode="…" d="M327 52q0 27 18.5 45t44.5 18t44.5 -18t18.5 -45t-18.5 -45t-44.5 -18t-44.5 18t-18.5 45zM77 52q0 27 18.5 45t44.5 18t44.5 -18t18.5 -45t-18.5 -45t-44.5 -18t-44.5 18t-18.5 45zM576 52q0 27 18.5 45t44.5 18t44.5 -18t18.5 -45t-18.5 -45t-44.5 -18t-44.5 18 t-18.5 45z"></glyph><glyph glyph-name="perthousand" unicode="‰" d="M66 510q0 67 48 114t116 47q67 0 115 -47t48 -114t-48 -114t-115 -47q-68 0 -116 47t-48 114zM198 0l378 660h69l-378 -660h-69zM329 510q0 44 -28 74t-71 30t-71 -29.5t-28 -74.5t28 -74.5t71 -29.5t71 30t28 74zM817 152q0 67 47 114t115 47t116 -47t48 -114t-48 -114 t-116 -47t-115 47t-47 114zM450 151q0 67 47 114t115 47t116 -47t48 -114t-48 -114t-116 -47t-115 47t-47 114zM1079 152q0 45 -28 74.5t-71 29.5t-71 -29.5t-28 -74.5q0 -44 28 -73.5t71 -29.5t71 29.5t28 73.5zM711 151q0 45 -28 74.5t-70 29.5q-43 0 -71 -29.5t-28 -74.5 q0 -44 28 -73.5t71 -29.5q42 0 70 29.5t28 73.5z"></glyph><glyph glyph-name="minute" unicode="′" d="M68 388l41 272h92l-71 -272h-62z"></glyph><glyph glyph-name="second" unicode="″" d="M68 388l41 272h92l-71 -272h-62zM251 388l41 272h92l-71 -272h-62z"></glyph><glyph glyph-name="guilsinglleft" unicode="‹" d="M216 71l-178 188v23l178 189l50 -45l-141 -155l141 -157z"></glyph><glyph glyph-name="guilsinglright" unicode="›" d="M90 71l-51 43l142 157l-142 155l51 45l177 -189v-23z"></glyph><glyph glyph-name="fraction" unicode="⁄" d="M-105 0l378 660h69l-378 -660h-69z"></glyph><glyph glyph-name="uni2070" unicode="⁰" d="M49 576q0 98 40 154.5t116 56.5t115.5 -56.5t39.5 -154.5q0 -100 -39.5 -159.5t-115.5 -59.5q-75 0 -115.5 60t-40.5 159zM294 575q0 151 -89 151q-88 0 -88 -151q0 -158 88 -158q89 0 89 158z"></glyph><glyph glyph-name="uni2074" unicode="⁴" d="M340 492v-55h-56v-73h-61v73h-207v18l130 325h67l-116 -288h126v130h61v-130h56z"></glyph><glyph glyph-name="uni2075" unicode="⁵" d="M327 500q0 -64 -44 -103.5t-109 -39.5q-49 0 -86.5 24.5t-58.5 65.5l46 33q36 -62 98 -62q38 0 62 21.5t24 57.5q0 74 -96 74h-94v209h237v-60h-173v-97q32 5 49 5q64 0 104.5 -34.5t40.5 -93.5z"></glyph><glyph glyph-name="uni2076" unicode="⁶" d="M330 500q0 -60 -43 -101.5t-104 -41.5q-60 0 -102.5 41.5t-42.5 103.5q0 33 12 59.5t44 71.5l103 147h78l-99 -143q16 2 19 2q53 0 94 -40.5t41 -98.5zM263 500q0 35 -23 59.5t-57 24.5t-56.5 -24.5t-22.5 -59.5q0 -36 22.5 -59t56.5 -23q35 0 57.5 23t22.5 59z"></glyph><glyph glyph-name="uni2077" unicode="⁷" d="M26 780h281v-19l-198 -397h-72l181 356h-192v60z"></glyph><glyph glyph-name="uni2078" unicode="⁸" d="M340 472q0 -52 -41.5 -83.5t-108.5 -31.5q-66 0 -107 31.5t-41 84.5q0 72 89 107q-70 36 -70 101q0 48 36 77t93 29q58 0 94.5 -29t36.5 -78q0 -64 -70 -100q89 -35 89 -108zM122 677q0 -23 16 -38t53 -31q37 16 53 31.5t16 37.5q0 26 -19.5 41.5t-50.5 15.5 q-30 0 -49 -15.5t-19 -41.5zM275 475q0 28 -20 45t-65 33q-44 -16 -63.5 -33t-19.5 -45q0 -29 22 -46.5t61 -17.5q40 0 62.5 17.5t22.5 46.5z"></glyph><glyph glyph-name="uni2079" unicode="⁹" d="M330 642q0 -33 -12 -59t-45 -72l-103 -147h-77l100 143q-18 -2 -20 -2q-53 0 -94 40.5t-41 98.5q0 60 43 101.5t104 41.5q60 0 102.5 -41.5t42.5 -103.5zM264 644q0 36 -22.5 59t-56.5 23q-35 0 -57.5 -23t-22.5 -59q0 -35 23 -59.5t57 -24.5t56.5 24.5t22.5 59.5z"></glyph><glyph glyph-name="uni207A" unicode="⁺" d="M182 400v144h-140v57h140v144h63v-144h140v-57h-140v-144h-63z"></glyph><glyph glyph-name="uni207B" unicode="⁻" d="M42 547v52h343v-52h-343z"></glyph><glyph glyph-name="uni207C" unicode="⁼" d="M49 623v57h329v-57h-329zM49 465v57h329v-57h-329z"></glyph><glyph glyph-name="uni207D" unicode="⁽" d="M58 572q0 258 150 329l25 -40q-117 -75 -117 -289t117 -288l-25 -41q-69 46 -109 120q-41 77 -41 209z"></glyph><glyph glyph-name="uni207E" unicode="⁾" d="M46 243l-25 41q117 74 117 288t-117 289l25 40q150 -71 150 -329q0 -132 -40.5 -214t-109.5 -115z"></glyph><glyph glyph-name="uni2080" unicode="₀" d="M49 92q0 98 40 154.5t116 56.5t115.5 -56.5t39.5 -154.5q0 -100 -39.5 -159.5t-115.5 -59.5q-75 0 -115.5 60t-40.5 159zM294 91q0 151 -89 151q-88 0 -88 -151q0 -158 88 -158q89 0 89 158z"></glyph><glyph glyph-name="uni2081" unicode="₁" d="M47 -120v60h105v296h-100v60h167v-356h90v-60h-262z"></glyph><glyph glyph-name="uni2082" unicode="₂" d="M154 -60h175v-60h-294v15l148 159q34 36 49 61t15 54q0 31 -19.5 52t-49.5 21q-32 0 -51.5 -21t-19.5 -55l2 -32h-65q-4 15 -4 36q0 53 39 93t99 40q59 0 97.5 -36.5t38.5 -92.5q0 -40 -20.5 -74t-68.5 -85z"></glyph><glyph glyph-name="uni2083" unicode="₃" d="M314 14q0 -62 -43.5 -101.5t-106.5 -39.5q-97 0 -145 90l46 33q38 -62 97 -62q37 0 60.5 22t23.5 58q0 35 -24.5 54t-70.5 19h-41v18l97 131h-159v60h257v-19l-100 -135q47 -10 78 -43.5t31 -84.5z"></glyph><glyph glyph-name="uni2084" unicode="₄" d="M340 8v-55h-56v-73h-61v73h-207v18l130 325h67l-116 -288h126v130h61v-130h56z"></glyph><glyph glyph-name="uni2085" unicode="₅" d="M327 16q0 -64 -44 -103.5t-109 -39.5q-49 0 -86.5 24.5t-58.5 65.5l46 33q36 -62 98 -62q38 0 62 21.5t24 57.5q0 74 -96 74h-94v209h237v-60h-173v-97q32 5 49 5q64 0 104.5 -34.5t40.5 -93.5z"></glyph><glyph glyph-name="uni2086" unicode="₆" d="M330 16q0 -60 -43 -101.5t-104 -41.5q-60 0 -102.5 41.5t-42.5 103.5q0 33 12 59.5t44 71.5l103 147h78l-99 -143q16 2 19 2q53 0 94 -40.5t41 -98.5zM263 16q0 35 -23 59.5t-57 24.5t-56.5 -24.5t-22.5 -59.5q0 -36 22.5 -59t56.5 -23q35 0 57.5 23t22.5 59z"></glyph><glyph glyph-name="uni2087" unicode="₇" d="M26 296h281v-19l-198 -397h-72l181 356h-192v60z"></glyph><glyph glyph-name="uni2088" unicode="₈" d="M340 -12q0 -52 -41.5 -83.5t-108.5 -31.5q-66 0 -107 31.5t-41 84.5q0 72 89 107q-70 36 -70 101q0 48 36 77t93 29q58 0 94.5 -29t36.5 -78q0 -64 -70 -100q89 -35 89 -108zM122 193q0 -23 16 -38t53 -31q37 16 53 31.5t16 37.5q0 26 -19.5 41.5t-50.5 15.5 q-30 0 -49 -15.5t-19 -41.5zM275 -9q0 28 -20 45t-65 33q-44 -16 -63.5 -33t-19.5 -45q0 -29 22 -46.5t61 -17.5q40 0 62.5 17.5t22.5 46.5z"></glyph><glyph glyph-name="uni2089" unicode="₉" d="M330 158q0 -33 -12 -59t-45 -72l-103 -147h-77l100 143q-18 -2 -20 -2q-53 0 -94 40.5t-41 98.5q0 60 43 101.5t104 41.5q60 0 102.5 -41.5t42.5 -103.5zM264 160q0 36 -22.5 59t-56.5 23q-35 0 -57.5 -23t-22.5 -59q0 -35 23 -59.5t57 -24.5t56.5 24.5t22.5 59.5z"></glyph><glyph glyph-name="uni208A" unicode="₊" d="M182 -85v144h-140v57h140v144h63v-144h140v-57h-140v-144h-63z"></glyph><glyph glyph-name="uni208B" unicode="₋" d="M42 62v52h343v-52h-343z"></glyph><glyph glyph-name="uni208C" unicode="₌" d="M49 138v57h329v-57h-329zM49 -20v57h329v-57h-329z"></glyph><glyph glyph-name="uni208D" unicode="₍" d="M58 87q0 258 150 329l25 -40q-117 -75 -117 -289q0 -215 117 -288l-25 -41q-69 46 -109 121q-41 76 -41 208z"></glyph><glyph glyph-name="uni208E" unicode="₎" d="M46 -242l-25 41q117 73 117 288q0 214 -117 289l25 40q150 -71 150 -329q0 -132 -40.5 -214t-109.5 -115z"></glyph><glyph glyph-name="lira" unicode="₤" d="M208 68h276v-68h-427v20q109 69 129 153h-119v68h120q-7 39 -30 83h-90v68h55q-25 54 -25 104q0 78 53.5 126.5t137.5 48.5q76 0 129 -42.5t75 -120.5l-69 -26q-37 117 -131 117q-53 0 -84 -32.5t-31 -82.5q0 -42 26 -92h192v-68h-156q23 -47 27 -83h129v-68h-131 q-10 -62 -56 -105z"></glyph><glyph glyph-name="peseta" unicode="₧" d="M591 489v-68h-83q-11 -75 -71 -122q-59 -46 -151 -46h-102v-253h-78v421h-82v68h82v171h180q92 0 152 -46.5t71 -124.5h82zM285 590h-101v-102h243q-9 49 -45.5 75.5t-96.5 26.5zM427 422h-243v-99h101q59 0 95.5 26t46.5 73z"></glyph><glyph glyph-name="Euro" unicode="€" d="M576 142l56 -45q-35 -51 -94 -79.5t-131 -28.5q-108 0 -187 62q-77 62 -107 166h-108v68h95q-2 40 -2 45q0 7 2 41h-93v68h105q29 106 106 168q79 64 189 64q72 0 131 -28.5t94 -79.5l-56 -45q-59 81 -166 81q-78 0 -134 -42.5t-81 -117.5h292l-16 -68h-290 q-2 -34 -2 -41q0 -22 3 -45h263l-17 -68h-231q25 -73 80.5 -114.5t132.5 -41.5q107 0 166 81z"></glyph><glyph glyph-name="uni20AE" unicode="₮" d="M562 590h-233v-184l183 69v-73l-183 -69v-88l183 68v-73l-183 -69v-171h-78v147l-181 -69v74l181 68v89l-181 -68v73l181 68v208h-232v70h543v-70z"></glyph><glyph glyph-name="uni20B4" unicode="₴" d="M443 433h78v-64h-497v64h331q28 28 28 68q0 44 -31.5 71t-83.5 27q-85 0 -143 -81l-55 41q30 53 82.5 82.5t117.5 29.5q85 0 139 -47t54 -121q0 -39 -20 -70zM22 222v64h499v-64h-357q-14 -22 -14 -52q0 -49 34 -79t91 -30q113 0 183 110l57 -40q-36 -66 -100.5 -104 t-140.5 -38q-90 0 -147.5 51t-57.5 130q0 25 8 52h-55z"></glyph><glyph glyph-name="uni20B8" unicode="₸" d="M19 590v70h543v-70h-543zM251 0v434h-232v70h543v-70h-233v-434h-78z"></glyph><glyph glyph-name="uni20B9" unicode="₹" d="M439 660v-68h-119q32 -32 41 -81h78v-68h-76q-8 -76 -63.5 -120.5t-145.5 -45.5l285 -277h-98l-286 277v68h91q119 0 136 98h-229v68h225q-23 81 -132 81h-91v68h384z"></glyph><glyph glyph-name="uni20BA" unicode="₺" d="M483 225q0 -109 -87 -172.5t-236 -63.5h-38v250l-97 -45v73l97 45v88l-97 -44v74l97 44v186h78v-157l188 86v-73l-188 -86v-88l188 86v-73l-188 -86v-207q97 8 154 53q59 47 59 116q0 22 -5 59h66q9 -31 9 -65z"></glyph><glyph glyph-name="uni20BD" unicode="₽" d="M106 0v134h-82v68h82v93h-82v68h82v297h222q92 0 146 -51q55 -49 55 -132q0 -81 -55 -132q-56 -50 -146 -50h-144v-93h265v-68h-265v-134h-78zM184 363h142q59 0 93 30.5t34 82.5t-34 84t-93 32h-142v-229z"></glyph><glyph glyph-name="uni20BF" unicode="₿" d="M393 37v-131h-72v125h-84v-125h-71v125h-75v599h75v120h71v-120h79h5v120h72v-133q44 -17 69 -54t25 -86q0 -79 -64 -121q50 -19 77.5 -58.5t27.5 -94.5q0 -63 -36.5 -107.5t-98.5 -58.5zM309 563h-145v-182h145q49 0 76 24t27 69q0 43 -26.5 66t-76.5 23zM451 205 q0 53 -31.5 81.5t-89.5 28.5h-166v-218h166q58 0 89.5 28t31.5 80z"></glyph><glyph glyph-name="uni2113" unicode="ℓ" d="M285 59q29 0 88 10v-65q-49 -15 -100 -15q-81 0 -125 45.5t-44 132.5v15q-12 -9 -54 -44l-41 58q67 55 95 80v294q0 96 39.5 143.5t110.5 47.5q64 0 99.5 -37t35.5 -111q0 -178 -209 -373v-67q0 -114 105 -114zM180 574v-236q71 73 105.5 138t34.5 132q0 87 -63 87 q-77 0 -77 -121z"></glyph><glyph glyph-name="uni2116" unicode="№" d="M539 164v496h78v-671h-28l-420 506v-495h-78v671h28zM749 398q0 67 47.5 114t115.5 47t116 -47t48 -114t-48 -114t-116 -47t-115.5 47t-47.5 114zM813 398q0 -44 28 -73.5t71 -29.5t71.5 29.5t28.5 73.5q0 45 -28.5 74.5t-71.5 29.5t-71 -29.5t-28 -74.5zM753 105v56h318 v-56h-318z"></glyph><glyph glyph-name="uni2117" unicode="℗" d="M48 330q-3 140 100.5 241.5t241.5 99.5q139 2 242.5 -99.5t100.5 -241.5q3 -140 -100.5 -241.5t-242.5 -99.5q-139 -2 -242.5 99.5t-99.5 241.5zM673 330q2 121 -82.5 204.5t-200.5 81.5q-116 2 -200 -81.5t-82 -204.5q-2 -121 82 -204.5t200 -81.5q116 -2 200 81.5 t83 204.5zM270 150v353h153q59 0 95 -32.5t36 -84.5t-36.5 -84t-94.5 -32h-87v-120h-66zM337 326h86q30 0 47.5 16.5t17.5 43.5t-17.5 43.5t-47.5 16.5h-86v-120z"></glyph><glyph glyph-name="trademark" unicode="™" d="M463 211v456h24l188 -254l189 254h22v-456h-67v294l-133 -179h-23l-132 179v-294h-68zM167 211v388h-154v61h374v-61h-154v-388h-66z"></glyph><glyph glyph-name="uni2126" unicode="Ω" d="M576 70h152v-70h-269v70q198 92 198 270q0 112 -74.5 185.5t-187.5 73.5t-187 -73t-74 -185q0 -176 198 -271v-70h-269v70h150q-160 106 -160 273q-2 137 98.5 233.5t243.5 94.5q142 2 243.5 -95t99.5 -233q0 -160 -162 -273z"></glyph><glyph glyph-name="estimated" unicode="℮" d="M731 327h-544v-202q77 -104 220 -104q77 0 144 32t112 87l24 -21q-49 -61 -122.5 -95t-157.5 -34q-146 -2 -248 97.5t-99 238.5q-3 140 102 243.5t241 100.5q80 2 157 -35t127 -105t48 -149q0 -33 -4 -54zM187 534v-176h421v191q-75 89 -201 89q-142 0 -220 -104z"></glyph><glyph glyph-name="uni2150" unicode="⅐" d="M47 244v60h105v296h-100v60h167v-356h90v-60h-262zM248 0l378 660h69l-378 -660h-69zM616 416h281v-19l-198 -397h-72l181 356h-192v60z"></glyph><glyph glyph-name="uni2151" unicode="⅑" d="M47 244v60h105v296h-100v60h167v-356h90v-60h-262zM248 0l378 660h69l-378 -660h-69zM890 278q0 -33 -12 -59t-45 -72l-103 -147h-77l100 143q-18 -2 -20 -2q-53 0 -94 40.5t-41 98.5q0 60 43 101.5t104 41.5q60 0 102.5 -41.5t42.5 -103.5zM824 280q0 36 -22.5 59 t-56.5 23q-35 0 -57.5 -23t-22.5 -59q0 -35 23 -59.5t57 -24.5t56.5 24.5t22.5 59.5z"></glyph><glyph glyph-name="uni2152" unicode="⅒" d="M47 244v60h105v296h-100v60h167v-356h90v-60h-262zM248 0l378 660h69l-378 -660h-69zM637 0v60h105v296h-100v60h167v-356h90v-60h-262zM992 212q0 98 40 154.5t116 56.5t115.5 -56.5t39.5 -154.5q0 -100 -39.5 -159.5t-115.5 -59.5q-75 0 -115.5 60t-40.5 159zM1237 211 q0 151 -89 151q-88 0 -88 -151q0 -158 88 -158q89 0 89 158z"></glyph><glyph glyph-name="uni2153" unicode="⅓" d="M47 244v60h105v296h-100v60h167v-356h90v-60h-262zM248 0l378 660h69l-378 -660h-69zM904 134q0 -62 -43.5 -101.5t-106.5 -39.5q-97 0 -145 90l46 33q38 -62 97 -62q37 0 60.5 22t23.5 58q0 35 -24.5 54t-70.5 19h-41v18l97 131h-159v60h257v-19l-100 -135 q47 -10 78 -43.5t31 -84.5z"></glyph><glyph glyph-name="uni2154" unicode="⅔" d="M154 304h175v-60h-294v15l148 159q34 36 49 61t15 54q0 31 -19.5 52t-49.5 21q-32 0 -51.5 -21t-19.5 -55l2 -32h-65q-4 15 -4 36q0 53 39 93t99 40q59 0 97.5 -36.5t38.5 -92.5q0 -40 -20.5 -74t-68.5 -85zM264 0l378 660h69l-378 -660h-69zM920 134q0 -62 -43.5 -101.5 t-106.5 -39.5q-97 0 -145 90l46 33q38 -62 97 -62q37 0 60.5 22t23.5 58q0 35 -24.5 54t-70.5 19h-41v18l97 131h-159v60h257v-19l-100 -135q47 -10 78 -43.5t31 -84.5z"></glyph><glyph glyph-name="uni2155" unicode="⅕" d="M47 244v60h105v296h-100v60h167v-356h90v-60h-262zM248 0l378 660h69l-378 -660h-69zM909 136q0 -64 -44 -103.5t-109 -39.5q-49 0 -86.5 24.5t-58.5 65.5l46 33q36 -62 98 -62q38 0 62 21.5t24 57.5q0 74 -96 74h-94v209h237v-60h-173v-97q32 5 49 5q64 0 104.5 -34.5 t40.5 -93.5z"></glyph><glyph glyph-name="uni2156" unicode="⅖" d="M154 304h175v-60h-294v15l148 159q34 36 49 61t15 54q0 31 -19.5 52t-49.5 21q-32 0 -51.5 -21t-19.5 -55l2 -32h-65q-4 15 -4 36q0 53 39 93t99 40q59 0 97.5 -36.5t38.5 -92.5q0 -40 -20.5 -74t-68.5 -85zM264 0l378 660h69l-378 -660h-69zM925 136q0 -64 -44 -103.5 t-109 -39.5q-49 0 -86.5 24.5t-58.5 65.5l46 33q36 -62 98 -62q38 0 62 21.5t24 57.5q0 74 -96 74h-94v209h237v-60h-173v-97q32 5 49 5q64 0 104.5 -34.5t40.5 -93.5z"></glyph><glyph glyph-name="uni2157" unicode="⅗" d="M314 378q0 -62 -43.5 -101.5t-106.5 -39.5q-97 0 -145 90l46 33q38 -62 97 -62q37 0 60.5 22t23.5 58q0 35 -24.5 54t-70.5 19h-41v18l97 131h-159v60h257v-19l-100 -135q47 -10 78 -43.5t31 -84.5zM214 0l378 660h69l-378 -660h-69zM875 136q0 -64 -44 -103.5 t-109 -39.5q-49 0 -86.5 24.5t-58.5 65.5l46 33q36 -62 98 -62q38 0 62 21.5t24 57.5q0 74 -96 74h-94v209h237v-60h-173v-97q32 5 49 5q64 0 104.5 -34.5t40.5 -93.5z"></glyph><glyph glyph-name="uni2158" unicode="⅘" d="M340 372v-55h-56v-73h-61v73h-207v18l130 325h67l-116 -288h126v130h61v-130h56zM261 0l378 660h69l-378 -660h-69zM923 136q0 -64 -44 -103.5t-109 -39.5q-49 0 -86.5 24.5t-58.5 65.5l46 33q36 -62 98 -62q38 0 62 21.5t24 57.5q0 74 -96 74h-94v209h237v-60h-173v-97 q32 5 49 5q64 0 104.5 -34.5t40.5 -93.5z"></glyph><glyph glyph-name="uni2159" unicode="⅙" d="M47 244v60h105v296h-100v60h167v-356h90v-60h-262zM248 0l378 660h69l-378 -660h-69zM840 136q0 -60 -43 -101.5t-104 -41.5q-60 0 -102.5 41.5t-42.5 103.5q0 33 12 59.5t44 71.5l103 147h78l-99 -143q16 2 19 2q53 0 94 -40.5t41 -98.5zM773 136q0 35 -23 59.5 t-57 24.5t-56.5 -24.5t-22.5 -59.5q0 -36 22.5 -59t56.5 -23q35 0 57.5 23t22.5 59z"></glyph><glyph glyph-name="uni215A" unicode="⅚" d="M327 380q0 -64 -44 -103.5t-109 -39.5q-49 0 -86.5 24.5t-58.5 65.5l46 33q36 -62 98 -62q38 0 62 21.5t24 57.5q0 74 -96 74h-94v209h237v-60h-173v-97q32 5 49 5q64 0 104.5 -34.5t40.5 -93.5zM227 0l378 660h69l-378 -660h-69zM819 136q0 -60 -43 -101.5t-104 -41.5 q-60 0 -102.5 41.5t-42.5 103.5q0 33 12 59.5t44 71.5l103 147h78l-99 -143q16 2 19 2q53 0 94 -40.5t41 -98.5zM752 136q0 35 -23 59.5t-57 24.5t-56.5 -24.5t-22.5 -59.5q0 -36 22.5 -59t56.5 -23q35 0 57.5 23t22.5 59z"></glyph><glyph glyph-name="oneeighth" unicode="⅛" d="M47 244v60h105v296h-100v60h167v-356h90v-60h-262zM248 0l378 660h69l-378 -660h-69zM885 108q0 -52 -41.5 -83.5t-108.5 -31.5q-66 0 -107 31.5t-41 84.5q0 72 89 107q-70 36 -70 101q0 48 36 77t93 29q58 0 94.5 -29t36.5 -78q0 -64 -70 -100q89 -35 89 -108zM667 313 q0 -23 16 -38t53 -31q37 16 53 31.5t16 37.5q0 26 -19.5 41.5t-50.5 15.5q-30 0 -49 -15.5t-19 -41.5zM820 111q0 28 -20 45t-65 33q-44 -16 -63.5 -33t-19.5 -45q0 -29 22 -46.5t61 -17.5q40 0 62.5 17.5t22.5 46.5z"></glyph><glyph glyph-name="threeeighths" unicode="⅜" d="M314 378q0 -62 -43.5 -101.5t-106.5 -39.5q-97 0 -145 90l46 33q38 -62 97 -62q37 0 60.5 22t23.5 58q0 35 -24.5 54t-70.5 19h-41v18l97 131h-159v60h257v-19l-100 -135q47 -10 78 -43.5t31 -84.5zM214 0l378 660h69l-378 -660h-69zM851 108q0 -52 -41.5 -83.5 t-108.5 -31.5q-66 0 -107 31.5t-41 84.5q0 72 89 107q-70 36 -70 101q0 48 36 77t93 29q58 0 94.5 -29t36.5 -78q0 -64 -70 -100q89 -35 89 -108zM633 313q0 -23 16 -38t53 -31q37 16 53 31.5t16 37.5q0 26 -19.5 41.5t-50.5 15.5q-30 0 -49 -15.5t-19 -41.5zM786 111 q0 28 -20 45t-65 33q-44 -16 -63.5 -33t-19.5 -45q0 -29 22 -46.5t61 -17.5q40 0 62.5 17.5t22.5 46.5z"></glyph><glyph glyph-name="fiveeighths" unicode="⅝" d="M327 380q0 -64 -44 -103.5t-109 -39.5q-49 0 -86.5 24.5t-58.5 65.5l46 33q36 -62 98 -62q38 0 62 21.5t24 57.5q0 74 -96 74h-94v209h237v-60h-173v-97q32 5 49 5q64 0 104.5 -34.5t40.5 -93.5zM227 0l378 660h69l-378 -660h-69zM864 108q0 -52 -41.5 -83.5 t-108.5 -31.5q-66 0 -107 31.5t-41 84.5q0 72 89 107q-70 36 -70 101q0 48 36 77t93 29q58 0 94.5 -29t36.5 -78q0 -64 -70 -100q89 -35 89 -108zM646 313q0 -23 16 -38t53 -31q37 16 53 31.5t16 37.5q0 26 -19.5 41.5t-50.5 15.5q-30 0 -49 -15.5t-19 -41.5zM799 111 q0 28 -20 45t-65 33q-44 -16 -63.5 -33t-19.5 -45q0 -29 22 -46.5t61 -17.5q40 0 62.5 17.5t22.5 46.5z"></glyph><glyph glyph-name="seveneighths" unicode="⅞" d="M26 660h281v-19l-198 -397h-72l181 356h-192v60zM123 0l378 660h69l-378 -660h-69zM760 108q0 -52 -41.5 -83.5t-108.5 -31.5q-66 0 -107 31.5t-41 84.5q0 72 89 107q-70 36 -70 101q0 48 36 77t93 29q58 0 94.5 -29t36.5 -78q0 -64 -70 -100q89 -35 89 -108zM542 313 q0 -23 16 -38t53 -31q37 16 53 31.5t16 37.5q0 26 -19.5 41.5t-50.5 15.5q-30 0 -49 -15.5t-19 -41.5zM695 111q0 28 -20 45t-65 33q-44 -16 -63.5 -33t-19.5 -45q0 -29 22 -46.5t61 -17.5q40 0 62.5 17.5t22.5 46.5z"></glyph><glyph glyph-name="arrowleft" unicode="←" d="M597 281h-414l194 -194l-46 -46l-265 265v18l265 264l46 -45l-194 -194h414v-68z"></glyph><glyph glyph-name="arrowup" unicode="↑" d="M598 317l-46 -46l-191 189v-415h-71v416l-192 -190l-46 46l264 263h18z"></glyph><glyph glyph-name="arrowright" unicode="→" d="M319 588l265 -264v-18l-265 -265l-45 46l194 195l-415 -1v68h414l-193 194z"></glyph><glyph glyph-name="arrowdown" unicode="↓" d="M552 359l46 -46l-264 -264h-18l-264 264l46 46l192 -191v417h71v-416z"></glyph><glyph glyph-name="arrowboth" unicode="↔" d="M635 588l265 -264v-18l-265 -265l-46 46l194 194h-600l194 -194l-46 -46l-265 265v18l265 264l46 -45l-194 -194h600l-194 194z"></glyph><glyph glyph-name="arrowupdn" unicode="↕" d="M361 56l181 181l46 -46l-254 -254h-18l-254 254l46 46l182 -182v550l-182 -182l-46 46l254 254h18l254 -254l-46 -46l-181 181v-548z"></glyph><glyph glyph-name="uni2196" unicode="↖" d="M280 397l277 -277l-49 -48l-321 321v-280h-70v386l13 13h382v-67h-281z"></glyph><glyph glyph-name="uni2197" unicode="↗" d="M520 512l13 -13v-386h-70v279l-45 -44l-276 -276l-49 48l277 277l49 48h-281v67h382z"></glyph><glyph glyph-name="uni2198" unicode="↘" d="M463 497h70v-385l-13 -13h-382v66h281l-326 326l49 48l276 -276l45 -44v278z"></glyph><glyph glyph-name="uni2199" unicode="↙" d="M231 165h281v-66h-382l-13 13v385h70v-279l321 321l49 -48z"></glyph><glyph glyph-name="partialdiff" unicode="∂" d="M527 367q0 -165 -76.5 -272t-199.5 -107q-87 0 -146 53.5t-59 145.5q0 95 66 154.5t180 59.5q72 0 156 -21q-6 221 -157 221q-84 0 -143 -77l-52 42q30 49 81 77t116 28q109 0 171.5 -78.5t62.5 -225.5zM446 315q-82 19 -150 19q-84 0 -127.5 -40t-43.5 -104 q0 -60 37 -97t94 -37q78 0 129 70q50 70 61 189z"></glyph><glyph glyph-name="uni2206" unicode="∆" d="M346 671l277 -648v-23h-583v23l277 648h29zM520 70l-189 447l-188 -447h377z"></glyph><glyph glyph-name="product" unicode="∏" d="M91 -121v781h510v-781h-78v711h-354v-711h-78z"></glyph><glyph glyph-name="summation" unicode="∑" d="M185 -51h349v-70h-469v21l236 379l-236 360v21h457v-70h-334l196 -299v-21z"></glyph><glyph glyph-name="minus" unicode="−" d="M56 281v68h447v-68h-447z"></glyph><glyph glyph-name="uni2219" unicode="∙" d="M77 314q0 27 18.5 45t44.5 18t44.5 -18t18.5 -45t-18.5 -45t-44.5 -18t-44.5 18t-18.5 45z"></glyph><glyph glyph-name="radical" unicode="√" d="M641 750h85l-513 -883h-29v337h-157v69h232v-181z"></glyph><glyph glyph-name="infinity" unicode="∞" d="M790 313q0 -71 -50.5 -119.5t-126.5 -48.5q-59 0 -105.5 28.5t-97.5 86.5q-52 -58 -98.5 -86.5t-103.5 -28.5q-76 0 -125.5 48.5t-49.5 119.5t49.5 120t127.5 49q58 0 105.5 -28t95.5 -84q48 56 95 84t105 28q77 0 128 -49.5t51 -119.5zM364 315q-43 51 -76 73.5 t-72 22.5q-46 0 -75.5 -26.5t-29.5 -70.5t29.5 -71t75.5 -27q38 0 72 24t76 75zM711 314q0 44 -30 70.5t-76 26.5q-38 0 -71 -22.5t-77 -72.5q46 -53 78.5 -76.5t70.5 -23.5q46 0 75.5 27t29.5 71z"></glyph><glyph glyph-name="integral" unicode="∫" d="M5 -121v64l49 -2q105 0 105 122q0 37 -9 96q-3 24 -25 168q-36 216 -36 281q0 88 44.5 133.5t124.5 45.5q37 0 65 -7v-64l-49 2q-105 0 -105 -120q0 -30 7 -83l23 -156q17 -107 28 -195q10 -66 10 -113q0 -88 -44 -133.5t-123 -45.5q-37 0 -65 7z"></glyph><glyph glyph-name="approxequal" unicode="≈" d="M316 356l-94 57q-44 26 -61 26q-18 0 -28.5 -12.5t-10.5 -32.5v-29h-63l-1 37q0 45 26.5 76t68.5 31q41 0 84 -27l94 -57q42 -25 62 -25q18 0 28 12.5t10 31.5v29h63q0 -7 0.5 -16t1 -13.5t0.5 -7.5q0 -46 -26.5 -76t-70.5 -30q-39 0 -83 26zM316 143l-94 57 q-44 26 -61 26q-18 0 -28.5 -12.5t-10.5 -32.5v-29h-63l-1 37q0 45 26.5 76t68.5 31q41 0 84 -27l94 -57q42 -25 62 -25q18 0 28 12.5t10 31.5v29h63q0 -7 0.5 -16t1 -13.5t0.5 -7.5q0 -46 -26.5 -76t-70.5 -30q-39 0 -83 26z"></glyph><glyph glyph-name="notequal" unicode="≠" d="M494 384h-133l-88 -139h221v-68h-263l-70 -111h-72l70 111h-93v68h136l87 139h-223v69h267l67 107h71l-67 -107h90v-69z"></glyph><glyph glyph-name="lessequal" unicode="≤" d="M490 527v-73l-293 -110l293 -110v-73l-438 172v22zM62 0v68h428v-68h-428z"></glyph><glyph glyph-name="greaterequal" unicode="≥" d="M70 527l439 -172v-22l-439 -172v73l293 110l-293 110v73zM70 0v68h428v-68h-428z"></glyph><glyph glyph-name="uni24EA" unicode="⓪" d="M58 330q-2 114 56.5 214.5t159 159.5t214.5 57q114 2 214.5 -57t159.5 -159.5t57 -214.5q2 -114 -57 -214.5t-159.5 -159.5t-214.5 -57q-114 -2 -214.5 57t-159 159.5t-56.5 214.5zM857 330q3 151 -108 261.5t-261 107.5q-150 3 -260 -107.5t-107 -261.5 q-3 -152 107 -262t260 -107q98 -2 184 47.5t136.5 136t48.5 185.5zM321 333q0 105 43 166.5t124 61.5q82 0 126 -61.5t44 -166.5q0 -104 -43 -169q-43 -66 -127 -66t-126 66q-41 67 -41 169zM590 333q0 168 -102 168q-100 0 -100 -168q0 -175 100 -175q102 0 102 175z"></glyph><glyph glyph-name="uni24FF" unicode="⓿" d="M58 330q-2 114 56.5 214.5t159 159.5t214.5 57q114 2 214.5 -57t159.5 -159.5t57 -214.5q2 -114 -57 -214.5t-159.5 -159.5t-214.5 -57q-114 -2 -214.5 57t-159 159.5t-56.5 214.5zM659 333q0 105 -44 166.5t-127 61.5q-82 0 -125.5 -61.5t-43.5 -166.5q0 -103 42 -169 t127 -66q84 0 128 66q43 65 43 169zM392 333q0 164 96 164q98 0 98 -164q0 -171 -98 -171q-96 0 -96 171z"></glyph><glyph glyph-name="filledbox" unicode="■" d="M90 55v550h550v-550h-550z"></glyph><glyph glyph-name="uni25A1" unicode="□" d="M90 55v550h550v-550h-550zM168 126h394v408h-394v-408z"></glyph><glyph glyph-name="uni25AA" unicode="▪" d="M74 54v380h381v-380h-381z"></glyph><glyph glyph-name="uni25AB" unicode="▫" d="M74 54v380h381v-380h-381zM148 122h233v244h-233v-244z"></glyph><glyph glyph-name="triagup" unicode="▲" d="M28 55l-7 13l337 592h15l336 -592l-7 -13h-674z"></glyph><glyph glyph-name="uni25B3" unicode="△" d="M373 660l336 -592l-7 -13h-674l-7 13l337 592h15zM586 133l-221 388l-221 -388h442z"></glyph><glyph glyph-name="uni25B4" unicode="▴" d="M33 54l-7 13l232 406h15l231 -406l-7 -13h-464z"></glyph><glyph glyph-name="uni25B5" unicode="▵" d="M273 473l231 -406l-7 -13h-464l-7 13l232 406h15zM393 119l-128 226l-128 -226h256z"></glyph><glyph glyph-name="uni25B6" unicode="▶" d="M133 -11l-13 7v668l13 7l519 -334v-15z"></glyph><glyph glyph-name="uni25B7" unicode="▷" d="M133 671l519 -334v-15l-519 -333l-13 7v668zM524 329l-326 210v-418z"></glyph><glyph glyph-name="uni25B8" unicode="▸" d="M123 9l-13 7v457l13 7l356 -228v-15z"></glyph><glyph glyph-name="uni25B9" unicode="▹" d="M123 480l356 -228v-15l-356 -228l-13 7v457zM363 245l-182 115v-231z"></glyph><glyph glyph-name="triagrt" unicode="►" d="M113 -11l-13 7v668l13 7l828 -334v-15z"></glyph><glyph glyph-name="uni25BB" unicode="▻" d="M113 671l828 -334v-15l-828 -333l-13 7v668zM759 330l-581 234v-468z"></glyph><glyph glyph-name="triagdn" unicode="▼" d="M28 605h674l7 -13l-336 -592h-15l-337 592z"></glyph><glyph glyph-name="uni25BD" unicode="▽" d="M702 605l7 -13l-336 -592h-15l-337 592l7 13h674zM586 527h-442l221 -388z"></glyph><glyph glyph-name="uni25BE" unicode="▾" d="M258 15l-232 406l7 13h464l7 -13l-231 -406h-15z"></glyph><glyph glyph-name="uni25BF" unicode="▿" d="M497 434l7 -13l-231 -406h-15l-232 406l7 13h464zM393 368h-256l128 -226z"></glyph><glyph glyph-name="uni25C0" unicode="◀" d="M597 -11l-519 333v15l519 334l13 -7v-668z"></glyph><glyph glyph-name="uni25C1" unicode="◁" d="M597 671l13 -7v-668l-13 -7l-519 333v15zM532 539l-326 -210l326 -208v418z"></glyph><glyph glyph-name="uni25C2" unicode="◂" d="M407 9l-356 228v15l356 228l13 -7v-457z"></glyph><glyph glyph-name="uni25C3" unicode="◃" d="M407 480l13 -7v-457l-13 -7l-356 228v15zM349 360l-182 -115l182 -116v231z"></glyph><glyph glyph-name="triaglf" unicode="◄" d="M848 -11l-828 333v15l828 334l13 -7v-668z"></glyph><glyph glyph-name="uni25C5" unicode="◅" d="M848 671l13 -7v-668l-13 -7l-828 333v15zM783 96v468l-581 -234z"></glyph><glyph glyph-name="lozenge" unicode="◊" d="M347 671l213 -341l-213 -341h-29l-213 342l213 340h29zM334 104l142 226l-143 228l-143 -227z"></glyph><glyph glyph-name="circle" unicode="○" d="M36 329q-3 133 96.5 232.5t232.5 97.5q133 2 232 -97.5t96 -232.5q3 -133 -96 -232t-232 -96q-134 -2 -233 96.5t-96 231.5zM617 329q0 107 -73 182.5t-179 75.5t-179.5 -75.5t-73.5 -182.5t73.5 -181.5t179.5 -74.5q104 -2 179 74.5t73 181.5z"></glyph><glyph glyph-name="uni25CF" unicode="●" d="M36 329q-3 133 96.5 232.5t232.5 97.5q133 2 232 -97.5t96 -232.5q3 -133 -96 -232t-232 -96q-134 -2 -233 96.5t-96 231.5z"></glyph><glyph glyph-name="uni261C" unicode="☜" d="M1160 275v-27l-85 -73l47 -174l-25 -18l-223 144q-91 -48 -187 -78q-98 -29 -164 -29q-105 0 -105 69q0 23 15 39q-21 6 -34 21.5t-13 36.5q0 28 25 46q-36 17 -36 53q0 21 15 36l-195 6q-86 2 -124.5 23t-38.5 68q0 50 41.5 67.5t146.5 17.5q96 0 185 -10q0 42 24 66.5 t60 24.5q39 0 77 -23l238 -144q44 -14 67 -22l226 144l25 -16l-47 -176zM472 485q57 -7 147 -23l-84 51q-19 11 -31 11q-30 0 -32 -39zM854 182v158q-121 48 -302 77q-184 30 -346 30q-64 0 -86 -6t-22 -24q0 -16 19.5 -23.5t69.5 -9.5l135 -6l137 -6q27 -1 95 -4v-52l-97 2 q-10 0 -17 -6t-7 -15q0 -10 6 -16.5t16 -6.5h110v-51h-99q-9 0 -15 -6.5t-6 -16.5q0 -9 6 -15.5t15 -6.5h109v-52q-25 -3 -67 -3h-8q-24 0 -24 -22q0 -24 43 -24q53 0 155 29q102 31 180 76zM915 353v-184l125 -78l-31 108l77 63l-77 61l32 109z"></glyph><glyph glyph-name="uni261E" unicode="☞" d="M1178 418q0 -47 -38.5 -68t-124.5 -23l-194 -6q15 -15 15 -36q0 -37 -37 -53q25 -18 25 -46q0 -21 -13 -36.5t-34 -21.5q15 -16 15 -39q0 -69 -105 -69q-66 0 -165 29q-96 30 -186 78l-223 -144l-25 18l47 174l-85 73v27l85 72l-47 176l25 16l226 -144q23 8 67 22 l238 144q38 23 77 23q36 0 60 -24.5t24 -66.5q89 10 185 10q105 0 146.5 -17.5t41.5 -67.5zM675 513l-84 -51q90 16 147 23q-2 39 -32 39q-12 0 -31 -11zM1112 417q0 18 -22 24t-86 6q-161 0 -346 -30q-181 -29 -302 -77v-158q79 -46 179 -76q102 -29 156 -29q43 0 43 24 q0 22 -24 22h-8q-42 0 -67 3v52h109q9 0 15 6.5t6 15.5q0 10 -6 16.5t-15 6.5h-99v51h110q10 0 16 6.5t6 16.5q0 21 -24 21l-97 -2v52q68 3 95 4l137 6l135 6q52 2 70.5 9t18.5 24zM295 169v184l-126 79l32 -109l-77 -61l77 -63l-31 -108z"></glyph><glyph glyph-name="uni2661" unicode="♡" d="M806 475q0 -50 -24 -95q-23 -44 -84 -109l-261 -282h-15l-261 282q-61 65 -84 109q-24 45 -24 95q0 84 56.5 140t136.5 56q63 0 112 -35t71 -93q22 58 71.5 93t112.5 35q80 0 136.5 -56t56.5 -140zM725 480q0 52 -33 85.5t-84 33.5q-57 0 -97.5 -45t-62.5 -123h-37 q-22 78 -62.5 123t-98.5 45q-50 0 -83 -33.5t-33 -85.5q0 -39 20 -75.5t68 -87.5l208 -228l207 228q48 53 68 89t20 74z"></glyph><glyph glyph-name="heart" unicode="♥" d="M422 -11l-261 282q-61 65 -84 109q-24 45 -24 95q0 84 56.5 140t136.5 56q63 0 112 -35t71 -93q22 58 71.5 93t112.5 35q80 0 136.5 -56t56.5 -140q0 -50 -24 -95q-23 -44 -84 -109l-261 -282h-15z"></glyph><glyph glyph-name="uni275B" unicode="❛" d="M614 208q0 -89 -64 -153.5t-169 -64.5q-131 -3 -229 99t-96 240q-2 140 97.5 242.5t242.5 99.5q117 0 205 -70l-32 -51q-75 57 -169 57q-117 0 -196 -80t-79 -198q0 -107 62 -183q-9 30 -9 62q0 89 64.5 153.5t153.5 64.5t153.5 -64t64.5 -154z"></glyph><glyph glyph-name="uni275C" unicode="❜" d="M614 331q2 -140 -97.5 -242.5t-242.5 -99.5q-117 0 -205 70l32 51q75 -57 169 -57q117 0 196 80t79 198q0 107 -62 183q9 -30 9 -62q0 -89 -64.5 -153.5t-153.5 -64.5t-153.5 64t-64.5 154q0 89 64 153.5t169 64.5q131 3 229 -99t96 -240z"></glyph><glyph glyph-name="uni275D" unicode="❝" d="M1234 208q0 -89 -64 -153.5t-169 -64.5q-131 -3 -229 99t-96 240q-2 140 97.5 242.5t242.5 99.5q117 0 205 -70l-32 -51q-75 57 -169 57q-117 0 -196 -80t-79 -198q0 -107 62 -183q-9 30 -9 62q0 89 64.5 153.5t153.5 64.5t153.5 -64t64.5 -154zM614 208 q0 -89 -64 -153.5t-169 -64.5q-131 -3 -229 99t-96 240q-2 140 97.5 242.5t242.5 99.5q117 0 205 -70l-32 -51q-75 57 -169 57q-117 0 -196 -80t-79 -198q0 -107 62 -183q-9 30 -9 62q0 89 64.5 153.5t153.5 64.5t153.5 -64t64.5 -154z"></glyph><glyph glyph-name="uni275E" unicode="❞" d="M614 331q2 -140 -97.5 -242.5t-242.5 -99.5q-117 0 -205 70l32 51q75 -57 169 -57q117 0 196 80t79 198q0 107 -62 183q9 -30 9 -62q0 -89 -64.5 -153.5t-153.5 -64.5t-153.5 64t-64.5 154q0 89 64 153.5t169 64.5q131 3 229 -99t96 -240zM1234 331q2 -140 -97.5 -242.5 t-242.5 -99.5q-117 0 -205 70l32 51q75 -57 169 -57q117 0 196 80t79 198q0 107 -62 183q9 -30 9 -62q0 -89 -64.5 -153.5t-153.5 -64.5t-153.5 64t-64.5 154q0 89 64 153.5t169 64.5q131 3 229 -99t96 -240z"></glyph><glyph glyph-name="uni2776" unicode="❶" d="M58 330q-2 114 56.5 214.5t159 159.5t214.5 57q114 2 214.5 -57t159.5 -159.5t57 -214.5q2 -114 -57 -214.5t-159.5 -159.5t-214.5 -57q-114 -2 -214.5 57t-159 159.5t-56.5 214.5zM357 105h264v61h-93v388h-164v-61h93v-327h-100v-61z"></glyph><glyph glyph-name="uni2777" unicode="❷" d="M58 330q-2 114 56.5 214.5t159 159.5t214.5 57q114 2 214.5 -57t159.5 -159.5t57 -214.5q2 -114 -57 -214.5t-159.5 -159.5t-214.5 -57q-114 -2 -214.5 57t-159 159.5t-56.5 214.5zM329 105h323v61h-199l93 97q45 46 66 82.5t21 77.5q0 60 -41.5 99t-107.5 39 q-67 0 -110.5 -42.5t-43.5 -100.5q0 -18 5 -43h65q-4 21 -4 38q0 36 23.5 60t61.5 24q36 0 57.5 -22t21.5 -56q0 -29 -16.5 -57.5t-54.5 -68.5l-160 -172v-16z"></glyph><glyph glyph-name="uni2778" unicode="❸" d="M58 330q-2 114 56.5 214.5t159 159.5t214.5 57q114 2 214.5 -57t159.5 -159.5t57 -214.5q2 -114 -57 -214.5t-159.5 -159.5t-214.5 -57q-114 -2 -214.5 57t-159 159.5t-56.5 214.5zM640 249q0 56 -35 92.5t-89 43.5l113 149v20h-280v-63h172l-109 -143v-20h49 q104 0 104 -79q0 -39 -26 -63t-65 -24q-63 0 -107 68l-49 -36q24 -44 64.5 -70t92.5 -26q68 0 116.5 42.5t48.5 108.5z"></glyph><glyph glyph-name="uni2779" unicode="❹" d="M58 330q-2 114 56.5 214.5t159 159.5t214.5 57q114 2 214.5 -57t159.5 -159.5t57 -214.5q2 -114 -57 -214.5t-159.5 -159.5t-214.5 -57q-114 -2 -214.5 57t-159 159.5t-56.5 214.5zM526 105h70v78h61v63h-61v133h-70v-133h-139l126 308h-75l-138 -351v-20h226v-78z"></glyph><glyph glyph-name="uni277A" unicode="❺" d="M58 330q-2 114 56.5 214.5t159 159.5t214.5 57q114 2 214.5 -57t159.5 -159.5t57 -214.5q2 -114 -57 -214.5t-159.5 -159.5t-214.5 -57q-114 -2 -214.5 57t-159 159.5t-56.5 214.5zM649 250q0 67 -45 103q-44 37 -107 37q-37 0 -60 -4v105h188v63h-256v-226h102 q104 0 104 -79q0 -39 -26 -63.5t-67 -24.5q-63 0 -108 69l-50 -36q53 -97 161 -97q68 0 116 43t48 110z"></glyph><glyph glyph-name="uni277B" unicode="❻" d="M58 330q-2 114 56.5 214.5t159 159.5t214.5 57q114 2 214.5 -57t159.5 -159.5t57 -214.5q2 -114 -57 -214.5t-159.5 -159.5t-214.5 -57q-114 -2 -214.5 57t-159 159.5t-56.5 214.5zM638 252q0 54 -35 94.5t-87 48.5q-4 1 -18 1q-20 0 -36 -6l116 164h-84l-112 -158 q-35 -48 -48.5 -78t-13.5 -65q0 -66 46.5 -110.5t111.5 -44.5t112.5 44.5t47.5 109.5zM391 253q0 37 25 63t62 26t62.5 -25.5t25.5 -63.5t-25.5 -64.5t-62.5 -26.5t-62 26.5t-25 64.5z"></glyph><glyph glyph-name="uni277C" unicode="❼" d="M58 330q-2 114 56.5 214.5t159 159.5t214.5 57q114 2 214.5 -57t159.5 -159.5t57 -214.5q2 -114 -57 -214.5t-159.5 -159.5t-214.5 -57q-114 -2 -214.5 57t-159 159.5t-56.5 214.5zM358 106h78l217 429v20h-308v-65h213z"></glyph><glyph glyph-name="uni277D" unicode="❽" d="M58 330q-2 114 56.5 214.5t159 159.5t214.5 57q114 2 214.5 -57t159.5 -159.5t57 -214.5q2 -114 -57 -214.5t-159.5 -159.5t-214.5 -57q-114 -2 -214.5 57t-159 159.5t-56.5 214.5zM652 222q0 79 -99 118q78 38 78 106q0 53 -39.5 84t-102.5 31t-102.5 -31t-39.5 -84 q0 -70 79 -107q-100 -37 -100 -116q0 -57 45 -91t118 -34q72 0 117.5 34t45.5 90zM416 442q0 29 20 45.5t53 16.5t53 -16.5t20 -45.5q0 -26 -18 -43t-56 -30q-72 25 -72 73zM397 227q0 31 21 49t70 37q49 -19 70.5 -37.5t21.5 -49.5q0 -33 -24.5 -52t-66.5 -19 q-44 0 -68 19.5t-24 52.5z"></glyph><glyph glyph-name="uni277E" unicode="❾" d="M58 330q-2 114 57 214.5t159.5 159.5t214.5 57q114 2 214.5 -57t159 -159.5t56.5 -214.5q2 -114 -56.5 -214.5t-159 -159.5t-214.5 -57q-114 -2 -214.5 57t-159.5 159.5t-57 214.5zM400 106h83l112 158q35 48 48.5 78t13.5 65q0 66 -46.5 110.5t-111.5 44.5 q-66 0 -112.5 -44.5t-46.5 -109.5q0 -54 34.5 -94.5t86.5 -48.5q4 -1 18 -1q19 0 36 6zM411 407q0 38 25.5 64.5t62.5 26.5t62 -26.5t25 -64.5q0 -37 -25 -63t-62 -26t-62.5 25.5t-25.5 63.5z"></glyph><glyph glyph-name="uni2780" unicode="➀" d="M58 330q-2 114 56.5 214.5t159 159.5t214.5 57q114 2 214.5 -57t159.5 -159.5t57 -214.5q2 -114 -57 -214.5t-159.5 -159.5t-214.5 -57q-114 -2 -214.5 57t-159 159.5t-56.5 214.5zM851 330q2 151 -106 259t-257 105q-148 3 -256.5 -105.5t-105.5 -258.5 q-3 -150 105.5 -258.5t256.5 -105.5q149 -3 257 105t106 259zM357 105v61h100v327h-93v61h164v-388h93v-61h-264z"></glyph><glyph glyph-name="uni2781" unicode="➁" d="M58 330q-2 114 56.5 214.5t159 159.5t214.5 57q114 2 214.5 -57t159.5 -159.5t57 -214.5q2 -114 -57 -214.5t-159.5 -159.5t-214.5 -57q-114 -2 -214.5 57t-159 159.5t-56.5 214.5zM851 330q2 151 -106 259t-257 105q-148 3 -256.5 -105.5t-105.5 -258.5 q-3 -150 105.5 -258.5t256.5 -105.5q149 -3 257 105t106 259zM329 105v16l160 172q38 40 54.5 68.5t16.5 57.5q0 34 -21.5 56t-57.5 22q-38 0 -61.5 -24t-23.5 -60q0 -17 4 -38h-65q-5 25 -5 43q0 58 43.5 100.5t110.5 42.5q66 0 107.5 -39t41.5 -99q0 -41 -21 -77.5 t-66 -82.5l-93 -97h199v-61h-323z"></glyph><glyph glyph-name="uni2782" unicode="➂" d="M58 330q-2 114 56.5 214.5t159 159.5t214.5 57q114 2 214.5 -57t159.5 -159.5t57 -214.5q2 -114 -57 -214.5t-159.5 -159.5t-214.5 -57q-114 -2 -214.5 57t-159 159.5t-56.5 214.5zM851 330q2 151 -106 259t-257 105q-148 3 -256.5 -105.5t-105.5 -258.5 q-3 -150 105.5 -258.5t256.5 -105.5q149 -3 257 105t106 259zM318 194l49 36q44 -68 107 -68q39 0 65 24t26 63q0 79 -104 79h-49v20l109 143h-172v63h280v-20l-113 -149q54 -7 89 -43.5t35 -92.5q0 -66 -48.5 -108.5t-116.5 -42.5q-52 0 -92.5 26t-64.5 70z"></glyph><glyph glyph-name="uni2783" unicode="➃" d="M58 330q-2 114 56.5 214.5t159 159.5t214.5 57q114 2 214.5 -57t159.5 -159.5t57 -214.5q2 -114 -57 -214.5t-159.5 -159.5t-214.5 -57q-114 -2 -214.5 57t-159 159.5t-56.5 214.5zM851 330q2 151 -106 259t-257 105q-148 3 -256.5 -105.5t-105.5 -258.5 q-3 -150 105.5 -258.5t256.5 -105.5q149 -3 257 105t106 259zM526 105v78h-226v20l138 351h75l-126 -308h139v133h70v-133h61v-63h-61v-78h-70z"></glyph><glyph glyph-name="uni2784" unicode="➄" d="M58 330q-2 114 56.5 214.5t159 159.5t214.5 57q114 2 214.5 -57t159.5 -159.5t57 -214.5q2 -114 -57 -214.5t-159.5 -159.5t-214.5 -57q-114 -2 -214.5 57t-159 159.5t-56.5 214.5zM851 330q2 151 -106 259t-257 105q-148 3 -256.5 -105.5t-105.5 -258.5 q-3 -150 105.5 -258.5t256.5 -105.5q149 -3 257 105t106 259zM324 194l50 36q47 -69 108 -69q41 0 67.5 24.5t26.5 63.5q0 38 -27 58.5t-77 20.5h-103v226h257v-63h-188v-105q23 4 59 4q63 0 108.5 -37.5t45.5 -102.5q0 -67 -48.5 -110t-117.5 -43q-107 0 -161 97z"></glyph><glyph glyph-name="uni2785" unicode="➅" d="M58 330q-2 114 56.5 214.5t159 159.5t214.5 57q114 2 214.5 -57t159.5 -159.5t57 -214.5q2 -114 -57 -214.5t-159.5 -159.5t-214.5 -57q-114 -2 -214.5 57t-159 159.5t-56.5 214.5zM851 330q2 151 -106 259t-257 105q-148 3 -256.5 -105.5t-105.5 -258.5 q-3 -150 105.5 -258.5t256.5 -105.5q149 -3 257 105t106 259zM320 253q0 35 13.5 65t48.5 78l112 158h84l-116 -164q16 6 36 6q57 0 98.5 -42t41.5 -102q0 -65 -47.5 -109.5t-112.5 -44.5t-111.5 44.5t-46.5 110.5zM566 253q0 38 -25.5 63.5t-62.5 25.5t-62 -26t-25 -63 q0 -38 25 -64.5t62 -26.5t62.5 26.5t25.5 64.5z"></glyph><glyph glyph-name="uni2786" unicode="➆" d="M58 330q-2 114 56.5 214.5t159 159.5t214.5 57q114 2 214.5 -57t159.5 -159.5t57 -214.5q2 -114 -57 -214.5t-159.5 -159.5t-214.5 -57q-114 -2 -214.5 57t-159 159.5t-56.5 214.5zM851 330q2 151 -106 259t-257 105q-148 3 -256.5 -105.5t-105.5 -258.5 q-3 -150 105.5 -258.5t256.5 -105.5q149 -3 257 105t106 259zM357 106l200 384h-212v65h307v-20l-217 -429h-78z"></glyph><glyph glyph-name="uni2787" unicode="➇" d="M58 330q-2 114 56.5 214.5t159 159.5t214.5 57q114 2 214.5 -57t159.5 -159.5t57 -214.5q2 -114 -57 -214.5t-159.5 -159.5t-214.5 -57q-114 -2 -214.5 57t-159 159.5t-56.5 214.5zM851 330q2 151 -106 259t-257 105q-148 3 -256.5 -105.5t-105.5 -258.5 q-3 -150 105.5 -258.5t256.5 -105.5q149 -3 257 105t106 259zM326 223q0 79 100 116q-79 37 -79 107q0 53 39.5 84t102.5 31t102.5 -31t39.5 -84q0 -68 -78 -106q99 -39 99 -118q0 -56 -45.5 -90t-117.5 -34q-73 0 -118 34t-45 91zM562 442q0 29 -20 45.5t-53 16.5 t-53 -16.5t-20 -45.5q0 -48 72 -73q38 13 56 30t18 43zM580 226q0 31 -21.5 49.5t-70.5 37.5q-49 -19 -70 -37t-21 -49q0 -33 24 -52.5t68 -19.5q42 0 66.5 19t24.5 52z"></glyph><glyph glyph-name="uni2788" unicode="➈" d="M58 330q-2 114 57 214.5t159.5 159.5t214.5 57q114 2 214.5 -57t159 -159.5t56.5 -214.5q2 -114 -56.5 -214.5t-159 -159.5t-214.5 -57q-114 -2 -214.5 57t-159.5 159.5t-57 214.5zM851 330q3 150 -105.5 258.5t-256.5 105.5q-149 3 -257.5 -105.5t-105.5 -258.5 q-3 -150 105.5 -258.5t257.5 -105.5q148 -3 256.5 105.5t105.5 258.5zM400 106l115 164q-17 -6 -36 -6q-57 0 -98 42t-41 102q0 65 46.5 109.5t112.5 44.5q65 0 111.5 -44.5t46.5 -110.5q0 -35 -13.5 -65t-48.5 -78l-112 -158h-83zM586 407q0 38 -25 64.5t-62 26.5 t-62.5 -26.5t-25.5 -64.5t25.5 -63.5t62.5 -25.5t62 26t25 63z"></glyph><glyph glyph-name="uni27F5" unicode="⟵" d="M1164 282h-982l195 -195l-46 -46l-265 265v18l265 264l46 -45l-195 -195h982v-66z"></glyph><glyph glyph-name="uni27F6" unicode="⟶" d="M885 588l265 -264v-18l-265 -265l-45 46l195 196l-983 -1v66h982l-194 195z"></glyph><glyph glyph-name="uniF8FF" unicode="" d="M49 0v660h235l24 -285l7 -145h20l8 145l24 285h241v-660h-155v359h-21l-7 -108l-39 -251h-127l-37 251l-8 108h-21v-359h-144zM45 -168v132h566v-132h-566z"></glyph><glyph glyph-name="Iacute_J.loclNLD" d="M91 0v660h78v-660h-78zM101 724l85 186h94v-14l-120 -172h-59zM283 0v67q41 -6 72 -6q56 0 82.5 22.5t26.5 76.5v500h78v-507q0 -82 -45 -123t-127 -41q-37 0 -87 11zM465 724l85 186h94v-14l-120 -172h-59z"></glyph><glyph glyph-name="Cacute.loclPLK" d="M48 330q-3 141 99.5 242t243.5 99q87 0 159.5 -38t114.5 -104l-58 -46q-81 116 -215 116q-112 0 -187.5 -77t-75.5 -192t75.5 -192t187.5 -77q134 0 215 116l58 -46q-42 -66 -114.5 -104t-159.5 -38q-141 -2 -243.5 99t-99.5 242zM361 724l45 186h94v-14l-80 -172h-59z "></glyph><glyph glyph-name="Nacute.loclPLK" d="M539 660h78v-671h-28l-420 506v-495h-78v671h28l420 -507v496zM324 724l45 186h94v-14l-80 -172h-59z"></glyph><glyph glyph-name="Oacute.loclPLK" d="M48 330q-3 141 99 242t243 99q140 2 243 -99t100 -242q3 -141 -100 -242t-243 -99q-140 -3 -242.5 99t-99.5 242zM652 331q2 112 -75 191t-186 77q-112 0 -187 -76.5t-75 -191.5t75 -192.5t187 -77.5q109 -2 186 77.5t75 192.5zM361 724l45 186h94v-14l-80 -172h-59z"></glyph><glyph glyph-name="Sacute.loclPLK" d="M41 131l58 43q74 -113 184 -113q60 0 96.5 30t36.5 80q0 42 -23.5 63.5t-86.5 52.5l-74 35q-75 35 -112 75t-37 102q0 76 58 124t141 48q65 0 119.5 -30.5t87.5 -81.5l-57 -43q-56 83 -151 83q-50 0 -83.5 -26t-33.5 -70q0 -29 13 -48q12 -18 31 -30t62 -33l73 -35 q81 -40 117.5 -81t36.5 -103q0 -81 -60 -132.5t-153 -51.5q-76 0 -140 37.5t-103 104.5zM253 724l45 186h94v-14l-80 -172h-59z"></glyph><glyph glyph-name="Zacute.loclPLK" d="M154 70h401v-70h-523v23l398 567h-355v70h479v-23zM270 724l45 186h94v-14l-80 -172h-59z"></glyph><glyph glyph-name="Idotaccent.loclTRK" d="M91 0v660h78v-660h-78zM73 810q0 23 17 39.5t41 16.5q23 0 40 -16.5t17 -39.5q0 -24 -16.5 -40t-40.5 -16t-41 16t-17 40z"></glyph><glyph glyph-name="A.ordn" d="M338 244l-28 71h-186l-27 -71h-74l183 423h23l182 -423h-73zM289 369l-72 176l-73 -176h145z"></glyph><glyph glyph-name="O.ordn" d="M36 452q0 90 63.5 152.5t153.5 62.5t154 -62.5t64 -152.5t-64 -152.5t-154 -62.5t-153.5 62.5t-63.5 152.5zM402 452q0 66 -42.5 109t-105.5 43q-65 0 -107 -43q-41 -43 -41 -109t41 -110q42 -42 107 -42q63 0 105.5 43t42.5 109z"></glyph><glyph glyph-name="iacute_j.loclNLD" d="M85 0v487h77v-487h-77zM93 566l55 214h94v-14l-90 -200h-59zM186 -183v65q26 -3 45 -3q50 0 75 22t25 71v515h77v-520q0 -78 -42.5 -118t-117.5 -40q-32 0 -62 8zM340 566l55 214h94v-14l-90 -200h-59z"></glyph><glyph glyph-name="cacute.loclPLK" d="M50 244q-2 104 74 180t181 74q63 0 115 -28t86 -78l-55 -44q-58 79 -145 79q-75 0 -126 -53.5t-51 -129.5q0 -77 51 -130.5t126 -53.5q86 0 144 78l55 -43q-72 -106 -200 -106q-106 0 -180.5 74.5t-74.5 180.5zM273 566l45 214h94v-14l-80 -200h-59z"></glyph><glyph glyph-name="nacute.loclPLK" d="M488 306v-306h-77v297q0 58 -32.5 94t-88.5 36t-92 -36.5t-36 -93.5v-297h-77v487h72v-52q57 63 150 63q84 0 132.5 -52.5t48.5 -139.5zM254 566l45 214h94v-14l-80 -200h-59z"></glyph><glyph glyph-name="oacute.loclPLK" d="M50 244q-2 104 74.5 180t180.5 74q105 2 181 -74t74 -180q2 -103 -75 -179.5t-181 -74.5q-104 -2 -180 74.5t-74 179.5zM481 243q0 78 -50.5 131t-125.5 53t-125.5 -52.5t-50.5 -131.5q0 -77 50.5 -129.5t124.5 -52.5t125.5 53t51.5 129zM274 566l45 214h94v-14l-80 -200 h-59z"></glyph><glyph glyph-name="sacute.loclPLK" d="M39 84l49 51q38 -39 69.5 -57t70.5 -18q41 0 67 18.5t26 50.5q0 28 -18.5 43.5t-66.5 34.5l-47 20q-63 26 -92 57t-29 78q0 62 46.5 99t117.5 37q99 0 163 -77l-47 -48q-54 54 -120 54q-37 0 -59 -16t-22 -45q0 -23 16.5 -37.5t62.5 -33.5l45 -19q70 -30 99.5 -62.5 t29.5 -81.5q0 -68 -50 -106q-49 -37 -121 -37q-117 0 -190 95zM199 566l45 214h94v-14l-80 -200h-59z"></glyph><glyph glyph-name="zacute.loclPLK" d="M145 68h282v-68h-400v23l278 395h-255v69h374v-23zM206 566l45 214h94v-14l-80 -200h-59z"></glyph><glyph glyph-name="i.loclTRK.loclTRK" d="M85 0v487h77v-487h-77zM66 673q0 23 17 39.5t41 16.5q23 0 40 -16.5t17 -39.5q0 -24 -16.5 -40t-40.5 -16t-41 16t-17 40z"></glyph><glyph glyph-name="a.ss01" d="M475 487h73v-487h-77v71q-29 -39 -77 -60.5t-103 -21.5q-102 0 -171.5 73.5t-69.5 181.5q0 107 69 180.5t172 73.5q58 0 107 -23.5t77 -65.5v78zM472 244q0 87 -49.5 135t-120.5 48q-74 0 -123.5 -52.5t-49.5 -131.5t49.5 -131t123.5 -52q71 0 120.5 48t49.5 136z"></glyph><glyph glyph-name="y.ss01" d="M405 487h77v-464q0 -100 -59 -157t-153 -57q-120 0 -203 95l47 53q72 -76 153 -76q63 0 100.5 36t37.5 102v52q-54 -62 -148 -62q-84 0 -131 52.5t-47 140.5v285h76v-275q0 -60 32.5 -96t88.5 -36t92.5 36t36.5 93v278z"></glyph><glyph glyph-name="aacute.ss01" d="M475 487h73v-487h-77v71q-29 -39 -77 -60.5t-103 -21.5q-102 0 -171.5 73.5t-69.5 181.5q0 107 69 180.5t172 73.5q58 0 107 -23.5t77 -65.5v78zM472 244q0 87 -49.5 135t-120.5 48q-74 0 -123.5 -52.5t-49.5 -131.5t49.5 -131t123.5 -52q71 0 120.5 48t49.5 136z M283 566l85 214h94v-14l-120 -200h-59z"></glyph><glyph glyph-name="abreve.ss01" d="M475 487h73v-487h-77v71q-29 -39 -77 -60.5t-103 -21.5q-102 0 -171.5 73.5t-69.5 181.5q0 107 69 180.5t172 73.5q58 0 107 -23.5t77 -65.5v78zM472 244q0 87 -49.5 135t-120.5 48q-74 0 -123.5 -52.5t-49.5 -131.5t49.5 -131t123.5 -52q71 0 120.5 48t49.5 136z M158 731v31h63v-29q0 -46 24 -72.5t64 -26.5q41 0 65 26.5t24 72.5v29h63v-31q0 -71 -42 -114.5t-110 -43.5q-67 0 -109 44t-42 114z"></glyph><glyph glyph-name="acircumflex.ss01" d="M475 487h73v-487h-77v71q-29 -39 -77 -60.5t-103 -21.5q-102 0 -171.5 73.5t-69.5 181.5q0 107 69 180.5t172 73.5q58 0 107 -23.5t77 -65.5v78zM472 244q0 87 -49.5 135t-120.5 48q-74 0 -123.5 -52.5t-49.5 -131.5t49.5 -131t123.5 -52q71 0 120.5 48t49.5 136z M469 566h-58l-100 128l-101 -128h-59l136 214h47z"></glyph><glyph glyph-name="adieresis.ss01" d="M475 487h73v-487h-77v71q-29 -39 -77 -60.5t-103 -21.5q-102 0 -171.5 73.5t-69.5 181.5q0 107 69 180.5t172 73.5q58 0 107 -23.5t77 -65.5v78zM472 244q0 87 -49.5 135t-120.5 48q-74 0 -123.5 -52.5t-49.5 -131.5t49.5 -131t123.5 -52q71 0 120.5 48t49.5 136z M148 673q0 21 17 37.5t38 16.5q23 0 39.5 -16t16.5 -38t-16.5 -37.5t-39.5 -15.5q-21 0 -38 16t-17 37zM360 673q0 22 17 38t39 16q23 0 39 -16t16 -38t-16 -37.5t-39 -15.5q-22 0 -39 16t-17 37z"></glyph><glyph glyph-name="agrave.ss01" d="M475 487h73v-487h-77v71q-29 -39 -77 -60.5t-103 -21.5q-102 0 -171.5 73.5t-69.5 181.5q0 107 69 180.5t172 73.5q58 0 107 -23.5t77 -65.5v78zM472 244q0 87 -49.5 135t-120.5 48q-74 0 -123.5 -52.5t-49.5 -131.5t49.5 -131t123.5 -52q71 0 120.5 48t49.5 136z M281 566l-120 200v14h94l85 -214h-59z"></glyph><glyph glyph-name="amacron.ss01" d="M475 487h73v-487h-77v71q-29 -39 -77 -60.5t-103 -21.5q-102 0 -171.5 73.5t-69.5 181.5q0 107 69 180.5t172 73.5q58 0 107 -23.5t77 -65.5v78zM472 244q0 87 -49.5 135t-120.5 48q-74 0 -123.5 -52.5t-49.5 -131.5t49.5 -131t123.5 -52q71 0 120.5 48t49.5 136z M173 642v62h275v-62h-275z"></glyph><glyph glyph-name="aogonek.ss01" d="M475 487h73v-487h-77v71q-29 -39 -77 -60.5t-103 -21.5q-102 0 -171.5 73.5t-69.5 181.5q0 107 69 180.5t172 73.5q58 0 107 -23.5t77 -65.5v78zM472 244q0 87 -49.5 135t-120.5 48q-74 0 -123.5 -52.5t-49.5 -131.5t49.5 -131t123.5 -52q71 0 120.5 48t49.5 136z M369 -104q0 37 32 67q32 29 116 72l31 -35l-50 -33q-32 -22 -42 -32.5t-10 -26.5q0 -37 48 -37q23 0 54 7v-58q-36 -11 -72 -11q-48 0 -77.5 24t-29.5 63z"></glyph><glyph glyph-name="aring.ss01" d="M475 487h73v-487h-77v71q-29 -39 -77 -60.5t-103 -21.5q-102 0 -171.5 73.5t-69.5 181.5q0 107 69 180.5t172 73.5q58 0 107 -23.5t77 -65.5v78zM472 244q0 87 -49.5 135t-120.5 48q-74 0 -123.5 -52.5t-49.5 -131.5t49.5 -131t123.5 -52q71 0 120.5 48t49.5 136z M199 668q0 46 31.5 77t78.5 31t79 -31t32 -77t-32 -77.5t-79 -31.5q-46 0 -78 31.5t-32 77.5zM360 668q0 22 -15 37t-35 15q-21 0 -36 -15t-15 -37t14.5 -36t36.5 -14q21 0 35.5 14t14.5 36z"></glyph><glyph glyph-name="atilde.ss01" d="M475 487h73v-487h-77v71q-29 -39 -77 -60.5t-103 -21.5q-102 0 -171.5 73.5t-69.5 181.5q0 107 69 180.5t172 73.5q58 0 107 -23.5t77 -65.5v78zM472 244q0 87 -49.5 135t-120.5 48q-74 0 -123.5 -52.5t-49.5 -131.5t49.5 -131t123.5 -52q71 0 120.5 48t49.5 136z M314 622l-26 22q-1 1 -9 7t-11 8t-9.5 5t-12.5 3q-28 0 -28 -41v-17h-64q-1 6 -1 25q0 46 23.5 75t61.5 29q36 0 68 -26l26 -22q26 -23 42 -23q28 0 28 41v17h64q1 -6 1 -25q0 -46 -23.5 -75t-61.5 -29q-35 0 -68 26z"></glyph><glyph glyph-name="yacute.ss01" d="M405 487h77v-464q0 -100 -59 -157t-153 -57q-120 0 -203 95l47 53q72 -76 153 -76q63 0 100.5 36t37.5 102v52q-54 -62 -148 -62q-84 0 -131 52.5t-47 140.5v285h76v-275q0 -60 32.5 -96t88.5 -36t92.5 36t36.5 93v278zM251 566l85 214h94v-14l-120 -200h-59z"></glyph><glyph glyph-name="ycircumflex.ss01" d="M405 487h77v-464q0 -100 -59 -157t-153 -57q-120 0 -203 95l47 53q72 -76 153 -76q63 0 100.5 36t37.5 102v52q-54 -62 -148 -62q-84 0 -131 52.5t-47 140.5v285h76v-275q0 -60 32.5 -96t88.5 -36t92.5 36t36.5 93v278zM438 566h-58l-100 128l-101 -128h-59l136 214h47z "></glyph><glyph glyph-name="ydieresis.ss01" d="M405 487h77v-464q0 -100 -59 -157t-153 -57q-120 0 -203 95l47 53q72 -76 153 -76q63 0 100.5 36t37.5 102v52q-54 -62 -148 -62q-84 0 -131 52.5t-47 140.5v285h76v-275q0 -60 32.5 -96t88.5 -36t92.5 36t36.5 93v278zM117 673q0 21 17 37.5t38 16.5q23 0 39.5 -16 t16.5 -38t-16.5 -37.5t-39.5 -15.5q-21 0 -38 16t-17 37zM329 673q0 22 17 38t39 16q23 0 39 -16t16 -38t-16 -37.5t-39 -15.5q-22 0 -39 16t-17 37z"></glyph><glyph glyph-name="ygrave.ss01" d="M405 487h77v-464q0 -100 -59 -157t-153 -57q-120 0 -203 95l47 53q72 -76 153 -76q63 0 100.5 36t37.5 102v52q-54 -62 -148 -62q-84 0 -131 52.5t-47 140.5v285h76v-275q0 -60 32.5 -96t88.5 -36t92.5 36t36.5 93v278zM249 566l-120 200v14h94l85 -214h-59z"></glyph><glyph glyph-name="ordfeminine.ss01" d="M300 554h58v-309h-58v42q-38 -49 -109 -49q-66 0 -109.5 46t-43.5 115t43 115t109 46q72 0 110 -49v43zM296 399q0 49 -26.5 74.5t-69.5 25.5t-69.5 -27t-26.5 -72t27 -73t70 -28q42 0 68.5 25.5t26.5 74.5z"></glyph><glyph glyph-name="uni0414.loclBGR" d="M647 70h78v-211h-78v141h-542v-141h-78v211h79l257 601h27zM376 526l-190 -456h380z"></glyph><glyph glyph-name="uni041B.loclBGR" d="M632 0h-83l-218 518l-218 -518h-82l286 671h29z"></glyph><glyph glyph-name="uni0424.loclBGR" d="M438 19v-61h-78v61q-134 0 -223 89t-89 223q-2 131 88.5 221t223.5 89v60h78v-60q134 1 224.5 -88.5t88.5 -221.5q2 -133 -89 -223.5t-224 -88.5zM360 89v481q-101 0 -166 -68t-65 -173q0 -106 65 -173t166 -67zM670 329q0 105 -65.5 173t-166.5 68v-481q100 0 166 68 t66 172z"></glyph><glyph glyph-name="uni0432.loclBGR" d="M521 216q0 -102 -64.5 -164.5t-160.5 -62.5q-97 0 -157 58t-60 165v335q0 100 57 157t146 57q95 0 147.5 -54t52.5 -136q0 -56 -27 -100t-76 -67q65 -22 103.5 -71.5t38.5 -116.5zM156 547v-118h94q70 0 111.5 38.5t41.5 104.5q0 54 -33.5 86t-88.5 32q-58 0 -91.5 -36.5 t-33.5 -106.5zM442 216q0 66 -48 105.5t-127 39.5h-111v-146q0 -76 36.5 -115t99.5 -39q67 0 108.5 42t41.5 113z"></glyph><glyph glyph-name="uni0433.loclBGR" d="M54 128q0 50 31.5 83.5t97.5 61.5l45 19q44 18 61.5 35t17.5 41q0 28 -22 43.5t-58 15.5q-66 0 -116 -53l-51 47q63 77 162 77q74 0 119 -34.5t45 -99.5q0 -47 -30 -79.5t-91 -57.5l-47 -20q-47 -19 -66 -35.5t-19 -43.5q0 -32 25.5 -50t66.5 -18q72 0 141 75l49 -51 q-73 -95 -190 -95q-73 0 -122 36q-49 37 -49 103z"></glyph><glyph glyph-name="uni0434.loclBGR" d="M480 487h73v-440q0 -110 -64 -174t-173 -64q-135 0 -229 94l45 54q88 -77 182 -77q76 0 119 42.5t43 120.5v43q-29 -38 -77.5 -59.5t-103.5 -21.5q-103 0 -171 70t-68 176q0 105 68.5 176t170.5 71q58 0 107.5 -23.5t77.5 -65.5v78zM477 251q0 83 -49.5 128.5 t-120.5 45.5q-75 0 -124 -49.5t-49 -125.5q0 -77 49 -125.5t124 -48.5q72 0 121 45.5t49 129.5z"></glyph><glyph glyph-name="uni0436.loclBGR" d="M346 0v750h77v-750h-77zM39 487h96l201 -223l-222 -264h-94l223 264zM527 266l224 -266h-96l-222 264l201 223h95z"></glyph><glyph glyph-name="uni0437.loclBGR" d="M431 12q0 -85 -54.5 -144t-147.5 -59q-61 0 -115 27t-84 75l51 49q57 -80 144 -80q62 0 94.5 35.5t32.5 96.5q0 58 -39 93t-104 35h-68v68h69q53 0 85 31t32 80q0 48 -30 78t-80 30q-75 0 -127 -69l-51 48q63 92 180 92q85 0 136 -51t51 -127q0 -93 -82 -141 q50 -21 78.5 -66.5t28.5 -100.5z"></glyph><glyph glyph-name="uni0438.loclBGR" d="M405 487h77v-487h-72v53q-56 -64 -151 -64q-84 0 -132 52t-48 140v306h77v-298q0 -58 33 -94t88 -36t91 37q37 37 37 93v298z"></glyph><glyph glyph-name="uni0439.loclBGR" d="M405 487h77v-487h-72v53q-56 -64 -151 -64q-84 0 -132 52t-48 140v306h77v-298q0 -58 33 -94t88 -36t91 37q37 37 37 93v298zM132 731v31h65v-29q0 -49 22.5 -75.5t63.5 -26.5q42 0 64.5 26.5t22.5 75.5v29h65v-31q0 -71 -41.5 -114.5t-110.5 -43.5q-68 0 -109.5 43.5 t-41.5 114.5z"></glyph><glyph glyph-name="uni045D.loclBGR" d="M405 487h77v-487h-72v53q-56 -64 -151 -64q-84 0 -132 52t-48 140v306h77v-298q0 -58 33 -94t88 -36t91 37q37 37 37 93v298zM254 566l-120 200v14h94l85 -214h-59z"></glyph><glyph glyph-name="uni043A.loclBGR" d="M85 0v750h77v-750h-77zM263 273l230 -273h-99l-224 274l203 213h101z"></glyph><glyph glyph-name="uni043B.loclBGR" d="M513 0h-82l-161 367l-162 -367h-82l230 498h28z"></glyph><glyph glyph-name="uni043F.loclBGR" d="M488 306v-306h-77v297q0 58 -32.5 94t-88.5 36t-92 -36.5t-36 -93.5v-297h-77v487h72v-52q57 63 150 63q84 0 132.5 -52.5t48.5 -139.5z"></glyph><glyph glyph-name="uni0442.loclBGR" d="M796 306v-306h-77v296q0 60 -30.5 95.5t-84.5 35.5t-89.5 -36t-35.5 -88v-303h-77v296q0 59 -31.5 95t-84.5 36q-55 0 -89.5 -36.5t-34.5 -94.5v-296h-77v487h72v-51q54 62 145 62q106 0 150 -84q59 84 167 84q83 0 130 -52t47 -140z"></glyph><glyph glyph-name="uni0446.loclBGR" d="M482 68h80v-209h-77v141h-80v47q-56 -58 -146 -58q-84 0 -132 53.5t-48 144.5v300h77v-291q0 -62 32.5 -99t88.5 -37q55 0 91.5 36.5t36.5 92.5v298h77v-419z"></glyph><glyph glyph-name="uni0448.loclBGR" d="M713 487h77v-487h-72v51q-54 -62 -146 -62q-106 0 -150 84q-59 -84 -167 -84q-83 0 -129.5 52t-46.5 140v306h77v-297q0 -59 31 -94.5t84 -35.5q54 0 89.5 36t35.5 88v303h77v-297q0 -58 31.5 -94t84.5 -36q55 0 89.5 36.5t34.5 93.5v297z"></glyph><glyph glyph-name="uni0449.loclBGR" d="M790 68h80v-209h-77v141h-80v46q-55 -57 -141 -57q-106 0 -150 84q-59 -84 -167 -84q-83 0 -129.5 52t-46.5 140v306h77v-297q0 -59 31 -94.5t84 -35.5q54 0 89.5 36t35.5 88v303h77v-297q0 -58 31.5 -94t84.5 -36q55 0 89.5 36.5t34.5 93.5v297h77v-419z"></glyph><glyph glyph-name="uni044C.loclBGR" d="M463 164q0 -80 -52 -127.5t-139 -47.5t-140 50.5t-53 138.5v309h77v-156h116q89 0 140 -44.5t51 -122.5zM384 163q0 46 -31.5 73t-85.5 27h-111v-88q0 -55 30.5 -85.5t83.5 -30.5q52 0 83 28t31 76z"></glyph><glyph glyph-name="uni044A.loclBGR" d="M131 178v240h-111v69h188v-156h118q88 0 139 -45t51 -123q0 -80 -52 -127t-139 -47q-88 0 -141 50.5t-53 138.5zM437 162q0 46 -30.5 73t-86.5 27h-112v-87q0 -55 31 -85.5t84 -30.5q52 0 83 27.5t31 75.5z"></glyph><glyph glyph-name="uni044E.loclBGR" d="M749 244q2 -104 -73.5 -180t-177.5 -74q-98 0 -170 68t-78 167h-88v-225h-77v750h77v-457h91q17 89 86 147t160 58q102 2 177 -74t73 -180zM670 243q0 78 -49.5 131t-121.5 53q-74 0 -122.5 -53t-48.5 -131q0 -77 49 -129.5t121 -52.5q73 0 122.5 52.5t49.5 129.5z"></glyph><glyph glyph-name="uni0431.loclSRB" d="M560 244q2 -103 -75 -179.5t-181 -74.5q-104 -2 -180 74t-74 180q0 84 51 149t132 87q-74 31 -108.5 66t-34.5 82q0 55 38.5 88.5t105.5 33.5h277v-68h-277q-67 0 -67 -55q0 -28 25 -48.5t84 -45.5l119 -50q81 -35 123 -99.5t42 -139.5zM481 243q0 78 -50.5 131 t-125.5 53q-76 0 -126 -53t-50 -131q0 -77 50 -129.5t125 -52.5t126 52.5t51 129.5z"></glyph><glyph glyph-name="uni0430.ss01" d="M475 487h73v-487h-77v71q-29 -39 -77 -60.5t-103 -21.5q-102 0 -171.5 73.5t-69.5 181.5q0 107 69 180.5t172 73.5q58 0 107 -23.5t77 -65.5v78zM472 244q0 87 -49.5 135t-120.5 48q-74 0 -123.5 -52.5t-49.5 -131.5t49.5 -131t123.5 -52q71 0 120.5 48t49.5 136z"></glyph><glyph glyph-name="uni0434.ss01" d="M510 68h61v-209h-76v141h-391v-141h-77v209h63l196 430h28zM300 362l-129 -294h258z"></glyph><glyph glyph-name="uni0443.ss01" d="M405 487h77v-464q0 -100 -59 -157t-153 -57q-120 0 -203 95l47 53q72 -76 153 -76q63 0 100.5 36t37.5 102v52q-54 -62 -148 -62q-84 0 -131 52.5t-47 140.5v285h76v-275q0 -60 32.5 -96t88.5 -36t92.5 36t36.5 93v278z"></glyph><glyph glyph-name="uni045E.ss01" d="M405 487h77v-464q0 -100 -59 -157t-153 -57q-120 0 -203 95l47 53q72 -76 153 -76q63 0 100.5 36t37.5 102v52q-54 -62 -148 -62q-84 0 -131 52.5t-47 140.5v285h76v-275q0 -60 32.5 -96t88.5 -36t92.5 36t36.5 93v278zM137 731v31h65v-29q0 -49 22.5 -75.5t63.5 -26.5 q42 0 64.5 26.5t22.5 75.5v29h65v-31q0 -71 -41.5 -114.5t-110.5 -43.5q-68 0 -109.5 43.5t-41.5 114.5z"></glyph><glyph glyph-name="uni0444.ss01" d="M968 244q0 -108 -69.5 -181.5t-171.5 -73.5q-54 0 -102 21.5t-78 60.5l1 -251h-77v251q-29 -39 -77 -60.5t-103 -21.5q-102 0 -171.5 73.5t-69.5 181.5q0 107 69 180.5t172 73.5q55 0 103 -22t77 -61v335h77l-1 -334q29 38 77 60t103 22q104 0 172.5 -73t68.5 -181z M472 244q0 87 -49.5 135t-120.5 48q-74 0 -123.5 -52.5t-49.5 -131.5t49.5 -131t123.5 -52q72 0 121 48t49 136zM889 243q0 79 -49.5 131.5t-123.5 52.5q-70 0 -119.5 -48t-49.5 -135q0 -89 48.5 -136.5t120.5 -47.5q74 0 123.5 52t49.5 131z"></glyph><glyph glyph-name="uni04EF.ss01" d="M405 487h77v-464q0 -100 -59 -157t-153 -57q-120 0 -203 95l47 53q72 -76 153 -76q63 0 100.5 36t37.5 102v52q-54 -62 -148 -62q-84 0 -131 52.5t-47 140.5v285h76v-275q0 -60 32.5 -96t88.5 -36t92.5 36t36.5 93v278zM152 642v62h275v-62h-275z"></glyph><glyph glyph-name="uni04F3.ss01" d="M405 487h77v-464q0 -100 -59 -157t-153 -57q-120 0 -203 95l47 53q72 -76 153 -76q63 0 100.5 36t37.5 102v52q-54 -62 -148 -62q-84 0 -131 52.5t-47 140.5v285h76v-275q0 -60 32.5 -96t88.5 -36t92.5 36t36.5 93v278zM157 566l86 214h83v-14l-114 -200h-55zM356 566 l86 214h83v-14l-114 -200h-55z"></glyph><glyph glyph-name="Xi.ss01" d="M605 590h-243v-223h177v-68h-177v-229h243v-70h-565v70h244v229h-176v68h176v223h-244v70h565v-70z"></glyph><glyph glyph-name="xi.ss01" d="M451 -84q0 -50 -24 -96h-76q22 45 22 82q0 42 -21 63.5t-69 28.5l-43 7q-84 13 -132.5 66.5t-48.5 132.5q0 69 35.5 119t98.5 73q-47 24 -74 69.5t-27 102.5q0 87 57.5 142t147.5 55q60 0 112 -29t84 -80l-54 -44q-53 81 -136 81q-62 0 -97 -35t-35 -95t38.5 -98.5 t96.5 -38.5h104v-70h-119q-69 0 -111 -38.5t-42 -104.5q0 -114 145 -143l41 -8q127 -25 127 -142z"></glyph><glyph glyph-name="zero.osf" d="M50 266q-2 113 82 196.5t199 81.5q114 2 199 -81.5t83 -196.5q2 -113 -83 -196.5t-200 -81.5q-115 -2 -198.5 81.5t-81.5 196.5zM533 266q0 87 -58.5 147t-143.5 60q-86 0 -143.5 -59.5t-57.5 -147.5q0 -87 57.5 -147t143.5 -60q85 0 143.5 60t58.5 147z"></glyph><glyph glyph-name="one.osf" d="M78 0v68h152v394h-142v71h220v-465h141v-68h-371z"></glyph><glyph glyph-name="two.osf" d="M228 68h272v-68h-455v20l196 144l18 13q48 36 74 59q60 53 60 119q0 51 -32.5 85t-86.5 34q-55 0 -89.5 -34.5t-34.5 -84.5q0 -17 6 -52h-76q-8 30 -8 57q0 74 57.5 129t146.5 55q86 0 141.5 -52t55.5 -132q0 -66 -39.5 -119t-125.5 -115z"></glyph><glyph glyph-name="three.osf" d="M465 86q0 -97 -69 -158t-165 -61q-75 0 -132.5 36.5t-91.5 99.5l55 40q67 -105 168 -105q68 0 111.5 41t43.5 107q0 64 -44.5 100.5t-124.5 36.5h-60v23l168 216h-273v71h397v-23l-173 -221q78 -8 134 -62t56 -141z"></glyph><glyph glyph-name="four.osf" d="M527 68v-68h-97v-121h-77v121h-331v23l213 510h81l-196 -465h233v222h77v-222h97z"></glyph><glyph glyph-name="five.osf" d="M488 87q0 -97 -68 -158.5t-165 -61.5q-76 0 -135 36.5t-93 99.5l54 40q67 -105 173 -105q67 0 110.5 41.5t43.5 107.5q0 65 -44 100.5t-124 35.5h-150v310h362v-71h-285v-179q51 8 96 8q96 0 160.5 -53.5t64.5 -150.5z"></glyph><glyph glyph-name="six.osf" d="M500 211q0 -94 -65.5 -158t-159.5 -64t-159.5 64t-65.5 159q0 50 18 91q22 45 59 99q4 5 8.5 11.5t5.5 8.5l164 238h93l-168 -242q24 9 55 9q88 0 151.5 -63t63.5 -153zM423 211q0 62 -43 106t-105 44t-105 -44t-43 -106q0 -63 43 -107t105 -44t105 44t43 107z"></glyph><glyph glyph-name="seven.osf" d="M35 533h441v-23l-332 -631h-84l309 583h-334v71z"></glyph><glyph glyph-name="eight.osf" d="M520 168q0 -80 -63.5 -129.5t-167.5 -49.5t-168.5 50t-64.5 130q0 121 157 176q-126 58 -126 162q0 77 57 120q59 44 145 44q84 0 142 -44q58 -43 58 -120q0 -105 -126 -161q157 -58 157 -178zM288 382q66 26 95 53.5t29 68.5q0 46 -34 73t-89 27q-56 0 -90.5 -27 t-34.5 -73q0 -40 29 -67t95 -55zM441 171q0 49 -35.5 79t-116.5 59q-81 -29 -117.5 -59.5t-36.5 -78.5q0 -52 41 -83.5t113 -31.5t112 31t40 84z"></glyph><glyph glyph-name="nine.osf" d="M500 322q0 -54 -21 -96q-17 -38 -70 -114l-161 -233h-91l165 237q-26 -9 -57 -9q-87 0 -151 63t-64 152q0 94 66 158t160 64q91 2 158.5 -64t65.5 -158zM423 323q0 63 -42.5 107t-105.5 44q-62 0 -105 -44t-43 -107t43 -107t105 -44q63 0 105.5 44t42.5 107z"></glyph><glyph glyph-name="zero.osf.zero" d="M613 266q2 -113 -83 -196t-200 -81q-115 -2 -198.5 81t-81.5 196q-2 113 82 196.5t199 81.5q114 2 199 -81.5t83 -196.5zM166 145l288 288q-53 40 -123 40q-86 0 -143.5 -59.5t-57.5 -147.5q0 -68 36 -121zM533 266q0 70 -36 122l-287 -289q51 -39 121 -39 q85 0 143.5 59.5t58.5 146.5z"></glyph><glyph glyph-name="zero.tf" d="M49 336q0 153 58 244t173 91t173 -91t58 -244q0 -154 -58 -251q-57 -96 -173 -96t-174 96q-57 97 -57 251zM430 335q0 264 -150 264t-150 -264q0 -130 37.5 -202t112.5 -72t112.5 72t37.5 202z"></glyph><glyph glyph-name="one.tf" d="M344 70h175v-70h-449v70h196v502l-181 -49l-18 67l249 70h28v-590z"></glyph><glyph glyph-name="two.tf" d="M203 70h312v-70h-459v20l235 250q63 65 89 108t26 89q0 56 -35 94t-92 38q-60 0 -96 -40q-35 -41 -35 -96q0 -28 6 -55h-80q-7 25 -7 58q0 82 59 143.5t153 61.5q90 0 149 -57.5t59 -142.5q0 -66 -35 -122q-31 -50 -103 -125z"></glyph><glyph glyph-name="three.tf" d="M486 208q0 -97 -68 -158t-165 -61q-73 0 -131.5 37.5t-92.5 99.5l55 39q68 -104 168 -104q68 0 111 40.5t43 106.5q0 64 -44 100.5t-124 36.5h-64v22l174 223h-275v70h397v-23l-176 -225q78 -6 135 -60.5t57 -143.5z"></glyph><glyph glyph-name="four.tf" d="M520 191v-68h-88v-123h-78v123h-329v22l203 515h81l-185 -469h230v220h78v-220h88z"></glyph><glyph glyph-name="five.tf" d="M504 209q0 -97 -68 -158.5t-165 -61.5q-76 0 -134.5 36.5t-93.5 99.5l54 40q66 -104 173 -104q67 0 110.5 41t43.5 106t-44 100.5t-125 35.5h-148v316h361v-70h-284v-185q50 8 95 8q96 0 160.5 -53t64.5 -151z"></glyph><glyph glyph-name="six.tf" d="M505 211q0 -93 -66 -157.5t-159 -64.5q-94 0 -159.5 64t-65.5 159q0 53 19 92q20 40 60 99l13 19l164 238h91l-167 -242q24 9 56 9q86 2 151 -63t63 -153zM427 211q0 63 -42 106.5t-105 43.5t-105 -43.5t-42 -106.5t42 -107t105 -44t105 44t42 107z"></glyph><glyph glyph-name="seven.tf" d="M67 660h441v-23l-335 -637h-84l314 590h-336v70z"></glyph><glyph glyph-name="eight.tf" d="M511 168q0 -80 -63.5 -129.5t-167.5 -49.5t-167.5 50t-63.5 130q0 120 155 177q-124 57 -124 161q0 76 56 120q58 44 144 44q87 0 143 -44q57 -43 57 -120q0 -107 -125 -161q156 -59 156 -178zM280 382q65 26 94 53.5t29 68.5q0 45 -34 72.5t-89 27.5t-89 -27t-34 -73 q0 -41 28.5 -68t94.5 -54zM433 171q0 49 -35.5 79t-117.5 59q-80 -28 -116 -58.5t-36 -79.5q0 -53 39.5 -84t112.5 -31t113 31t40 84z"></glyph><glyph glyph-name="nine.tf" d="M505 448q0 -51 -20 -93q-21 -44 -60 -100l-12 -17l-164 -238h-91l167 242q-24 -9 -55 -9q-88 0 -151.5 63t-63.5 153q0 93 66 157.5t159 64.5q94 0 159.5 -64t65.5 -159zM427 450q0 64 -42 107t-105 43t-105 -43t-42 -107q0 -63 42 -107t105 -44t105 44t42 107z"></glyph><glyph glyph-name="zero.tf.zero" d="M511 336q0 -154 -58 -251q-57 -96 -173 -96t-174 96q-57 97 -57 251q0 153 58 244t173 91t173 -91t58 -244zM126 335q0 -53 8 -109l276 277q-37 100 -130 100q-154 0 -154 -268zM434 335q0 59 -7 97l-275 -275q39 -100 128 -100q77 0 115.5 73t38.5 205z"></glyph><glyph glyph-name="zero.tosf" d="M29 266q0 119 72 198.5t179 79.5t179 -80t72 -198q2 -116 -72 -197.5t-180 -79.5q-105 -2 -178.5 79t-71.5 198zM451 266q0 91 -47 149t-124 58q-79 0 -125 -58q-46 -56 -46 -149q0 -91 46 -149q47 -57 124 -57q78 0 125 58t47 148z"></glyph><glyph glyph-name="one.tosf" d="M63 0v68h195v394h-178v71h256v-465h178v-68h-451z"></glyph><glyph glyph-name="two.tosf" d="M219 68h276v-68h-455v20l196 145q55 41 83 66q70 63 70 130q0 49 -32.5 80.5t-86.5 31.5q-58 0 -91 -33.5t-33 -85.5q0 -19 5 -51h-76q-8 30 -8 57q0 74 57.5 129t146.5 55q85 0 141 -51.5t56 -130.5q-3 -70 -41.5 -119t-129.5 -117z"></glyph><glyph glyph-name="three.tosf" d="M486 86q0 -97 -68 -158t-165 -61q-75 0 -132.5 36.5t-91.5 99.5l55 40q66 -105 168 -105q68 0 111.5 41t43.5 107q0 64 -44.5 100.5t-124.5 36.5h-60v23l169 216h-274v71h397v-23l-173 -221q78 -8 133.5 -62t55.5 -141z"></glyph><glyph glyph-name="four.tosf" d="M514 68v-68h-88v-121h-78v121h-329v23l200 510h81l-182 -465h230v222h78v-222h88z"></glyph><glyph glyph-name="five.tosf" d="M504 87q0 -97 -68 -158.5t-164 -61.5q-76 0 -135 36.5t-93 99.5l53 40q67 -105 174 -105q67 0 111 42q44 41 44 107q0 65 -44.5 101t-125.5 36h-148v309h361v-71h-284v-179q50 8 94 8q96 0 160.5 -53t64.5 -151z"></glyph><glyph glyph-name="six.tosf" d="M505 211q0 -93 -66 -157.5t-159 -64.5q-94 0 -159.5 64t-65.5 159q0 53 19 92q20 40 60 99l13 19l164 238h91l-167 -242q24 9 56 9q86 2 151 -63t63 -153zM427 211q0 63 -42 106.5t-105 43.5t-105 -43.5t-42 -106.5t42 -107t105 -44t105 44t42 107z"></glyph><glyph glyph-name="seven.tosf" d="M67 533h441v-23l-332 -631h-83l310 583h-336v71z"></glyph></font>
</defs>
</svg>
