<?xml version="1.0" encoding="UTF-8" standalone="no"?> <svg xmlns="http://www.w3.org/2000/svg" xmlns:xlink="http://www.w3.org/1999/xlink" version="1.1"><metadata> Created by FontForge 20190801 at Thu May 24 21:11:38 2018 By Jimmy Wärting Copyright (c) 2015, 2018 by Jakob Runge, under exclusive license to TypeMates. All rights reserved. </metadata><defs><font id="CeraPro-Thin"><glyph glyph-name="fi" unicode="fi" d="M133 625v-145h131v-28h-131v-452h-30v452h-70v28h70v145q0 68 36 101.5t100 33.5q26 0 50 -6v-27q-32 5 -48 5q-108 0 -108 -107zM384 0v480h30v-480h-30zM365 666q0 14 10 24t24 10t24 -10t10 -24t-10 -24t-24 -10t-24 10t-10 24z"></glyph><glyph glyph-name="fl" unicode="fl" d="M133 625v-145h131v-28h-131v-452h-30v452h-70v28h70v145q0 68 36 101.5t100 33.5q26 0 50 -6v-27q-32 5 -48 5q-108 0 -108 -107zM384 0v750h30v-750h-30z"></glyph><glyph glyph-name=".notdef" d="M103 660h496v-660h-496v660zM569 28v604h-438z"></glyph><glyph glyph-name=".null"></glyph><glyph glyph-name="nonmarkingreturn"></glyph><glyph glyph-name="space" unicode=" "></glyph><glyph glyph-name="exclam" unicode="!" d="M121 182l-5 478h38l-5 -478h-28zM96 28q0 18 11 29t27 11t28 -11t12 -29q0 -17 -12 -27.5t-28 -10.5t-27 10.5t-11 27.5z"></glyph><glyph glyph-name="quotedbl" unicode="&quot;" d="M104 420l20 240h39l-33 -240h-26zM244 420l20 240h39l-33 -240h-26z"></glyph><glyph glyph-name="numbersign" unicode="#" d="M538 447h-95l-32 -234h105v-28h-109l-25 -185h-29l25 185h-227l-25 -185h-29l25 185h-91v28h95l31 234h-104v28h108l25 185h30l-25 -185h226l25 185h30l-25 -185h91v-28zM155 213h227l31 234h-226z"></glyph><glyph glyph-name="dollar" unicode="$" d="M282 22v-113h-31v114q-126 7 -204 137l26 17q67 -113 178 -124v279l-21 10q-69 32 -101 64.5t-32 85.5q0 59 43 97t111 44v118h31v-117q101 -4 166 -100l-24 -18q-57 83 -142 87v-251l35 -17q72 -35 106 -71t34 -89q0 -66 -50 -108q-49 -40 -125 -45zM245 369l6 -3v236 q-54 -6 -87 -33t-33 -75q2 -48 26.5 -71.5t87.5 -53.5zM423 174q0 45 -28.5 75t-92.5 59l-20 9v-265q63 3 102 36t39 86z"></glyph><glyph glyph-name="percent" unicode="%" d="M75 512q0 66 46 112t111 46t111.5 -46t46.5 -112t-46.5 -112t-111.5 -46t-111 46t-46 112zM209 0l381 660h31l-381 -660h-31zM358 512q0 55 -36 92t-90 37t-89.5 -37t-35.5 -92t35.5 -92t89.5 -37t90 37t36 92zM438 149q0 66 46 112t111 46t111.5 -46t46.5 -112 t-46.5 -112t-111.5 -46t-111 46t-46 112zM721 149q0 55 -36 92t-90 37t-89.5 -37t-35.5 -92t35.5 -92t89.5 -37t90 37t36 92z"></glyph><glyph glyph-name="ampersand" unicode="&amp;" d="M461 126l107 -126h-40l-86 102q-92 -112 -199 -112q-80 0 -135 47t-55 116q0 55 38 104t128 109q-47 56 -66 93.5t-19 77.5q0 59 36 96t94 37q57 0 94 -35.5t37 -90.5q0 -89 -133 -184l179 -210q30 40 84 128l18 28l26 -16q-72 -114 -108 -164zM166 537q0 -36 16 -68 q15 -30 62 -88q119 87 119 164q0 43 -27 68.5t-71 25.5q-46 0 -72.5 -27.5t-26.5 -74.5zM422 125l-186 220q-93 -72 -121 -107t-30 -83q0 -58 44 -96q46 -38 113 -38q96 0 180 104z"></glyph><glyph glyph-name="quotesingle" unicode="'" d="M104 420l20 240h39l-33 -240h-26z"></glyph><glyph glyph-name="parenleft" unicode="(" d="M87 299q0 189 54 290t132 140l12 -24q-69 -38 -118 -134q-49 -97 -49 -272t49 -272q49 -96 118 -134l-12 -24q-78 39 -132 140q-54 100 -54 290z"></glyph><glyph glyph-name="parenright" unicode=")" d="M42 -131l-12 24q69 38 118 134q49 97 49 272t-49 272q-49 96 -118 134l12 24q78 -39 132 -140t54 -290t-54 -290t-132 -140z"></glyph><glyph glyph-name="asterisk" unicode="*" d="M312 668l-99 -61l99 -61l-12 -21l-103 55l-3 -116h-24l-3 116l-103 -55l-12 21l99 61l-99 61l12 21l103 -55l3 116h24l3 -116l103 55z"></glyph><glyph glyph-name="plus" unicode="+" d="M265 91v204h-199v28h199v204h30v-204h198v-28h-198v-204h-30z"></glyph><glyph glyph-name="comma" unicode="," d="M107 -180l20 243h40l-32 -243h-28z"></glyph><glyph glyph-name="hyphen" unicode="-" d="M60 295v28h220v-28h-220z"></glyph><glyph glyph-name="period" unicode="." d="M101 28q0 18 11.5 29t26.5 11q16 0 28 -11t12 -29q0 -17 -12 -27.5t-28 -10.5t-27 10.5t-11 27.5z"></glyph><glyph glyph-name="slash" unicode="/" d="M10 -121l523 901h32l-523 -901h-32z"></glyph><glyph glyph-name="zero" unicode="0" d="M75 336q0 154 55 243q55 91 170 91q114 0 169 -91q56 -91 56 -243q0 -153 -55 -250q-54 -96 -170 -96t-171 96q-54 98 -54 250zM491 336q0 138 -46 220q-45 83 -145 83q-99 0 -146 -83q-45 -82 -45 -220q0 -142 46 -228q47 -87 145 -87t145 87q46 86 46 228z"></glyph><glyph glyph-name="one" unicode="1" d="M224 660h15v-660h-32v625l-159 -52l-8 27z"></glyph><glyph glyph-name="two" unicode="2" d="M106 29h380v-29h-437v12l241 246q66 69 96 115q32 50 32 106q0 67 -42.5 113.5t-114.5 46.5q-73 0 -118 -49t-45 -113q0 -30 8 -60h-34q-8 30 -8 61q0 77 54.5 134.5t140.5 57.5q84 0 138.5 -54.5t54.5 -134.5q0 -45 -18 -86t-46 -73q-37 -42 -77 -84z"></glyph><glyph glyph-name="three" unicode="3" d="M468 202q0 -96 -65 -154t-157 -58q-129 0 -211 125l24 18q72 -112 189 -112q82 0 134 51t52 131q0 78 -52 124t-142 46h-50v12l205 246h-320v29h373v-12l-207 -248q3 1 17 1q84 0 147 -52.5t63 -146.5z"></glyph><glyph glyph-name="four" unicode="4" d="M496 163v-29h-105v-134h-32v134h-333v12l225 514h33l-218 -497h293v252h32v-252h105z"></glyph><glyph glyph-name="five" unicode="5" d="M487 202q0 -95 -65 -153.5t-152 -58.5q-136 0 -217 124l23 18q72 -112 194 -112q79 0 131 51t52 131t-51.5 125.5t-143.5 45.5h-145v287h338v-29h-306v-231q59 3 114 3q98 0 163 -51t65 -150z"></glyph><glyph glyph-name="six" unicode="6" d="M482 200q0 -88 -60.5 -149t-150.5 -61t-150.5 61t-60.5 150q0 47 17 86.5t60 103.5l15 22l164 247h38l-191 -282q47 32 107 32q89 0 150.5 -61.5t61.5 -148.5zM450 199q0 77 -51.5 129.5t-127.5 52.5t-127.5 -52.5t-51.5 -129.5q0 -76 51.5 -128t127.5 -52t127.5 52 t51.5 128z"></glyph><glyph glyph-name="seven" unicode="7" d="M32 660h423v-12l-361 -648h-34l351 631h-379v29z"></glyph><glyph glyph-name="eight" unicode="8" d="M503 162q0 -76 -59.5 -124t-159.5 -48t-159.5 48t-59.5 125q0 126 181 186q-149 56 -149 166q0 72 53 113q54 42 134 42t133 -42q54 -40 54 -114q0 -113 -149 -164q87 -32 134 -76.5t47 -111.5zM284 364q80 29 117.5 63.5t37.5 86.5q0 57 -43.5 92t-111.5 35t-111.5 -35 t-43.5 -92q0 -52 37.5 -86.5t117.5 -63.5zM471 163q-3 67 -46 101t-141 69q-98 -35 -141 -69t-46 -101q0 -65 50.5 -104.5t136.5 -39.5q87 0 137 39.5t50 104.5z"></glyph><glyph glyph-name="nine" unicode="9" d="M482 459q0 -47 -17 -86.5t-60 -103.5l-15 -22l-164 -247h-38l191 282q-47 -32 -107 -32q-89 0 -150.5 61.5t-61.5 148.5q0 88 60.5 149t150.5 61t150.5 -61t60.5 -150zM450 461q0 76 -51.5 128t-127.5 52t-127.5 -52t-51.5 -128q0 -77 51.5 -129.5t127.5 -52.5 t127.5 52.5t51.5 129.5z"></glyph><glyph glyph-name="colon" unicode=":" d="M101 442q0 18 11.5 29t26.5 11q16 0 28 -11t12 -29q0 -17 -12 -27.5t-28 -10.5t-27 10.5t-11 27.5zM101 28q0 18 11.5 29t26.5 11q16 0 28 -11t12 -29q0 -17 -12 -27.5t-28 -10.5t-27 10.5t-11 27.5z"></glyph><glyph glyph-name="semicolon" unicode=";" d="M101 442q0 18 11.5 29t26.5 11q16 0 28 -11t12 -29q0 -17 -12 -27.5t-28 -10.5t-27 10.5t-11 27.5zM107 -180l20 243h40l-32 -243h-28z"></glyph><glyph glyph-name="less" unicode="&lt;" d="M480 490v-31l-360 -149l360 -149v-31l-417 174v12z"></glyph><glyph glyph-name="equal" unicode="=" d="M76 395v28h407v-28h-407zM76 194v28h407v-28h-407z"></glyph><glyph glyph-name="greater" unicode="&gt;" d="M80 490l417 -174v-12l-417 -174v31l360 149l-360 149v31z"></glyph><glyph glyph-name="question" unicode="?" d="M177 224q0 32 17.5 59.5t64.5 71.5q57 56 74.5 82.5t20.5 72.5q0 57 -37 94t-92 37q-48 0 -83.5 -29t-51.5 -82l-28 10q18 59 61 94.5t101 35.5q68 0 115 -46t47 -113q0 -35 -14 -65q-13 -28 -32.5 -50t-60.5 -61q-41 -38 -55.5 -60t-14.5 -51q0 -18 7 -42h-30 q-9 20 -9 42zM169 29q0 17 11.5 28t27.5 11t27.5 -11t11.5 -28t-11.5 -28t-27.5 -11t-27.5 11t-11.5 28z"></glyph><glyph glyph-name="at" unicode="@" d="M616 42h-6v91q-20 -45 -67 -73t-102 -28q-84 0 -141.5 60.5t-57.5 147.5t57.5 147t141.5 60q55 0 102 -28t67 -73v93h29v-368q80 6 128 65t48 153q2 136 -101 234.5t-251 95.5q-155 3 -266 -105t-108 -260q-3 -152 109 -261t267 -106q79 0 144 27l9 -26q-72 -30 -156 -30 q-166 -3 -287 116t-118 281q-2 106 53 197.5t149 144.5t202 51q159 3 274 -104.5t112 -252.5q0 -111 -64.5 -180t-166.5 -69zM609 240q0 86 -48 132t-118 46q-74 0 -121.5 -51t-47.5 -127t47.5 -127.5t121.5 -51.5q70 0 118 46t48 133z"></glyph><glyph glyph-name="A" unicode="A" d="M587 0l-73 175h-364l-72 -175h-33l280 670h15l280 -670h-33zM332 614l-170 -410h340z"></glyph><glyph glyph-name="B" unicode="B" d="M560 187q0 -83 -54.5 -135t-148.5 -52h-254v660h222q80 0 125 -43t45 -113q0 -99 -89 -138q73 -12 113.5 -60t40.5 -119zM322 632l-187 -1v-257h187q67 0 103.5 35t36.5 94t-35.5 94.5t-104.5 34.5zM527 186q0 71 -46 115t-126 44h-220v-316h220q80 0 126 43.5t46 113.5z "></glyph><glyph glyph-name="C" unicode="C" d="M57 330q-2 141 97 242t237 98q79 0 147 -34t114 -95l-24 -19q-88 117 -236 117q-126 2 -214.5 -88.5t-86.5 -219.5q-2 -129 86.5 -220.5t214.5 -89.5q148 0 236 117l24 -19q-46 -61 -114 -95t-147 -34q-137 -3 -236.5 98.5t-97.5 241.5z"></glyph><glyph glyph-name="D" unicode="D" d="M103 0v660h179q168 0 263.5 -91.5t95.5 -237.5q0 -145 -95.5 -238t-263.5 -93h-179zM135 29h147q151 0 238 85.5t87 216.5q0 132 -86.5 216t-238.5 84h-147v-602z"></glyph><glyph glyph-name="E" unicode="E" d="M103 0v660h406v-29h-374v-257h294v-29h-294v-316h386v-29h-418z"></glyph><glyph glyph-name="F" unicode="F" d="M103 0v660h396v-29h-364v-276h304v-29h-304v-326h-32z"></glyph><glyph glyph-name="G" unicode="G" d="M57 330q-2 141 97 242t237 98q79 0 147 -34t114 -95l-24 -19q-88 117 -236 117q-126 2 -214.5 -88.5t-86.5 -219.5q-3 -129 86 -220.5t216 -89.5q82 0 149.5 37t106.5 102v126h-258v30h290v-161q-44 -78 -121.5 -121.5t-168.5 -43.5q-138 -3 -237 98t-97 242z"></glyph><glyph glyph-name="H" unicode="H" d="M103 0v660h32v-286h434v286h32v-660h-32v345h-434v-345h-32z"></glyph><glyph glyph-name="I" unicode="I" d="M103 0v660h32v-660h-32z"></glyph><glyph glyph-name="J" unicode="J" d="M30 0v29q46 -8 77 -8q119 0 119 114v525h32v-525q0 -73 -39.5 -109t-110.5 -36q-38 0 -78 10z"></glyph><glyph glyph-name="K" unicode="K" d="M103 0v660h32v-660h-32zM198 359l360 -359h-43l-361 359l337 301h45z"></glyph><glyph glyph-name="L" unicode="L" d="M103 0v660h32v-631h334v-29h-366z"></glyph><glyph glyph-name="M" unicode="M" d="M664 670h15v-670h-32v585l-248 -364h-15l-249 364v-585h-32v670h15l273 -402z"></glyph><glyph glyph-name="N" unicode="N" d="M569 660h32v-670h-15l-451 601v-591h-32v670h15l451 -606v596z"></glyph><glyph glyph-name="O" unicode="O" d="M57 330q-2 141 97 242t237 98q137 2 237.5 -99t98.5 -241q2 -140 -98.5 -241.5t-237.5 -98.5q-137 -3 -236.5 98.5t-97.5 241.5zM693 331q2 127 -87 218.5t-214 89.5q-125 2 -214 -89t-87 -219q-2 -129 86.5 -220.5t214.5 -89.5q125 -2 214 90t87 220z"></glyph><glyph glyph-name="P" unicode="P" d="M103 0v660h219q88 0 139 -48.5t51 -125.5q0 -78 -51 -126.5t-139 -48.5h-187v-311h-32zM135 340h185q76 0 117.5 40t41.5 105q0 66 -42 106t-117 40h-185v-291z"></glyph><glyph glyph-name="Q" unicode="Q" d="M1027 -154v-27q-51 -9 -98 -9q-239 0 -394 212q-69 -32 -144 -32q-137 -3 -236.5 98.5t-97.5 241.5q-2 141 97 242t237 98q137 2 237.5 -99t98.5 -241q0 -93 -44.5 -171t-121.5 -123q146 -197 367 -197q47 0 99 7zM392 21q126 -2 214.5 89.5t86.5 220.5q2 128 -86.5 219 t-214.5 89q-126 2 -214.5 -88.5t-86.5 -219.5q-2 -129 86.5 -220.5t214.5 -89.5z"></glyph><glyph glyph-name="R" unicode="R" d="M585 0h-39l-234 311h-177v-311h-32v660h219q88 0 139 -48.5t51 -125.5q0 -71 -43 -118.5t-118 -55.5zM135 631v-291h185q76 0 117.5 40t41.5 105q0 66 -42 106t-117 40h-185z"></glyph><glyph glyph-name="S" unicode="S" d="M50 129l24 18q80 -126 210 -126q72 0 117.5 37.5t45.5 100.5q0 55 -27 84t-104 67l-76 36q-46 22 -74 40q-69 45 -69 128q0 73 53 114q54 42 133 42q123 0 191 -100l-24 -19q-64 88 -165 88q-61 0 -108 -30q-46 -30 -46 -93q3 -55 29 -81.5t95 -60.5l76 -36 q80 -38 115 -77t35 -102q0 -75 -56.5 -122t-141.5 -47q-148 0 -233 139z"></glyph><glyph glyph-name="T" unicode="T" d="M276 0v631h-249v29h530v-29h-249v-631h-32z"></glyph><glyph glyph-name="U" unicode="U" d="M92 252v408h32v-408q0 -108 58.5 -169.5t157.5 -61.5q98 0 156 61.5t58 169.5v408h32v-408q0 -121 -66.5 -191.5t-179.5 -70.5q-115 0 -181.5 70.5t-66.5 191.5z"></glyph><glyph glyph-name="V" unicode="V" d="M587 660h33l-280 -670h-15l-280 670h33l255 -611z"></glyph><glyph glyph-name="W" unicode="W" d="M989 660h33l-240 -670h-15l-228 619l-229 -619h-15l-240 670h33l215 -610l228 620h15l228 -620z"></glyph><glyph glyph-name="X" unicode="X" d="M539 0h-37l-212 313l-213 -313h-37l232 340l-215 320h37l197 -295l194 295h37l-213 -321z"></glyph><glyph glyph-name="Y" unicode="Y" d="M551 660l-230 -374v-286h-32v286l-230 374h34l212 -347l212 347h34z"></glyph><glyph glyph-name="Z" unicode="Z" d="M91 29h459v-29h-508v12l458 619h-414v29h463v-12z"></glyph><glyph glyph-name="bracketleft" unicode="[" d="M112 -131v860h165v-28h-135v-804h135v-28h-165z"></glyph><glyph glyph-name="backslash" unicode="\" d="M533 -121l-523 901h32l523 -901h-32z"></glyph><glyph glyph-name="bracketright" unicode="]" d="M60 -131v28h135v804h-135v28h165v-860h-165z"></glyph><glyph glyph-name="asciicircum" unicode="^" d="M424 292h-33l-144 322l-145 -322h-33l170 378h15z"></glyph><glyph glyph-name="underscore" unicode="_" d="M50 -112v28h400v-28h-400z"></glyph><glyph glyph-name="grave" unicode="`" d="M340 562l-107 213v5h37l96 -218h-26z"></glyph><glyph glyph-name="a" unicode="a" d="M425 305v-305h-30v85q-26 -45 -73.5 -70t-105.5 -25q-68 0 -116 33t-48 94q0 57 44.5 90.5t119.5 33.5h179v65q0 75 -39 115t-106 40q-88 0 -151 -84l-22 18q71 95 175 95q79 0 126 -48.5t47 -136.5zM395 175v38h-178q-63 0 -98 -25t-35 -69q0 -47 38 -73.5t95 -26.5 q73 0 125.5 45.5t52.5 110.5z"></glyph><glyph glyph-name="b" unicode="b" d="M575 240q0 -103 -69.5 -176.5t-170.5 -73.5q-67 0 -124 34t-82 91v-115h-30v750h30v-385q25 57 82 91t124 34q101 0 170.5 -73t69.5 -177zM543 240q0 94 -59 157.5t-149 63.5q-87 0 -146.5 -57.5t-59.5 -163.5t59.5 -163.5t146.5 -57.5q89 0 148.5 64t59.5 157z"></glyph><glyph glyph-name="c" unicode="c" d="M60 240q0 104 71.5 177t174.5 73q118 0 192 -95l-22 -18q-65 84 -170 84q-90 0 -152 -64t-62 -157t61.5 -157t151.5 -64q106 0 171 84l22 -18q-74 -95 -193 -95q-100 -2 -173.5 73.5t-71.5 176.5z"></glyph><glyph glyph-name="d" unicode="d" d="M506 750h30v-750h-30v115q-25 -57 -82 -91t-124 -34q-101 0 -170.5 73.5t-69.5 176.5q0 104 69.5 177t170.5 73q67 0 124 -34t82 -91v385zM506 240q0 106 -59.5 163.5t-146.5 57.5q-90 0 -149 -63.5t-59 -157.5q0 -93 59.5 -157t148.5 -64q87 0 146.5 57.5t59.5 163.5z "></glyph><glyph glyph-name="e" unicode="e" d="M510 237h-418q0 -92 62 -155t151 -63q106 0 171 84l22 -18q-34 -45 -85 -70t-108 -25q-101 0 -173 73.5t-72 176.5t70.5 176.5t169.5 73.5q89 0 151 -58.5t62 -153.5q0 -17 -3 -41zM93 265h388q6 87 -48.5 141.5t-134.5 54.5t-138.5 -56.5t-66.5 -139.5z"></glyph><glyph glyph-name="f" unicode="f" d="M133 625v-145h131v-28h-131v-452h-30v452h-70v28h70v145q0 68 36 101.5t100 33.5q26 0 50 -6v-27q-32 5 -48 5q-108 0 -108 -107z"></glyph><glyph glyph-name="g" unicode="g" d="M513 480h30v-440q0 -105 -63.5 -167.5t-163.5 -62.5q-64 0 -121.5 25.5t-95.5 68.5l21 20q34 -39 86.5 -62t109.5 -23q89 0 143 53.5t54 147.5v82q-25 -54 -82.5 -88t-124.5 -34q-98 -2 -169.5 72t-69.5 173q-2 99 69.5 173t169.5 72q67 0 124.5 -34t82.5 -88v112z M513 245q0 103 -60 159.5t-145 56.5q-90 0 -149.5 -62.5t-59.5 -153.5t59.5 -153.5t149.5 -62.5q86 0 145.5 56.5t59.5 159.5z"></glyph><glyph glyph-name="h" unicode="h" d="M460 305v-305h-30v305q0 70 -39.5 113t-105.5 43q-68 0 -112 -44t-44 -112v-305h-30v750h30v-347q49 87 157 87q80 0 127 -51t47 -134z"></glyph><glyph glyph-name="i" unicode="i" d="M99 0v480h30v-480h-30zM80 666q0 14 10 24t24 10t24 -10t10 -24t-10 -24t-24 -10t-24 10t-10 24z"></glyph><glyph glyph-name="j" unicode="j" d="M-57 -184v27q32 -5 48 -5q108 0 108 107v535h30v-535q0 -68 -36 -101.5t-100 -33.5q-26 0 -50 6zM80 666q0 14 10 24t24 10t24 -10t10 -24t-10 -24t-24 -10t-24 10t-10 24z"></glyph><glyph glyph-name="k" unicode="k" d="M99 0v750h30v-750h-30zM189 269l254 -269h-40l-255 270l229 210h43z"></glyph><glyph glyph-name="l" unicode="l" d="M99 0v750h30v-750h-30z"></glyph><glyph glyph-name="m" unicode="m" d="M769 305v-305h-30v305q0 70 -37 113t-101 43q-65 0 -108.5 -43.5t-43.5 -103.5v-314h-30v305q0 71 -37 113.5t-102 42.5t-109 -44q-42 -43 -42 -112v-305h-30v480h30v-75q47 85 152 85q115 0 154 -103q22 47 65 75t101 28q79 0 123.5 -50t44.5 -135z"></glyph><glyph glyph-name="n" unicode="n" d="M460 305v-305h-30v305q0 70 -39.5 113t-105.5 43q-68 0 -112 -44t-44 -112v-305h-30v480h30v-77q49 87 157 87q80 0 127 -51t47 -134z"></glyph><glyph glyph-name="o" unicode="o" d="M60 240q-2 103 71.5 177.5t174.5 72.5q101 2 175 -72.5t72 -177.5q0 -104 -72.5 -177t-175.5 -73q-100 -2 -173.5 72.5t-71.5 177.5zM521 240q0 93 -62.5 157t-152.5 64q-91 0 -152.5 -63.5t-61.5 -157.5t61.5 -157.5t151.5 -63.5q91 0 153.5 64.5t62.5 156.5z"></glyph><glyph glyph-name="p" unicode="p" d="M575 240q0 -104 -69.5 -177t-170.5 -73q-67 0 -124 34t-82 91v-295h-30v660h30v-115q25 57 82 91t124 34q101 0 170.5 -73.5t69.5 -176.5zM543 240q0 93 -59.5 157t-148.5 64q-87 0 -146.5 -57.5t-59.5 -163.5t59.5 -163.5t146.5 -57.5q90 0 149 63.5t59 157.5z"></glyph><glyph glyph-name="q" unicode="q" d="M506 480h30v-660h-30v295q-25 -57 -82 -91t-124 -34q-101 0 -170.5 73t-69.5 177q0 103 69.5 176.5t170.5 73.5q67 0 124 -34t82 -91v115zM506 240q0 106 -59.5 163.5t-146.5 57.5q-89 0 -148.5 -64t-59.5 -157q0 -94 59 -157.5t149 -63.5q87 0 146.5 57.5t59.5 163.5z "></glyph><glyph glyph-name="r" unicode="r" d="M323 480v-25h-23q-66 0 -118.5 -46.5t-52.5 -118.5v-290h-30v480h30v-92q24 45 68 69.5t98 24.5q6 0 28 -2z"></glyph><glyph glyph-name="s" unicode="s" d="M52 95l24 18q66 -94 158 -94q53 0 86.5 25.5t33.5 71.5q-3 43 -26 64t-83 48l-42 19q-61 27 -89 54t-28 70q0 55 43 86q43 33 103 33q89 0 151 -77l-22 -20q-57 68 -131 68q-48 0 -80 -23.5t-32 -65.5q1 -17 6.5 -29.5t9.5 -19.5t21.5 -17.5t25 -14t38.5 -18.5l45 -20 q62 -27 92 -57t30 -78q0 -60 -45 -94q-44 -34 -109 -34q-112 0 -180 105z"></glyph><glyph glyph-name="t" unicode="t" d="M323 27v-27q-36 -10 -71 -10q-62 0 -98.5 34t-36.5 101v327h-86v28h86v140h30v-140h160v-28h-160v-327q0 -107 107 -107q28 0 69 9z"></glyph><glyph glyph-name="u" unicode="u" d="M91 175v305h30v-305q0 -71 42.5 -113.5t108.5 -42.5q65 0 107.5 42.5t42.5 113.5v305h30v-305q0 -82 -51.5 -133.5t-128.5 -51.5t-129 51t-52 134z"></glyph><glyph glyph-name="v" unicode="v" d="M449 480h33l-215 -490h-15l-216 490h33l190 -437z"></glyph><glyph glyph-name="w" unicode="w" d="M772 480h33l-186 -490h-15l-184 439l-183 -439h-15l-186 490h33l160 -432l184 442h15l184 -442z"></glyph><glyph glyph-name="x" unicode="x" d="M437 0h-37l-167 228l-166 -228h-37l184 252l-168 228h37l150 -204l151 204h37l-169 -228z"></glyph><glyph glyph-name="y" unicode="y" d="M449 480h33l-243 -568q-44 -102 -139 -102q-32 0 -64 9v27q40 -8 62 -8q78 0 115 87l34 81l-211 474h33l194 -435z"></glyph><glyph glyph-name="z" unicode="z" d="M83 28h327v-28h-372v12l322 440h-299v28h344v-12z"></glyph><glyph glyph-name="braceleft" unicode="{" d="M186 600q0 -39 16 -116q14 -76 14 -102q0 -66 -63 -83q63 -16 63 -83q0 -25 -14 -101q-16 -77 -16 -116q0 -53 25 -77.5t76 -24.5h46v-28h-46q-131 0 -131 128q0 34 17 125q13 65 13 93q0 70 -70 70h-56v28h56q70 0 70 69q0 28 -13 94q-17 94 -17 127q0 126 131 126h46 v-28h-46q-51 0 -76 -24t-25 -77z"></glyph><glyph glyph-name="bar" unicode="|" d="M151 -121v901h30v-901h-30z"></glyph><glyph glyph-name="braceright" unicode="}" d="M277 313h56v-28h-56q-70 0 -70 -70q0 -28 13 -93q17 -91 17 -125q0 -128 -131 -128h-46v28h46q51 0 76 24.5t25 77.5q0 39 -16 116q-14 76 -14 101q0 67 63 83q-63 17 -63 83q0 26 14 102q16 77 16 116q0 53 -25 77t-76 24h-46v28h46q131 0 131 -126q0 -33 -17 -127 q-13 -66 -13 -94q0 -69 70 -69z"></glyph><glyph glyph-name="asciitilde" unicode="~" d="M320 267l-99 60q-41 24 -65 24q-21 0 -33.5 -14t-12.5 -36v-31h-29q0 10 -0.5 20t-0.5 11q0 32 20 55t54 23t85 -31l99 -60q41 -24 65 -24q21 0 33.5 14t12.5 36v31h29q0 -10 0.5 -20t0.5 -11q0 -32 -20 -55t-54 -23t-85 31z"></glyph><glyph glyph-name="uni00A0" unicode=" "></glyph><glyph glyph-name="exclamdown" unicode="¡" d="M96 452q0 17 11 27.5t27 10.5t28 -10.5t12 -27.5t-12 -28.5t-28 -11.5t-27 11t-11 29zM116 -180l5 478h28l5 -478h-38z"></glyph><glyph glyph-name="cent" unicode="¢" d="M454 193l22 -18q-70 -90 -183 -95v-171h-31v172q-92 5 -159 79.5t-65 169.5q-2 95 65 169.5t159 79.5v172h31v-171q113 -5 183 -95l-22 -18q-61 80 -161 84v-442q100 4 161 84zM262 110v440q-82 -7 -137 -70.5t-55 -149.5t55 -149t137 -71z"></glyph><glyph glyph-name="sterling" unicode="£" d="M141 28h308v-28h-381v12q134 72 134 194q0 25 -7 53h-117v28h108q-8 19 -33 69q-28 54 -38.5 85t-10.5 67q0 72 47 117t123 45q68 0 114.5 -38.5t68.5 -110.5l-31 -10q-40 129 -153 129q-62 0 -98.5 -37.5t-36.5 -96.5q0 -48 45 -136q27 -52 37 -83h163v-28h-155 q6 -24 6 -52q0 -55 -25 -101.5t-68 -77.5z"></glyph><glyph glyph-name="currency" unicode="¤" d="M495 183l137 -137l-19 -20l-137 137q-63 -58 -148 -58q-81 0 -144 55l-129 -134l-20 19l130 135q-55 63 -55 150q0 88 54 150l-129 134l19 20l130 -134q61 55 145 55t147 -57l136 136l20 -20l-137 -137q53 -64 53 -147t-53 -147zM516 330q0 83 -54 140t-133 57t-133 -57 t-54 -140t53.5 -139.5t132.5 -56.5q80 0 134 57t54 139z"></glyph><glyph glyph-name="yen" unicode="¥" d="M274 339h207v-28h-207v-121h207v-28h-207v-162h-32v162h-206v28h206v121h-206v28h206l-230 321h34l212 -295l212 295h34z"></glyph><glyph glyph-name="brokenbar" unicode="¦" d="M151 480v300h30v-300h-30zM151 -121v300h30v-300h-30z"></glyph><glyph glyph-name="section" unicode="§" d="M376 52q5 -20 5 -35q0 -54 -36 -89.5t-93 -35.5q-85 0 -140 78l23 17q47 -66 117 -66q43 0 70 27t27 69q0 34 -20 62t-67 63l-90 68q-72 55 -103 93q-29 38 -29 82q0 52 36 87.5t96 39.5q-5 20 -5 35q0 54 36 89.5t93 35.5q85 0 140 -78l-23 -17q-47 66 -117 66 q-43 0 -70 -27t-27 -69q0 -34 20 -62t67 -63l90 -68q68 -51 101 -90q31 -37 31 -85q0 -52 -36 -87.5t-96 -39.5zM476 176q0 64 -96 137l-97 74q-77 59 -99 97q-48 0 -80 -27t-32 -69q0 -34 23 -65.5t73 -71.5l90 -69q80 -62 105 -102q49 0 81 27t32 69z"></glyph><glyph glyph-name="dieresis" unicode="¨" d="M170 666q0 14 10 24t24 10t24 -10t10 -24t-10 -24t-24 -10t-24 10t-10 24zM361 666q0 14 10 24t24 10t24 -10t10 -24t-10 -24t-24 -10t-24 10t-10 24z"></glyph><glyph glyph-name="copyright" unicode="©" d="M57 330q-2 141 97 242t237 98q137 2 237.5 -99t98.5 -241q2 -140 -98.5 -241.5t-237.5 -98.5q-137 -3 -236.5 98.5t-97.5 241.5zM696 331q2 127 -88 219.5t-216 90.5q-127 2 -216.5 -90t-87.5 -220q-2 -129 88 -221.5t216 -90.5q126 -2 216 90.5t88 221.5zM201 330 q0 83 58 142t140 59q95 0 154 -77l-21 -18q-53 66 -133 66q-71 0 -118.5 -49.5t-47.5 -122.5q0 -71 48 -121t117 -50q82 0 134 65l21 -17q-59 -77 -155 -77q-81 0 -139 59t-58 141z"></glyph><glyph glyph-name="ordfeminine" unicode="ª" d="M282 435v-191h-29v49q-36 -55 -110 -55q-46 0 -75 22t-29 60q0 37 29 58.5t77 21.5h107v36q0 43 -23 66t-63 23q-51 0 -93 -50l-19 19q47 60 114 60q52 0 83 -31.5t31 -87.5zM252 355v19h-105q-76 0 -76 -54q0 -27 21 -41t55 -14q45 0 75 25.5t30 64.5z"></glyph><glyph glyph-name="guillemotleft" unicode="«" d="M209 91l-163 172v12l163 172l22 -20l-147 -158l147 -160zM358 91l-163 172v12l163 172l22 -20l-147 -158l147 -160z"></glyph><glyph glyph-name="logicalnot" unicode="¬" d="M433 89v206h-367v28h397v-234h-30z"></glyph><glyph glyph-name="uni00AD" unicode="­" d="M60 295v28h220v-28h-220z"></glyph><glyph glyph-name="registered" unicode="®" d="M517 435q0 -95 -69 -163.5t-164 -68.5q-94 0 -163 69t-69 163q0 95 68.5 164t163.5 69t164 -69t69 -164zM488 435q0 85 -59.5 144.5t-144.5 59.5t-144 -59.5t-59 -144.5q0 -84 59.5 -143.5t143.5 -59.5t144 60t60 143zM324 419l85 -109h-38l-81 104h-61v-104h-30l-1 251 h94q37 0 60 -20.5t23 -52.5q0 -25 -13.5 -43.5t-37.5 -25.5zM228 441h63q24 0 38.5 12.5t14.5 33.5t-14.5 34t-38.5 13h-63v-93z"></glyph><glyph glyph-name="overscore" unicode="¯" d="M174 653v28h252v-28h-252z"></glyph><glyph glyph-name="degree" unicode="°" d="M38 529q0 59 41.5 100t100.5 41q58 0 100 -41.5t42 -99.5q0 -59 -41.5 -100t-100.5 -41t-100.5 41t-41.5 100zM290 529q0 47 -32 79q-32 33 -78 33t-78 -33q-32 -32 -32 -79q0 -46 32 -80q32 -32 78 -32t78 32q32 34 32 80z"></glyph><glyph glyph-name="plusminus" unicode="±" d="M265 121v189h-189v28h189v189h30v-189h188v-28h-188v-189h-30zM76 0v28h407v-28h-407z"></glyph><glyph glyph-name="uni00B2" unicode="²" d="M93 392h225v-28h-281v9l152 156q41 41 59 71.5t18 62.5q0 40 -26 67t-67 27q-43 0 -69.5 -28.5t-26.5 -69.5q0 -16 3 -34h-30q-4 13 -4 36q0 51 35.5 88t91.5 37q54 0 89.5 -34.5t35.5 -86.5q0 -40 -20 -72.5t-69 -82.5z"></glyph><glyph glyph-name="uni00B3" unicode="³" d="M305 493q0 -61 -42 -98t-101 -37q-88 0 -136 81l23 16q44 -68 114 -68q48 0 79 29.5t31 76.5q0 46 -31 72.5t-86 26.5h-35v10l122 150h-191v28h241v-10l-124 -151q54 0 95 -33t41 -93z"></glyph><glyph glyph-name="acute" unicode="´" d="M233 562l96 218h37v-5l-107 -213h-26z"></glyph><glyph glyph-name="uni00B5" unicode="µ" d="M552 27v-27q-17 -4 -35 -4q-75 0 -86 82q-46 -88 -152 -88q-102 0 -150 86v-256h-30v660h30v-296q0 -72 42.5 -118.5t107.5 -46.5q66 0 108 46q43 46 43 119v296h30v-374q0 -82 61 -82q11 0 31 3z"></glyph><glyph glyph-name="paragraph" unicode="¶" d="M45 457q0 91 65 147t165 56h61v-410h-61q-99 0 -164.5 58t-65.5 149zM214 -180v28q44 -9 67 -9q111 0 111 118v703h30v-703q0 -147 -138 -147q-34 0 -70 10z"></glyph><glyph glyph-name="middot" unicode="·" d="M101 308q0 18 11.5 29t26.5 11q16 0 28 -11t12 -29q0 -17 -12 -27.5t-28 -10.5t-27 10.5t-11 27.5z"></glyph><glyph glyph-name="cedilla" unicode="¸" d="M211 -180v27q41 -9 62 -9q37 0 60 20t23 57q0 45 -51 85l9 13q74 -32 74 -100q0 -44 -31 -73.5t-81 -29.5q-32 0 -65 10z"></glyph><glyph glyph-name="uni00B9" unicode="¹" d="M51 364v28h112v360h-112v28h143v-388h100v-28h-243z"></glyph><glyph glyph-name="ordmasculine" unicode="º" d="M45 396q0 66 46 112t111 46t111.5 -46t46.5 -112t-46.5 -112t-111.5 -46t-111 46t-46 112zM328 396q0 55 -36 92t-90 37t-89.5 -37t-35.5 -92t35.5 -92t89.5 -37t90 37t36 92z"></glyph><glyph glyph-name="guillemotright" unicode="»" d="M69 91l-22 18l147 160l-147 158l22 20l163 -172v-12zM218 91l-22 18l147 160l-147 158l22 20l163 -172v-12z"></glyph><glyph glyph-name="onequarter" unicode="¼" d="M51 244v28h112v360h-112v28h143v-388h100v-28h-243zM248 0l381 660h31l-381 -660h-31zM830 110v-28h-64v-82h-31v82h-209v10l140 324h32l-132 -306h169v151h31v-151h64z"></glyph><glyph glyph-name="onehalf" unicode="½" d="M51 244v28h112v360h-112v28h143v-388h100v-28h-243zM248 0l381 660h31l-381 -660h-31zM625 28h225v-28h-281v9l152 156q41 41 59 71.5t18 62.5q0 40 -26 67t-67 27q-43 0 -69.5 -28.5t-26.5 -69.5q0 -16 3 -34h-30q-4 13 -4 36q0 51 35.5 88t91.5 37q54 0 89.5 -34.5 t35.5 -86.5q0 -40 -20 -72.5t-69 -82.5z"></glyph><glyph glyph-name="threequarters" unicode="¾" d="M305 373q0 -61 -42 -98t-101 -37q-88 0 -136 81l23 16q44 -68 114 -68q48 0 79 29.5t31 76.5q0 46 -31 72.5t-86 26.5h-35v10l122 150h-191v28h241v-10l-124 -151q54 0 95 -33t41 -93zM222 0l381 660h31l-381 -660h-31zM804 110v-28h-64v-82h-31v82h-209v10l140 324h32 l-132 -306h169v151h31v-151h64z"></glyph><glyph glyph-name="questiondown" unicode="¿" d="M192 452q0 17 11.5 27.5t27.5 10.5t27.5 -10.5t11.5 -27.5t-11.5 -28.5t-27.5 -11.5t-27.5 11.5t-11.5 28.5zM54 -31q0 35 14 65q13 28 32.5 50t60.5 61q41 38 55.5 60t14.5 51q0 20 -7 42h30q9 -20 9 -42q0 -32 -17.5 -59.5t-64.5 -71.5q-57 -56 -74.5 -82.5 t-20.5 -72.5q0 -57 37 -94t92 -37q48 0 83.5 29t51.5 82l28 -10q-18 -59 -61 -94.5t-101 -35.5q-68 0 -115 46t-47 113z"></glyph><glyph glyph-name="Agrave" unicode="À" d="M587 0l-73 175h-364l-72 -175h-33l280 670h15l280 -670h-33zM332 614l-170 -410h340zM320 724l-107 181v5h37l96 -186h-26z"></glyph><glyph glyph-name="Aacute" unicode="Á" d="M587 0l-73 175h-364l-72 -175h-33l280 670h15l280 -670h-33zM332 614l-170 -410h340zM319 724l96 186h37v-5l-107 -181h-26z"></glyph><glyph glyph-name="Acircumflex" unicode="Â" d="M587 0l-73 175h-364l-72 -175h-33l280 670h15l280 -670h-33zM332 614l-170 -410h340zM486 724h-27l-126 146l-127 -146h-27l146 186h15z"></glyph><glyph glyph-name="Atilde" unicode="Ã" d="M587 0l-73 175h-364l-72 -175h-33l280 670h15l280 -670h-33zM332 614l-170 -410h340zM344 783l-39 26q-32 21 -50 21q-36 0 -36 -45v-21h-29q-1 4 -1 19q0 33 17.5 54t45.5 21q26 0 70 -29l39 -26q32 -21 50 -21q36 0 36 45v21h29q1 -4 1 -19q0 -33 -17.5 -54t-45.5 -21 q-26 0 -70 29z"></glyph><glyph glyph-name="Adieresis" unicode="Ä" d="M587 0l-73 175h-364l-72 -175h-33l280 670h15l280 -670h-33zM332 614l-170 -410h340zM188 806q0 14 10 24t24 10t24 -10t10 -24t-10 -24t-24 -10t-24 10t-10 24zM409 806q0 14 10 24t24 10t24 -10t10 -24t-10 -24t-24 -10t-24 10t-10 24z"></glyph><glyph glyph-name="Aring" unicode="Å" d="M587 0l-73 175h-364l-72 -175h-33l280 670h15l280 -670h-33zM332 614l-170 -410h340zM235 813q0 40 28.5 68.5t69.5 28.5t69.5 -28.5t28.5 -68.5t-28.5 -68.5t-69.5 -28.5t-69.5 28.5t-28.5 68.5zM401 813q0 29 -19.5 49t-48.5 20t-48.5 -20t-19.5 -49t19.5 -49t48.5 -20 t48.5 20t19.5 49z"></glyph><glyph glyph-name="AE" unicode="Æ" d="M509 29h247v-29h-276l-31 176h-304l-91 -176h-34l344 660h380v-29h-343l46 -257h217v-29h-212zM371 615l-211 -410h284z"></glyph><glyph glyph-name="Ccedilla" unicode="Ç" d="M57 330q-2 141 97 242t237 98q79 0 147 -34t114 -95l-24 -19q-88 117 -236 117q-126 2 -214.5 -88.5t-86.5 -219.5q-2 -129 86.5 -220.5t214.5 -89.5q148 0 236 117l24 -19q-46 -61 -114 -95t-147 -34q-137 -3 -236.5 98.5t-97.5 241.5zM283 -180v27q41 -9 62 -9 q37 0 60 20t23 57q0 45 -51 85l9 13q74 -32 74 -100q0 -44 -31 -73.5t-81 -29.5q-32 0 -65 10z"></glyph><glyph glyph-name="Egrave" unicode="È" d="M103 0v660h406v-29h-374v-257h294v-29h-294v-316h386v-29h-418zM288 724l-107 181v5h37l96 -186h-26z"></glyph><glyph glyph-name="Eacute" unicode="É" d="M103 0v660h406v-29h-374v-257h294v-29h-294v-316h386v-29h-418zM287 724l96 186h37v-5l-107 -181h-26z"></glyph><glyph glyph-name="Ecircumflex" unicode="Ê" d="M103 0v660h406v-29h-374v-257h294v-29h-294v-316h386v-29h-418zM454 724h-27l-126 146l-127 -146h-27l146 186h15z"></glyph><glyph glyph-name="Edieresis" unicode="Ë" d="M103 0v660h406v-29h-374v-257h294v-29h-294v-316h386v-29h-418zM156 806q0 14 10 24t24 10t24 -10t10 -24t-10 -24t-24 -10t-24 10t-10 24zM377 806q0 14 10 24t24 10t24 -10t10 -24t-10 -24t-24 -10t-24 10t-10 24z"></glyph><glyph glyph-name="Igrave" unicode="Ì" d="M103 0v660h32v-660h-32zM106 724l-107 181v5h37l96 -186h-26z"></glyph><glyph glyph-name="Iacute" unicode="Í" d="M103 0v660h32v-660h-32zM105 724l96 186h37v-5l-107 -181h-26z"></glyph><glyph glyph-name="Icircumflex" unicode="Î" d="M103 0v660h32v-660h-32zM272 724h-27l-126 146l-127 -146h-27l146 186h15z"></glyph><glyph glyph-name="Idieresis" unicode="Ï" d="M103 0v660h32v-660h-32zM-26 806q0 14 10 24t24 10t24 -10t10 -24t-10 -24t-24 -10t-24 10t-10 24zM195 806q0 14 10 24t24 10t24 -10t10 -24t-10 -24t-24 -10t-24 10t-10 24z"></glyph><glyph glyph-name="Eth" unicode="Ð" d="M641 331q0 -145 -95.5 -238t-263.5 -93h-179v287h-103v28h103v345h179q168 0 263.5 -91.5t95.5 -237.5zM607 331q0 132 -86.5 216t-238.5 84h-147v-316h151v-28h-151v-258h147q151 0 238 85.5t87 216.5z"></glyph><glyph glyph-name="Ntilde" unicode="Ñ" d="M569 660h32v-670h-15l-451 601v-591h-32v670h15l451 -606v596zM363 783l-39 26q-32 21 -50 21q-36 0 -36 -45v-21h-29q-1 4 -1 19q0 33 17.5 54t45.5 21q26 0 70 -29l39 -26q31 -21 50 -21q36 0 36 45v21h29q1 -4 1 -19q0 -33 -17.5 -54t-45.5 -21q-26 0 -70 29z"></glyph><glyph glyph-name="Ograve" unicode="Ò" d="M57 330q-2 141 97 242t237 98q137 2 237.5 -99t98.5 -241q2 -140 -98.5 -241.5t-237.5 -98.5q-137 -3 -236.5 98.5t-97.5 241.5zM693 331q2 127 -87 218.5t-214 89.5q-125 2 -214 -89t-87 -219q-2 -129 86.5 -220.5t214.5 -89.5q125 -2 214 90t87 220zM379 724l-107 181 v5h37l96 -186h-26z"></glyph><glyph glyph-name="Oacute" unicode="Ó" d="M57 330q-2 141 97 242t237 98q137 2 237.5 -99t98.5 -241q2 -140 -98.5 -241.5t-237.5 -98.5q-137 -3 -236.5 98.5t-97.5 241.5zM693 331q2 127 -87 218.5t-214 89.5q-125 2 -214 -89t-87 -219q-2 -129 86.5 -220.5t214.5 -89.5q125 -2 214 90t87 220zM378 724l96 186h37 v-5l-107 -181h-26z"></glyph><glyph glyph-name="Ocircumflex" unicode="Ô" d="M57 330q-2 141 97 242t237 98q137 2 237.5 -99t98.5 -241q2 -140 -98.5 -241.5t-237.5 -98.5q-137 -3 -236.5 98.5t-97.5 241.5zM693 331q2 127 -87 218.5t-214 89.5q-125 2 -214 -89t-87 -219q-2 -129 86.5 -220.5t214.5 -89.5q125 -2 214 90t87 220zM545 724h-27 l-126 146l-127 -146h-27l146 186h15z"></glyph><glyph glyph-name="Otilde" unicode="Õ" d="M57 330q-2 141 97 242t237 98q137 2 237.5 -99t98.5 -241q2 -140 -98.5 -241.5t-237.5 -98.5q-137 -3 -236.5 98.5t-97.5 241.5zM693 331q2 127 -87 218.5t-214 89.5q-125 2 -214 -89t-87 -219q-2 -129 86.5 -220.5t214.5 -89.5q125 -2 214 90t87 220zM403 783l-39 26 q-31 21 -50 21q-36 0 -36 -45v-21h-29q-1 4 -1 19q0 33 17.5 54t45.5 21q26 0 70 -29l39 -26q32 -21 50 -21q36 0 36 45v21h29q1 -4 1 -19q0 -33 -17.5 -54t-45.5 -21q-26 0 -70 29z"></glyph><glyph glyph-name="Odieresis" unicode="Ö" d="M57 330q-2 141 97 242t237 98q137 2 237.5 -99t98.5 -241q2 -140 -98.5 -241.5t-237.5 -98.5q-137 -3 -236.5 98.5t-97.5 241.5zM693 331q2 127 -87 218.5t-214 89.5q-125 2 -214 -89t-87 -219q-2 -129 86.5 -220.5t214.5 -89.5q125 -2 214 90t87 220zM247 806 q0 14 10 24t24 10t24 -10t10 -24t-10 -24t-24 -10t-24 10t-10 24zM468 806q0 14 10 24t24 10t24 -10t10 -24t-10 -24t-24 -10t-24 10t-10 24z"></glyph><glyph glyph-name="multiply" unicode="×" d="M117 125l-20 19l164 165l-164 164l19 20l164 -164l164 164l20 -20l-164 -164l164 -164l-19 -20l-164 164z"></glyph><glyph glyph-name="Oslash" unicode="Ø" d="M732 649l-90 -90q85 -98 85 -229q2 -140 -98.5 -241.5t-237.5 -98.5q-133 0 -228 90l-90 -90l-21 21l90 90q-85 98 -85 229q-2 141 97 242t237 98q134 0 230 -90l90 90zM91 331q0 -122 74 -207l434 434q-87 81 -207 81q-126 2 -214.5 -88.5t-86.5 -219.5zM693 331 q0 120 -74 205l-434 -434q87 -81 207 -81q126 -2 214.5 89.5t86.5 220.5z"></glyph><glyph glyph-name="Ugrave" unicode="Ù" d="M92 252v408h32v-408q0 -108 58.5 -169.5t157.5 -61.5q98 0 156 61.5t58 169.5v408h32v-408q0 -121 -66.5 -191.5t-179.5 -70.5q-115 0 -181.5 70.5t-66.5 191.5zM326 724l-107 181v5h37l96 -186h-26z"></glyph><glyph glyph-name="Uacute" unicode="Ú" d="M92 252v408h32v-408q0 -108 58.5 -169.5t157.5 -61.5q98 0 156 61.5t58 169.5v408h32v-408q0 -121 -66.5 -191.5t-179.5 -70.5q-115 0 -181.5 70.5t-66.5 191.5zM325 724l96 186h37v-5l-107 -181h-26z"></glyph><glyph glyph-name="Ucircumflex" unicode="Û" d="M92 252v408h32v-408q0 -108 58.5 -169.5t157.5 -61.5q98 0 156 61.5t58 169.5v408h32v-408q0 -121 -66.5 -191.5t-179.5 -70.5q-115 0 -181.5 70.5t-66.5 191.5zM492 724h-27l-126 146l-127 -146h-27l146 186h15z"></glyph><glyph glyph-name="Udieresis" unicode="Ü" d="M92 252v408h32v-408q0 -108 58.5 -169.5t157.5 -61.5q98 0 156 61.5t58 169.5v408h32v-408q0 -121 -66.5 -191.5t-179.5 -70.5q-115 0 -181.5 70.5t-66.5 191.5zM194 806q0 14 10 24t24 10t24 -10t10 -24t-10 -24t-24 -10t-24 10t-10 24zM415 806q0 14 10 24t24 10 t24 -10t10 -24t-10 -24t-24 -10t-24 10t-10 24z"></glyph><glyph glyph-name="Yacute" unicode="Ý" d="M551 660l-230 -374v-286h-32v286l-230 374h34l212 -347l212 347h34zM291 724l96 186h37v-5l-107 -181h-26z"></glyph><glyph glyph-name="Thorn" unicode="Þ" d="M103 0v660h32v-133h187q88 0 139 -49.5t51 -129.5q0 -81 -51 -130.5t-139 -49.5h-187v-168h-32zM135 197h185q76 0 117.5 40.5t41.5 109.5q0 70 -41.5 110.5t-117.5 40.5h-185v-301z"></glyph><glyph glyph-name="germandbls" unicode="ß" d="M237 64l19 19q54 -64 141 -64q55 0 87 23t32 68q0 34 -21 53q-21 21 -78 53q-32 18 -60 35q-44 30 -44 75q0 22 18 82l47 150q12 38 12 72q0 47 -29 74t-80 27q-68 0 -110 -47t-42 -130v-554h-30v554q0 94 52.5 150t131.5 56q62 0 100.5 -34.5t38.5 -94.5q0 -34 -14 -79 l-48 -152q-16 -48 -16 -74q0 -24 17 -41q17 -16 68 -44q42 -24 66 -41q53 -35 53 -91q0 -57 -46 -88t-109 -31q-93 0 -156 74z"></glyph><glyph glyph-name="agrave" unicode="à" d="M425 305v-305h-30v85q-26 -45 -73.5 -70t-105.5 -25q-68 0 -116 33t-48 94q0 57 44.5 90.5t119.5 33.5h179v65q0 75 -39 115t-106 40q-88 0 -151 -84l-22 18q71 95 175 95q79 0 126 -48.5t47 -136.5zM395 175v38h-178q-63 0 -98 -25t-35 -69q0 -47 38 -73.5t95 -26.5 q73 0 125.5 45.5t52.5 110.5zM241 562l-107 213v5h37l96 -218h-26z"></glyph><glyph glyph-name="aacute" unicode="á" d="M425 305v-305h-30v85q-26 -45 -73.5 -70t-105.5 -25q-68 0 -116 33t-48 94q0 57 44.5 90.5t119.5 33.5h179v65q0 75 -39 115t-106 40q-88 0 -151 -84l-22 18q71 95 175 95q79 0 126 -48.5t47 -136.5zM395 175v38h-178q-63 0 -98 -25t-35 -69q0 -47 38 -73.5t95 -26.5 q73 0 125.5 45.5t52.5 110.5zM238 562l96 218h37v-5l-107 -213h-26z"></glyph><glyph glyph-name="acircumflex" unicode="â" d="M425 305v-305h-30v85q-26 -45 -73.5 -70t-105.5 -25q-68 0 -116 33t-48 94q0 57 44.5 90.5t119.5 33.5h179v65q0 75 -39 115t-106 40q-88 0 -151 -84l-22 18q71 95 175 95q79 0 126 -48.5t47 -136.5zM395 175v38h-178q-63 0 -98 -25t-35 -69q0 -47 38 -73.5t95 -26.5 q73 0 125.5 45.5t52.5 110.5zM394 562h-27l-116 172l-117 -172h-27l136 218h15z"></glyph><glyph glyph-name="atilde" unicode="ã" d="M425 305v-305h-30v85q-26 -45 -73.5 -70t-105.5 -25q-68 0 -116 33t-48 94q0 57 44.5 90.5t119.5 33.5h179v65q0 75 -39 115t-106 40q-88 0 -151 -84l-22 18q71 95 175 95q79 0 126 -48.5t47 -136.5zM395 175v38h-178q-63 0 -98 -25t-35 -69q0 -47 38 -73.5t95 -26.5 q73 0 125.5 45.5t52.5 110.5zM255 642l-25 27q-22 25 -43 25q-34 0 -34 -49v-21h-29q-1 4 -1 19q0 34 16 56.5t46 22.5q32 0 62 -33l25 -27q22 -25 43 -25q34 0 34 49v21h29q1 -4 1 -19q0 -34 -16 -56.5t-45 -22.5q-33 0 -63 33z"></glyph><glyph glyph-name="adieresis" unicode="ä" d="M425 305v-305h-30v85q-26 -45 -73.5 -70t-105.5 -25q-68 0 -116 33t-48 94q0 57 44.5 90.5t119.5 33.5h179v65q0 75 -39 115t-106 40q-88 0 -151 -84l-22 18q71 95 175 95q79 0 126 -48.5t47 -136.5zM395 175v38h-178q-63 0 -98 -25t-35 -69q0 -47 38 -73.5t95 -26.5 q73 0 125.5 45.5t52.5 110.5zM121 666q0 14 10 24t24 10t24 -10t10 -24t-10 -24t-24 -10t-24 10t-10 24zM312 666q0 14 10 24t24 10t24 -10t10 -24t-10 -24t-24 -10t-24 10t-10 24z"></glyph><glyph glyph-name="aring" unicode="å" d="M425 305v-305h-30v85q-26 -45 -73.5 -70t-105.5 -25q-68 0 -116 33t-48 94q0 57 44.5 90.5t119.5 33.5h179v65q0 75 -39 115t-106 40q-88 0 -151 -84l-22 18q71 95 175 95q79 0 126 -48.5t47 -136.5zM395 175v38h-178q-63 0 -98 -25t-35 -69q0 -47 38 -73.5t95 -26.5 q73 0 125.5 45.5t52.5 110.5zM153 666q0 40 28.5 68.5t69.5 28.5t69.5 -28.5t28.5 -68.5t-28.5 -68.5t-69.5 -28.5t-69.5 28.5t-28.5 68.5zM319 666q0 29 -19.5 49t-48.5 20t-48.5 -20t-19.5 -49t19.5 -49t48.5 -20t48.5 20t19.5 49z"></glyph><glyph glyph-name="ae" unicode="æ" d="M845 229h-418q3 -89 64.5 -149.5t148.5 -60.5q106 0 171 84l22 -18q-34 -45 -85 -70t-108 -25q-72 0 -132 38.5t-90 104.5q-16 -64 -73 -104q-55 -39 -128 -39q-68 0 -117 35q-48 36 -48 101q0 61 44.5 96t119.5 35h179v49q0 75 -39 115t-106 40q-88 0 -151 -84l-22 18 q71 95 175 95q67 0 112 -35.5t57 -100.5q30 63 87.5 99.5t126.5 36.5q89 0 151 -58.5t62 -154.5q0 -15 -3 -48zM428 257h388q6 88 -49 146t-136 58t-139.5 -59t-63.5 -145zM395 175v54h-178q-65 0 -99 -26t-34 -74q0 -52 38.5 -81t96.5 -29q71 0 123.5 45.5t52.5 110.5z"></glyph><glyph glyph-name="ccedilla" unicode="ç" d="M60 240q0 104 71.5 177t174.5 73q118 0 192 -95l-22 -18q-65 84 -170 84q-90 0 -152 -64t-62 -157t61.5 -157t151.5 -64q106 0 171 84l22 -18q-74 -95 -193 -95q-100 -2 -173.5 73.5t-71.5 176.5zM196 -180v27q40 -9 62 -9q37 0 60 20t23 57q0 45 -51 85l9 13 q74 -32 74 -100q0 -44 -31 -73.5t-81 -29.5q-32 0 -65 10z"></glyph><glyph glyph-name="egrave" unicode="è" d="M510 237h-418q0 -92 62 -155t151 -63q106 0 171 84l22 -18q-34 -45 -85 -70t-108 -25q-101 0 -173 73.5t-72 176.5t70.5 176.5t169.5 73.5q89 0 151 -58.5t62 -153.5q0 -17 -3 -41zM93 265h388q6 87 -48.5 141.5t-134.5 54.5t-138.5 -56.5t-66.5 -139.5zM281 562 l-107 213v5h37l96 -218h-26z"></glyph><glyph glyph-name="eacute" unicode="é" d="M510 237h-418q0 -92 62 -155t151 -63q106 0 171 84l22 -18q-34 -45 -85 -70t-108 -25q-101 0 -173 73.5t-72 176.5t70.5 176.5t169.5 73.5q89 0 151 -58.5t62 -153.5q0 -17 -3 -41zM93 265h388q6 87 -48.5 141.5t-134.5 54.5t-138.5 -56.5t-66.5 -139.5zM278 562l96 218 h37v-5l-107 -213h-26z"></glyph><glyph glyph-name="ecircumflex" unicode="ê" d="M510 237h-418q0 -92 62 -155t151 -63q106 0 171 84l22 -18q-34 -45 -85 -70t-108 -25q-101 0 -173 73.5t-72 176.5t70.5 176.5t169.5 73.5q89 0 151 -58.5t62 -153.5q0 -17 -3 -41zM93 265h388q6 87 -48.5 141.5t-134.5 54.5t-138.5 -56.5t-66.5 -139.5zM434 562h-27 l-116 172l-117 -172h-27l136 218h15z"></glyph><glyph glyph-name="edieresis" unicode="ë" d="M510 237h-418q0 -92 62 -155t151 -63q106 0 171 84l22 -18q-34 -45 -85 -70t-108 -25q-101 0 -173 73.5t-72 176.5t70.5 176.5t169.5 73.5q89 0 151 -58.5t62 -153.5q0 -17 -3 -41zM93 265h388q6 87 -48.5 141.5t-134.5 54.5t-138.5 -56.5t-66.5 -139.5zM161 666 q0 14 10 24t24 10t24 -10t10 -24t-10 -24t-24 -10t-24 10t-10 24zM352 666q0 14 10 24t24 10t24 -10t10 -24t-10 -24t-24 -10t-24 10t-10 24z"></glyph><glyph glyph-name="igrave" unicode="ì" d="M99 0v480h30v-480h-30zM104 562l-77 213v5h37l66 -218h-26z"></glyph><glyph glyph-name="iacute" unicode="í" d="M99 0v480h30v-480h-30zM100 562l66 218h37v-5l-77 -213h-26z"></glyph><glyph glyph-name="icircumflex" unicode="î" d="M99 0v480h30v-480h-30zM257 562h-27l-116 172l-117 -172h-27l136 218h15z"></glyph><glyph glyph-name="idieresis" unicode="ï" d="M99 0v480h30v-480h-30zM-1 666q0 14 10 24t24 10t24 -10t10 -24t-10 -24t-24 -10t-24 10t-10 24zM160 666q0 14 10 24t24 10t24 -10t10 -24t-10 -24t-24 -10t-24 10t-10 24z"></glyph><glyph glyph-name="eth" unicode="ð" d="M505 219q0 -97 -63.5 -163t-159.5 -66t-159 65t-63 158t64 160t153 67q66 0 115 -34l-147 204l-159 -74l-12 25l155 72l-79 109l24 18l82 -114l154 71l12 -25l-149 -69l131 -182q37 -50 58 -84q43 -67 43 -138zM472 215q0 83 -55 139.5t-136 56.5q-80 0 -134.5 -56.5 t-54.5 -139.5t54.5 -139.5t135.5 -56.5q80 0 135 56.5t55 139.5z"></glyph><glyph glyph-name="ntilde" unicode="ñ" d="M460 305v-305h-30v305q0 70 -39.5 113t-105.5 43q-68 0 -112 -44t-44 -112v-305h-30v480h30v-77q49 87 157 87q80 0 127 -51t47 -134zM288 642l-25 27q-22 25 -43 25q-34 0 -34 -49v-21h-29q-1 4 -1 19q0 34 16 56.5t46 22.5q32 0 62 -33l25 -27q22 -25 43 -25 q34 0 34 49v21h29q1 -4 1 -19q0 -34 -16 -56.5t-45 -22.5q-33 0 -63 33z"></glyph><glyph glyph-name="ograve" unicode="ò" d="M60 240q-2 103 71.5 177.5t174.5 72.5q101 2 175 -72.5t72 -177.5q0 -104 -72.5 -177t-175.5 -73q-100 -2 -173.5 72.5t-71.5 177.5zM521 240q0 93 -62.5 157t-152.5 64q-91 0 -152.5 -63.5t-61.5 -157.5t61.5 -157.5t151.5 -63.5q91 0 153.5 64.5t62.5 156.5zM297 562 l-107 213v5h37l96 -218h-26z"></glyph><glyph glyph-name="oacute" unicode="ó" d="M60 240q-2 103 71.5 177.5t174.5 72.5q101 2 175 -72.5t72 -177.5q0 -104 -72.5 -177t-175.5 -73q-100 -2 -173.5 72.5t-71.5 177.5zM521 240q0 93 -62.5 157t-152.5 64q-91 0 -152.5 -63.5t-61.5 -157.5t61.5 -157.5t151.5 -63.5q91 0 153.5 64.5t62.5 156.5zM294 562 l96 218h37v-5l-107 -213h-26z"></glyph><glyph glyph-name="ocircumflex" unicode="ô" d="M60 240q-2 103 71.5 177.5t174.5 72.5q101 2 175 -72.5t72 -177.5q0 -104 -72.5 -177t-175.5 -73q-100 -2 -173.5 72.5t-71.5 177.5zM521 240q0 93 -62.5 157t-152.5 64q-91 0 -152.5 -63.5t-61.5 -157.5t61.5 -157.5t151.5 -63.5q91 0 153.5 64.5t62.5 156.5zM450 562 h-27l-116 172l-117 -172h-27l136 218h15z"></glyph><glyph glyph-name="otilde" unicode="õ" d="M60 240q-2 103 71.5 177.5t174.5 72.5q101 2 175 -72.5t72 -177.5q0 -104 -72.5 -177t-175.5 -73q-100 -2 -173.5 72.5t-71.5 177.5zM521 240q0 93 -62.5 157t-152.5 64q-91 0 -152.5 -63.5t-61.5 -157.5t61.5 -157.5t151.5 -63.5q91 0 153.5 64.5t62.5 156.5zM311 642 l-25 27q-22 25 -43 25q-34 0 -34 -49v-21h-29q-1 4 -1 19q0 34 16 56.5t46 22.5q32 0 62 -33l25 -27q22 -25 43 -25q34 0 34 49v21h29q1 -4 1 -19q0 -34 -16 -56.5t-45 -22.5q-33 0 -63 33z"></glyph><glyph glyph-name="odieresis" unicode="ö" d="M60 240q-2 103 71.5 177.5t174.5 72.5q101 2 175 -72.5t72 -177.5q0 -104 -72.5 -177t-175.5 -73q-100 -2 -173.5 72.5t-71.5 177.5zM521 240q0 93 -62.5 157t-152.5 64q-91 0 -152.5 -63.5t-61.5 -157.5t61.5 -157.5t151.5 -63.5q91 0 153.5 64.5t62.5 156.5zM177 666 q0 14 10 24t24 10t24 -10t10 -24t-10 -24t-24 -10t-24 10t-10 24zM368 666q0 14 10 24t24 10t24 -10t10 -24t-10 -24t-24 -10t-24 10t-10 24z"></glyph><glyph glyph-name="divide" unicode="÷" d="M242 479q0 15 10 25t25 10t25 -10t10 -25t-10 -25t-25 -10t-25 10t-10 25zM66 295v28h427v-28h-427zM242 138q0 15 10 25t25 10t25 -10t10 -25t-10 -25t-25 -10t-25 10t-10 25z"></glyph><glyph glyph-name="oslash" unicode="ø" d="M563 469l-64 -65q61 -69 61 -164q2 -101 -73 -176.5t-175 -73.5q-94 0 -163 64l-64 -64l-21 21l64 64q-61 70 -61 165q-2 101 72 176.5t174 73.5q96 0 166 -64l63 64zM99 240q0 -80 50 -144l309 309q-62 56 -145 56q-90 0 -152 -64t-62 -157zM528 240q0 82 -50 143 l-309 -309q61 -55 143 -55q91 0 153.5 64.5t62.5 156.5z"></glyph><glyph glyph-name="ugrave" unicode="ù" d="M91 175v305h30v-305q0 -71 42.5 -113.5t108.5 -42.5q65 0 107.5 42.5t42.5 113.5v305h30v-305q0 -82 -51.5 -133.5t-128.5 -51.5t-129 51t-52 134zM262 562l-107 213v5h37l96 -218h-26z"></glyph><glyph glyph-name="uacute" unicode="ú" d="M91 175v305h30v-305q0 -71 42.5 -113.5t108.5 -42.5q65 0 107.5 42.5t42.5 113.5v305h30v-305q0 -82 -51.5 -133.5t-128.5 -51.5t-129 51t-52 134zM259 562l96 218h37v-5l-107 -213h-26z"></glyph><glyph glyph-name="ucircumflex" unicode="û" d="M91 175v305h30v-305q0 -71 42.5 -113.5t108.5 -42.5q65 0 107.5 42.5t42.5 113.5v305h30v-305q0 -82 -51.5 -133.5t-128.5 -51.5t-129 51t-52 134zM415 562h-27l-116 172l-117 -172h-27l136 218h15z"></glyph><glyph glyph-name="udieresis" unicode="ü" d="M91 175v305h30v-305q0 -71 42.5 -113.5t108.5 -42.5q65 0 107.5 42.5t42.5 113.5v305h30v-305q0 -82 -51.5 -133.5t-128.5 -51.5t-129 51t-52 134zM142 666q0 14 10 24t24 10t24 -10t10 -24t-10 -24t-24 -10t-24 10t-10 24zM333 666q0 14 10 24t24 10t24 -10t10 -24 t-10 -24t-24 -10t-24 10t-10 24z"></glyph><glyph glyph-name="yacute" unicode="ý" d="M449 480h33l-243 -568q-44 -102 -139 -102q-32 0 -64 9v27q40 -8 62 -8q78 0 115 87l34 81l-211 474h33l194 -435zM246 562l96 218h37v-5l-107 -213h-26z"></glyph><glyph glyph-name="thorn" unicode="þ" d="M575 240q0 -104 -69.5 -177t-170.5 -73q-67 0 -124 34t-82 91v-295h-30v930h30v-385q25 57 82 91t124 34q101 0 170.5 -73.5t69.5 -176.5zM543 240q0 93 -59.5 157t-148.5 64q-87 0 -146.5 -57.5t-59.5 -163.5t59.5 -163.5t146.5 -57.5q90 0 149 63.5t59 157.5z"></glyph><glyph glyph-name="ydieresis" unicode="ÿ" d="M449 480h33l-243 -568q-44 -102 -139 -102q-32 0 -64 9v27q40 -8 62 -8q78 0 115 87l34 81l-211 474h33l194 -435zM129 666q0 14 10 24t24 10t24 -10t10 -24t-10 -24t-24 -10t-24 10t-10 24zM320 666q0 14 10 24t24 10t24 -10t10 -24t-10 -24t-24 -10t-24 10t-10 24z"></glyph><glyph glyph-name="Amacron" unicode="Ā" d="M587 0l-73 175h-364l-72 -175h-33l280 670h15l280 -670h-33zM332 614l-170 -410h340zM197 782v28h272v-28h-272z"></glyph><glyph glyph-name="amacron" unicode="ā" d="M425 305v-305h-30v85q-26 -45 -73.5 -70t-105.5 -25q-68 0 -116 33t-48 94q0 57 44.5 90.5t119.5 33.5h179v65q0 75 -39 115t-106 40q-88 0 -151 -84l-22 18q71 95 175 95q79 0 126 -48.5t47 -136.5zM395 175v38h-178q-63 0 -98 -25t-35 -69q0 -47 38 -73.5t95 -26.5 q73 0 125.5 45.5t52.5 110.5zM125 653v28h252v-28h-252z"></glyph><glyph glyph-name="Abreve" unicode="Ă" d="M587 0l-73 175h-364l-72 -175h-33l280 670h15l280 -670h-33zM332 614l-170 -410h340zM198 876v34h30v-32q0 -56 28 -87t77 -31t77 31t28 87v32h30v-34q0 -66 -36.5 -105t-98.5 -39t-98.5 39t-36.5 105z"></glyph><glyph glyph-name="abreve" unicode="ă" d="M425 305v-305h-30v85q-26 -45 -73.5 -70t-105.5 -25q-68 0 -116 33t-48 94q0 57 44.5 90.5t119.5 33.5h179v65q0 75 -39 115t-106 40q-88 0 -151 -84l-22 18q71 95 175 95q79 0 126 -48.5t47 -136.5zM395 175v38h-178q-63 0 -98 -25t-35 -69q0 -47 38 -73.5t95 -26.5 q73 0 125.5 45.5t52.5 110.5zM116 719v34h30v-32q0 -56 28 -87t77 -31t77 31t28 87v32h30v-34q0 -66 -36.5 -105t-98.5 -39t-98.5 39t-36.5 105z"></glyph><glyph glyph-name="Aogonek" unicode="Ą" d="M587 0l-73 175h-364l-72 -175h-33l280 670h15l280 -670h-33zM332 614l-170 -410h340zM464 -115q0 33 32 62q30 27 114 73l10 -20l-58 -37q-38 -25 -52.5 -40t-14.5 -35q0 -23 17.5 -36.5t46.5 -13.5q25 0 61 9v-27q-33 -10 -61 -10q-41 0 -68 20.5t-27 54.5z"></glyph><glyph glyph-name="aogonek" unicode="ą" d="M425 305v-305h-30v85q-26 -45 -73.5 -70t-105.5 -25q-68 0 -116 33t-48 94q0 57 44.5 90.5t119.5 33.5h179v65q0 75 -39 115t-106 40q-88 0 -151 -84l-22 18q71 95 175 95q79 0 126 -48.5t47 -136.5zM395 175v38h-178q-63 0 -98 -25t-35 -69q0 -47 38 -73.5t95 -26.5 q73 0 125.5 45.5t52.5 110.5zM269 -115q0 33 32 62q30 27 114 73l10 -20l-58 -37q-38 -25 -52.5 -40t-14.5 -35q0 -23 17.5 -36.5t46.5 -13.5q25 0 61 9v-27q-33 -10 -61 -10q-41 0 -68 20.5t-27 54.5z"></glyph><glyph glyph-name="Cacute" unicode="Ć" d="M57 330q-2 141 97 242t237 98q79 0 147 -34t114 -95l-24 -19q-88 117 -236 117q-126 2 -214.5 -88.5t-86.5 -219.5q-2 -129 86.5 -220.5t214.5 -89.5q148 0 236 117l24 -19q-46 -61 -114 -95t-147 -34q-137 -3 -236.5 98.5t-97.5 241.5zM379 724l96 186h37v-5l-107 -181 h-26z"></glyph><glyph glyph-name="cacute" unicode="ć" d="M60 240q0 104 71.5 177t174.5 73q118 0 192 -95l-22 -18q-65 84 -170 84q-90 0 -152 -64t-62 -157t61.5 -157t151.5 -64q106 0 171 84l22 -18q-74 -95 -193 -95q-100 -2 -173.5 73.5t-71.5 176.5zM293 562l96 218h37v-5l-107 -213h-26z"></glyph><glyph glyph-name="Ccircumflex" unicode="Ĉ" d="M57 330q-2 141 97 242t237 98q79 0 147 -34t114 -95l-24 -19q-88 117 -236 117q-126 2 -214.5 -88.5t-86.5 -219.5q-2 -129 86.5 -220.5t214.5 -89.5q148 0 236 117l24 -19q-46 -61 -114 -95t-147 -34q-137 -3 -236.5 98.5t-97.5 241.5zM546 724h-27l-126 146l-127 -146 h-27l146 186h15z"></glyph><glyph glyph-name="ccircumflex" unicode="ĉ" d="M60 240q0 104 71.5 177t174.5 73q118 0 192 -95l-22 -18q-65 84 -170 84q-90 0 -152 -64t-62 -157t61.5 -157t151.5 -64q106 0 171 84l22 -18q-74 -95 -193 -95q-100 -2 -173.5 73.5t-71.5 176.5zM449 562h-27l-116 172l-117 -172h-27l136 218h15z"></glyph><glyph glyph-name="Cdotaccent" unicode="Ċ" d="M57 330q-2 141 97 242t237 98q79 0 147 -34t114 -95l-24 -19q-88 117 -236 117q-126 2 -214.5 -88.5t-86.5 -219.5q-2 -129 86.5 -220.5t214.5 -89.5q148 0 236 117l24 -19q-46 -61 -114 -95t-147 -34q-137 -3 -236.5 98.5t-97.5 241.5zM359 806q0 14 10 24t24 10t24 -10 t10 -24t-10 -24t-24 -10t-24 10t-10 24z"></glyph><glyph glyph-name="cdotaccent" unicode="ċ" d="M60 240q0 104 71.5 177t174.5 73q118 0 192 -95l-22 -18q-65 84 -170 84q-90 0 -152 -64t-62 -157t61.5 -157t151.5 -64q106 0 171 84l22 -18q-74 -95 -193 -95q-100 -2 -173.5 73.5t-71.5 176.5zM272 666q0 14 10 24t24 10t24 -10t10 -24t-10 -24t-24 -10t-24 10t-10 24 z"></glyph><glyph glyph-name="Ccaron" unicode="Č" d="M57 330q-2 141 97 242t237 98q79 0 147 -34t114 -95l-24 -19q-88 117 -236 117q-126 2 -214.5 -88.5t-86.5 -219.5q-2 -129 86.5 -220.5t214.5 -89.5q148 0 236 117l24 -19q-46 -61 -114 -95t-147 -34q-137 -3 -236.5 98.5t-97.5 241.5zM519 910h27l-146 -186h-15 l-146 186h27l127 -146z"></glyph><glyph glyph-name="ccaron" unicode="č" d="M60 240q0 104 71.5 177t174.5 73q118 0 192 -95l-22 -18q-65 84 -170 84q-90 0 -152 -64t-62 -157t61.5 -157t151.5 -64q106 0 171 84l22 -18q-74 -95 -193 -95q-100 -2 -173.5 73.5t-71.5 176.5zM422 780h27l-136 -218h-15l-136 218h27l117 -172z"></glyph><glyph glyph-name="Dcaron" unicode="Ď" d="M103 0v660h179q168 0 263.5 -91.5t95.5 -237.5q0 -145 -95.5 -238t-263.5 -93h-179zM135 29h147q151 0 238 85.5t87 216.5q0 132 -86.5 216t-238.5 84h-147v-602zM408 910h27l-146 -186h-15l-146 186h27l127 -146z"></glyph><glyph glyph-name="dcaron" unicode="ď" d="M506 750h30v-750h-30v115q-25 -57 -82 -91t-124 -34q-101 0 -170.5 73.5t-69.5 176.5q0 104 69.5 177t170.5 73q67 0 124 -34t82 -91v385zM506 240q0 106 -59.5 163.5t-146.5 57.5q-90 0 -149 -63.5t-59 -157.5q0 -93 59.5 -157t148.5 -64q87 0 146.5 57.5t59.5 163.5z M648 540l20 210h38l-32 -210h-26z"></glyph><glyph glyph-name="Dcroat" unicode="Đ" d="M641 331q0 -145 -95.5 -238t-263.5 -93h-179v287h-103v28h103v345h179q168 0 263.5 -91.5t95.5 -237.5zM607 331q0 132 -86.5 216t-238.5 84h-147v-316h151v-28h-151v-258h147q151 0 238 85.5t87 216.5z"></glyph><glyph glyph-name="dslash" unicode="đ" d="M620 632v-28h-86v-604h-30v115q-25 -57 -82 -91t-124 -34q-101 0 -170.5 73.5t-69.5 176.5q0 104 69.5 177t170.5 73q67 0 124 -34t82 -91v239h-230v28h230v118h30v-118h86zM504 240q0 106 -59.5 163.5t-146.5 57.5q-90 0 -149 -63.5t-59 -157.5q0 -93 59.5 -157 t148.5 -64q87 0 146.5 57.5t59.5 163.5z"></glyph><glyph glyph-name="Emacron" unicode="Ē" d="M103 0v660h406v-29h-374v-257h294v-29h-294v-316h386v-29h-418zM165 782v28h272v-28h-272z"></glyph><glyph glyph-name="emacron" unicode="ē" d="M510 237h-418q0 -92 62 -155t151 -63q106 0 171 84l22 -18q-34 -45 -85 -70t-108 -25q-101 0 -173 73.5t-72 176.5t70.5 176.5t169.5 73.5q89 0 151 -58.5t62 -153.5q0 -17 -3 -41zM93 265h388q6 87 -48.5 141.5t-134.5 54.5t-138.5 -56.5t-66.5 -139.5zM165 653v28h252 v-28h-252z"></glyph><glyph glyph-name="Ebreve" unicode="Ĕ" d="M103 0v660h406v-29h-374v-257h294v-29h-294v-316h386v-29h-418zM166 876v34h30v-32q0 -56 28 -87t77 -31t77 31t28 87v32h30v-34q0 -66 -36.5 -105t-98.5 -39t-98.5 39t-36.5 105z"></glyph><glyph glyph-name="ebreve" unicode="ĕ" d="M510 237h-418q0 -92 62 -155t151 -63q106 0 171 84l22 -18q-34 -45 -85 -70t-108 -25q-101 0 -173 73.5t-72 176.5t70.5 176.5t169.5 73.5q89 0 151 -58.5t62 -153.5q0 -17 -3 -41zM93 265h388q6 87 -48.5 141.5t-134.5 54.5t-138.5 -56.5t-66.5 -139.5zM156 719v34h30 v-32q0 -56 28 -87t77 -31t77 31t28 87v32h30v-34q0 -66 -36.5 -105t-98.5 -39t-98.5 39t-36.5 105z"></glyph><glyph glyph-name="Edotaccent" unicode="Ė" d="M103 0v660h406v-29h-374v-257h294v-29h-294v-316h386v-29h-418zM267 806q0 14 10 24t24 10t24 -10t10 -24t-10 -24t-24 -10t-24 10t-10 24z"></glyph><glyph glyph-name="edotaccent" unicode="ė" d="M510 237h-418q0 -92 62 -155t151 -63q106 0 171 84l22 -18q-34 -45 -85 -70t-108 -25q-101 0 -173 73.5t-72 176.5t70.5 176.5t169.5 73.5q89 0 151 -58.5t62 -153.5q0 -17 -3 -41zM93 265h388q6 87 -48.5 141.5t-134.5 54.5t-138.5 -56.5t-66.5 -139.5zM257 666 q0 14 10 24t24 10t24 -10t10 -24t-10 -24t-24 -10t-24 10t-10 24z"></glyph><glyph glyph-name="Eogonek" unicode="Ę" d="M103 0v660h406v-29h-374v-257h294v-29h-294v-316h386v-29h-418zM365 -115q0 33 32 62q30 27 114 73l10 -20l-58 -37q-38 -25 -52.5 -40t-14.5 -35q0 -23 17.5 -36.5t46.5 -13.5q25 0 61 9v-27q-33 -10 -61 -10q-41 0 -68 20.5t-27 54.5z"></glyph><glyph glyph-name="eogonek" unicode="ę" d="M510 237h-418q0 -92 62 -155t151 -63q106 0 171 84l22 -18q-34 -45 -85 -70t-108 -25q-101 0 -173 73.5t-72 176.5t70.5 176.5t169.5 73.5q89 0 151 -58.5t62 -153.5q0 -17 -3 -41zM93 265h388q6 87 -48.5 141.5t-134.5 54.5t-138.5 -56.5t-66.5 -139.5zM317 -115 q0 23 9 43t37 52q29 33 99 105h36l-97 -108q-31 -34 -42 -52.5t-11 -36.5q0 -23 17.5 -36.5t46.5 -13.5q28 0 61 9v-27q-29 -10 -61 -10q-42 0 -68.5 21t-26.5 54z"></glyph><glyph glyph-name="Ecaron" unicode="Ě" d="M103 0v660h406v-29h-374v-257h294v-29h-294v-316h386v-29h-418zM427 910h27l-146 -186h-15l-146 186h27l127 -146z"></glyph><glyph glyph-name="ecaron" unicode="ě" d="M510 237h-418q0 -92 62 -155t151 -63q106 0 171 84l22 -18q-34 -45 -85 -70t-108 -25q-101 0 -173 73.5t-72 176.5t70.5 176.5t169.5 73.5q89 0 151 -58.5t62 -153.5q0 -17 -3 -41zM93 265h388q6 87 -48.5 141.5t-134.5 54.5t-138.5 -56.5t-66.5 -139.5zM407 780h27 l-136 -218h-15l-136 218h27l117 -172z"></glyph><glyph glyph-name="Gcircumflex" unicode="Ĝ" d="M57 330q-2 141 97 242t237 98q79 0 147 -34t114 -95l-24 -19q-88 117 -236 117q-126 2 -214.5 -88.5t-86.5 -219.5q-3 -129 86 -220.5t216 -89.5q82 0 149.5 37t106.5 102v126h-258v30h290v-161q-44 -78 -121.5 -121.5t-168.5 -43.5q-138 -3 -237 98t-97 242zM544 724 h-27l-126 146l-127 -146h-27l146 186h15z"></glyph><glyph glyph-name="gcircumflex" unicode="ĝ" d="M513 480h30v-440q0 -105 -63.5 -167.5t-163.5 -62.5q-64 0 -121.5 25.5t-95.5 68.5l21 20q34 -39 86.5 -62t109.5 -23q89 0 143 53.5t54 147.5v82q-25 -54 -82.5 -88t-124.5 -34q-98 -2 -169.5 72t-69.5 173q-2 99 69.5 173t169.5 72q67 0 124.5 -34t82.5 -88v112z M513 245q0 103 -60 159.5t-145 56.5q-90 0 -149.5 -62.5t-59.5 -153.5t59.5 -153.5t149.5 -62.5q86 0 145.5 56.5t59.5 159.5zM454 562h-27l-116 172l-117 -172h-27l136 218h15z"></glyph><glyph glyph-name="Gbreve" unicode="Ğ" d="M57 330q-2 141 97 242t237 98q79 0 147 -34t114 -95l-24 -19q-88 117 -236 117q-126 2 -214.5 -88.5t-86.5 -219.5q-3 -129 86 -220.5t216 -89.5q82 0 149.5 37t106.5 102v126h-258v30h290v-161q-44 -78 -121.5 -121.5t-168.5 -43.5q-138 -3 -237 98t-97 242zM256 876v34 h30v-32q0 -56 28 -87t77 -31t77 31t28 87v32h30v-34q0 -66 -36.5 -105t-98.5 -39t-98.5 39t-36.5 105z"></glyph><glyph glyph-name="gbreve" unicode="ğ" d="M513 480h30v-440q0 -105 -63.5 -167.5t-163.5 -62.5q-64 0 -121.5 25.5t-95.5 68.5l21 20q34 -39 86.5 -62t109.5 -23q89 0 143 53.5t54 147.5v82q-25 -54 -82.5 -88t-124.5 -34q-98 -2 -169.5 72t-69.5 173q-2 99 69.5 173t169.5 72q67 0 124.5 -34t82.5 -88v112z M513 245q0 103 -60 159.5t-145 56.5q-90 0 -149.5 -62.5t-59.5 -153.5t59.5 -153.5t149.5 -62.5q86 0 145.5 56.5t59.5 159.5zM176 719v34h30v-32q0 -56 28 -87t77 -31t77 31t28 87v32h30v-34q0 -66 -36.5 -105t-98.5 -39t-98.5 39t-36.5 105z"></glyph><glyph glyph-name="Gdotaccent" unicode="Ġ" d="M57 330q-2 141 97 242t237 98q79 0 147 -34t114 -95l-24 -19q-88 117 -236 117q-126 2 -214.5 -88.5t-86.5 -219.5q-3 -129 86 -220.5t216 -89.5q82 0 149.5 37t106.5 102v126h-258v30h290v-161q-44 -78 -121.5 -121.5t-168.5 -43.5q-138 -3 -237 98t-97 242zM357 806 q0 14 10 24t24 10t24 -10t10 -24t-10 -24t-24 -10t-24 10t-10 24z"></glyph><glyph glyph-name="gdotaccent" unicode="ġ" d="M513 480h30v-440q0 -105 -63.5 -167.5t-163.5 -62.5q-64 0 -121.5 25.5t-95.5 68.5l21 20q34 -39 86.5 -62t109.5 -23q89 0 143 53.5t54 147.5v82q-25 -54 -82.5 -88t-124.5 -34q-98 -2 -169.5 72t-69.5 173q-2 99 69.5 173t169.5 72q67 0 124.5 -34t82.5 -88v112z M513 245q0 103 -60 159.5t-145 56.5q-90 0 -149.5 -62.5t-59.5 -153.5t59.5 -153.5t149.5 -62.5q86 0 145.5 56.5t59.5 159.5zM277 666q0 14 10 24t24 10t24 -10t10 -24t-10 -24t-24 -10t-24 10t-10 24z"></glyph><glyph glyph-name="uni0122" unicode="Ģ" d="M57 330q-2 141 97 242t237 98q79 0 147 -34t114 -95l-24 -19q-88 117 -236 117q-126 2 -214.5 -88.5t-86.5 -219.5q-3 -129 86 -220.5t216 -89.5q82 0 149.5 37t106.5 102v126h-258v30h290v-161q-44 -78 -121.5 -121.5t-168.5 -43.5q-138 -3 -237 98t-97 242zM359 -220 l14 168h36l-24 -168h-26z"></glyph><glyph glyph-name="uni0123" unicode="ģ" d="M513 480h30v-440q0 -105 -63.5 -167.5t-163.5 -62.5q-64 0 -121.5 25.5t-95.5 68.5l21 20q34 -39 86.5 -62t109.5 -23q89 0 143 53.5t54 147.5v82q-25 -54 -82.5 -88t-124.5 -34q-98 -2 -169.5 72t-69.5 173q-2 99 69.5 173t169.5 72q67 0 124.5 -34t82.5 -88v112z M513 245q0 103 -60 159.5t-145 56.5q-90 0 -149.5 -62.5t-59.5 -153.5t59.5 -153.5t149.5 -62.5q86 0 145.5 56.5t59.5 159.5zM291 562l30 218h26l-20 -218h-36z"></glyph><glyph glyph-name="Hcircumflex" unicode="Ĥ" d="M103 0v660h32v-286h434v286h32v-660h-32v345h-434v-345h-32zM505 724h-27l-126 146l-127 -146h-27l146 186h15z"></glyph><glyph glyph-name="hcircumflex" unicode="ĥ" d="M460 305v-305h-30v305q0 70 -39.5 113t-105.5 43q-68 0 -112 -44t-44 -112v-305h-30v750h30v-347q49 87 157 87q80 0 127 -51t47 -134zM292 814h-27l-126 146l-127 -146h-27l146 186h15z"></glyph><glyph glyph-name="Hbar" unicode="Ħ" d="M106 0v480h-106v28h106v152h32v-152h434v152h32v-152h106v-28h-106v-480h-32v286h-434v-286h-32zM138 315h434v165h-434v-165z"></glyph><glyph glyph-name="hbar" unicode="ħ" d="M460 305v-305h-30v305q0 70 -39.5 113t-105.5 43q-68 0 -112 -44t-44 -112v-305h-30v604h-86v28h86v118h30v-118h210v-28h-210v-201q49 87 157 87q80 0 127 -51t47 -134z"></glyph><glyph glyph-name="Itilde" unicode="Ĩ" d="M103 0v660h32v-660h-32zM130 783l-39 26q-32 21 -50 21q-36 0 -36 -45v-21h-29q-1 4 -1 19q0 33 17.5 54t45.5 21q26 0 70 -29l39 -26q31 -21 50 -21q36 0 36 45v21h29q1 -4 1 -19q0 -33 -17.5 -54t-45.5 -21q-26 0 -70 29z"></glyph><glyph glyph-name="itilde" unicode="ĩ" d="M99 0v480h30v-480h-30zM116 643l-21 25q-23 26 -39 26q-33 0 -33 -49v-21h-29l-1 18q0 33 16 56.5t44 23.5q31 0 59 -34l21 -25q23 -26 38 -26q33 0 33 49v21h29l1 -18q0 -33 -16 -56.5t-44 -23.5q-30 0 -58 34z"></glyph><glyph glyph-name="Imacron" unicode="Ī" d="M103 0v660h32v-660h-32zM-17 782v28h272v-28h-272z"></glyph><glyph glyph-name="imacron" unicode="ī" d="M99 0v480h30v-480h-30zM18 652v28h192v-28h-192z"></glyph><glyph glyph-name="Ibreve" unicode="Ĭ" d="M103 0v660h32v-660h-32zM-16 876v34h30v-32q0 -56 28 -87t77 -31t77 31t28 87v32h30v-34q0 -66 -36.5 -105t-98.5 -39t-98.5 39t-36.5 105z"></glyph><glyph glyph-name="ibreve" unicode="ĭ" d="M99 0v480h30v-480h-30zM-21 719v34h30v-32q0 -56 28 -87t77 -31t77 31t28 87v32h30v-34q0 -66 -36.5 -105t-98.5 -39t-98.5 39t-36.5 105z"></glyph><glyph glyph-name="Iogonek" unicode="Į" d="M103 0v660h32v-660h-32zM-21 -115q0 33 32 62q30 27 114 73l10 -20l-58 -37q-38 -25 -52.5 -40t-14.5 -35q0 -23 17.5 -36.5t46.5 -13.5q25 0 61 9v-27q-33 -10 -61 -10q-41 0 -68 20.5t-27 54.5z"></glyph><glyph glyph-name="iogonek" unicode="į" d="M99 0v480h30v-480h-30zM80 666q0 14 10 24t24 10t24 -10t10 -24t-10 -24t-24 -10t-24 10t-10 24zM-27 -115q0 33 32 62q30 27 114 73l10 -20l-58 -37q-38 -25 -52.5 -40t-14.5 -35q0 -23 17.5 -36.5t46.5 -13.5q25 0 61 9v-27q-33 -10 -61 -10q-41 0 -68 20.5t-27 54.5z "></glyph><glyph glyph-name="Idot" unicode="İ" d="M103 0v660h32v-660h-32zM85 806q0 14 10 24t24 10t24 -10t10 -24t-10 -24t-24 -10t-24 10t-10 24z"></glyph><glyph glyph-name="dotlessi" unicode="ı" d="M99 0v480h30v-480h-30z"></glyph><glyph glyph-name="IJ" unicode="Ĳ" d="M103 0v660h32v-660h-32zM268 0v29q46 -8 77 -8q119 0 119 114v525h32v-525q0 -73 -39.5 -109t-110.5 -36q-38 0 -78 10z"></glyph><glyph glyph-name="ij" unicode="ĳ" d="M99 0v480h30v-480h-30zM80 666q0 14 10 24t24 10t24 -10t10 -24t-10 -24t-24 -10t-24 10t-10 24zM171 -184v27q32 -5 48 -5q108 0 108 107v535h30v-535q0 -68 -36 -101.5t-100 -33.5q-26 0 -50 6zM308 666q0 14 10 24t24 10t24 -10t10 -24t-10 -24t-24 -10t-24 10t-10 24 z"></glyph><glyph glyph-name="Jcircumflex" unicode="Ĵ" d="M30 0v29q46 -8 77 -8q119 0 119 114v525h32v-525q0 -73 -39.5 -109t-110.5 -36q-38 0 -78 10zM392 724h-27l-126 146l-127 -146h-27l146 186h15z"></glyph><glyph glyph-name="jcircumflex" unicode="ĵ" d="M-57 -184v27q32 -5 48 -5q108 0 108 107v535h30v-535q0 -68 -36 -101.5t-100 -33.5q-26 0 -50 6zM257 562h-27l-116 172l-117 -172h-27l136 218h15z"></glyph><glyph glyph-name="uni0136" unicode="Ķ" d="M103 0v660h32v-660h-32zM198 359l360 -359h-43l-361 359l337 301h45zM249 -220l14 168h36l-24 -168h-26z"></glyph><glyph glyph-name="uni0137" unicode="ķ" d="M99 0v750h30v-750h-30zM189 269l254 -269h-40l-255 270l229 210h43zM199 -220l14 168h36l-24 -168h-26z"></glyph><glyph glyph-name="Lacute" unicode="Ĺ" d="M103 0v660h32v-631h334v-29h-366zM105 724l96 186h37v-5l-107 -181h-26z"></glyph><glyph glyph-name="lacute" unicode="ĺ" d="M99 0v750h30v-750h-30zM100 814l96 186h37v-5l-107 -181h-26z"></glyph><glyph glyph-name="uni013B" unicode="Ļ" d="M103 0v660h32v-631h334v-29h-366zM250 -220l14 168h36l-24 -168h-26z"></glyph><glyph glyph-name="uni013C" unicode="ļ" d="M99 0v750h30v-750h-30zM82 -220l14 168h36l-24 -168h-26z"></glyph><glyph glyph-name="Lcaron" unicode="Ľ" d="M103 0v660h32v-631h334v-29h-366zM368 510l20 210h38l-32 -210h-26z"></glyph><glyph glyph-name="lcaron" unicode="ľ" d="M99 0v750h30v-750h-30zM241 540l20 210h38l-32 -210h-26z"></glyph><glyph glyph-name="Ldot" unicode="Ŀ" d="M103 0v660h32v-631h334v-29h-366zM332 360q0 18 11 29t27 11t28 -11t12 -29q0 -17 -12 -27.5t-28 -10.5t-27 10.5t-11 27.5z"></glyph><glyph glyph-name="ldot" unicode="ŀ" d="M99 0v750h30v-750h-30zM192 308q0 18 11 29t27 11t28 -11t12 -29q0 -17 -12 -27.5t-28 -10.5t-27 10.5t-11 27.5z"></glyph><glyph glyph-name="Lslash" unicode="Ł" d="M135 29h334v-29h-366v293l-83 -38v31l83 38v336h32v-325l241 110v-31l-241 -110v-275z"></glyph><glyph glyph-name="lslash" unicode="ł" d="M215 447v-31l-86 -40v-376h-30v365l-86 -40v31l86 40v354h30v-343z"></glyph><glyph glyph-name="Nacute" unicode="Ń" d="M569 660h32v-670h-15l-451 601v-591h-32v670h15l451 -606v596zM338 724l96 186h37v-5l-107 -181h-26z"></glyph><glyph glyph-name="nacute" unicode="ń" d="M460 305v-305h-30v305q0 70 -39.5 113t-105.5 43q-68 0 -112 -44t-44 -112v-305h-30v480h30v-77q49 87 157 87q80 0 127 -51t47 -134zM271 562l96 218h37v-5l-107 -213h-26z"></glyph><glyph glyph-name="uni0145" unicode="Ņ" d="M569 660h32v-670h-15l-451 601v-591h-32v670h15l451 -606v596zM320 -220l14 168h36l-24 -168h-26z"></glyph><glyph glyph-name="uni0146" unicode="ņ" d="M460 305v-305h-30v305q0 70 -39.5 113t-105.5 43q-68 0 -112 -44t-44 -112v-305h-30v480h30v-77q49 87 157 87q80 0 127 -51t47 -134zM252 -220l14 168h36l-24 -168h-26z"></glyph><glyph glyph-name="Ncaron" unicode="Ň" d="M569 660h32v-670h-15l-451 601v-591h-32v670h15l451 -606v596zM478 910h27l-146 -186h-15l-146 186h27l127 -146z"></glyph><glyph glyph-name="ncaron" unicode="ň" d="M460 305v-305h-30v305q0 70 -39.5 113t-105.5 43q-68 0 -112 -44t-44 -112v-305h-30v480h30v-77q49 87 157 87q80 0 127 -51t47 -134zM400 780h27l-136 -218h-15l-136 218h27l117 -172z"></glyph><glyph glyph-name="Eng" unicode="Ŋ" d="M569 660h32v-715q0 -68 -36 -101.5t-100 -33.5q-26 0 -50 6v27q32 -5 48 -5q106 0 106 107v49l-434 595v-589h-32v670h15l451 -618v608z"></glyph><glyph glyph-name="eng" unicode="ŋ" d="M460 305v-360q0 -68 -36 -101.5t-100 -33.5q-26 0 -50 6v27q32 -5 48 -5q108 0 108 107v360q0 70 -39.5 113t-105.5 43q-68 0 -112 -44t-44 -112v-305h-30v480h30v-77q49 87 157 87q80 0 127 -51t47 -134z"></glyph><glyph glyph-name="Omacron" unicode="Ō" d="M57 330q-2 141 97 242t237 98q137 2 237.5 -99t98.5 -241q2 -140 -98.5 -241.5t-237.5 -98.5q-137 -3 -236.5 98.5t-97.5 241.5zM693 331q2 127 -87 218.5t-214 89.5q-125 2 -214 -89t-87 -219q-2 -129 86.5 -220.5t214.5 -89.5q125 -2 214 90t87 220zM256 782v28h272 v-28h-272z"></glyph><glyph glyph-name="omacron" unicode="ō" d="M60 240q-2 103 71.5 177.5t174.5 72.5q101 2 175 -72.5t72 -177.5q0 -104 -72.5 -177t-175.5 -73q-100 -2 -173.5 72.5t-71.5 177.5zM521 240q0 93 -62.5 157t-152.5 64q-91 0 -152.5 -63.5t-61.5 -157.5t61.5 -157.5t151.5 -63.5q91 0 153.5 64.5t62.5 156.5zM181 653 v28h252v-28h-252z"></glyph><glyph glyph-name="Obreve" unicode="Ŏ" d="M57 330q-2 141 97 242t237 98q137 2 237.5 -99t98.5 -241q2 -140 -98.5 -241.5t-237.5 -98.5q-137 -3 -236.5 98.5t-97.5 241.5zM693 331q2 127 -87 218.5t-214 89.5q-125 2 -214 -89t-87 -219q-2 -129 86.5 -220.5t214.5 -89.5q125 -2 214 90t87 220zM257 876v34h30v-32 q0 -56 28 -87t77 -31t77 31t28 87v32h30v-34q0 -66 -36.5 -105t-98.5 -39t-98.5 39t-36.5 105z"></glyph><glyph glyph-name="obreve" unicode="ŏ" d="M60 240q-2 103 71.5 177.5t174.5 72.5q101 2 175 -72.5t72 -177.5q0 -104 -72.5 -177t-175.5 -73q-100 -2 -173.5 72.5t-71.5 177.5zM521 240q0 93 -62.5 157t-152.5 64q-91 0 -152.5 -63.5t-61.5 -157.5t61.5 -157.5t151.5 -63.5q91 0 153.5 64.5t62.5 156.5zM172 719 v34h30v-32q0 -56 28 -87t77 -31t77 31t28 87v32h30v-34q0 -66 -36.5 -105t-98.5 -39t-98.5 39t-36.5 105z"></glyph><glyph glyph-name="Ohungarumlaut" unicode="Ő" d="M57 330q-2 141 97 242t237 98q137 2 237.5 -99t98.5 -241q2 -140 -98.5 -241.5t-237.5 -98.5q-137 -3 -236.5 98.5t-97.5 241.5zM693 331q2 127 -87 218.5t-214 89.5q-125 2 -214 -89t-87 -219q-2 -129 86.5 -220.5t214.5 -89.5q125 -2 214 90t87 220zM265 724l96 186h37 v-5l-107 -181h-26zM469 724l96 186h37v-5l-107 -181h-26z"></glyph><glyph glyph-name="ohungarumlaut" unicode="ő" d="M60 240q-2 103 71.5 177.5t174.5 72.5q101 2 175 -72.5t72 -177.5q0 -104 -72.5 -177t-175.5 -73q-100 -2 -173.5 72.5t-71.5 177.5zM521 240q0 93 -62.5 157t-152.5 64q-91 0 -152.5 -63.5t-61.5 -157.5t61.5 -157.5t151.5 -63.5q91 0 153.5 64.5t62.5 156.5zM197 562 l96 218h37v-5l-107 -213h-26zM381 562l96 218h37v-5l-107 -213h-26z"></glyph><glyph glyph-name="OE" unicode="Œ" d="M725 29h386v-29h-418v189q-35 -89 -117 -144t-185 -55q-137 -3 -236.5 98.5t-97.5 241.5q-2 141 97 242t237 98q103 0 185 -55t117 -144v189h406v-29h-374v-257h294v-29h-294v-316zM693 331q2 128 -86.5 219t-214.5 89q-126 2 -214.5 -88.5t-86.5 -219.5 q-2 -129 86.5 -220.5t214.5 -89.5q126 -2 214.5 89.5t86.5 220.5z"></glyph><glyph glyph-name="oe" unicode="œ" d="M951 237h-408q0 -93 57.5 -155.5t145.5 -62.5q106 0 171 84l22 -18q-34 -45 -85 -70t-108 -25q-77 0 -135.5 42.5t-83.5 114.5q-27 -71 -86.5 -114t-135.5 -43q-99 -2 -173 73t-72 177q-2 101 72 176.5t174 73.5q76 0 135 -42.5t86 -113.5q25 71 82.5 113.5t131.5 42.5 q89 0 151 -58.5t62 -153.5q0 -17 -3 -41zM511 240q0 95 -58 158t-147 63q-90 0 -152 -64t-62 -157t61.5 -157t151.5 -64t148 64t58 157zM544 265h378q6 87 -48.5 141.5t-134.5 54.5q-79 0 -133 -55.5t-62 -140.5z"></glyph><glyph glyph-name="Racute" unicode="Ŕ" d="M585 0h-39l-234 311h-177v-311h-32v660h219q88 0 139 -48.5t51 -125.5q0 -71 -43 -118.5t-118 -55.5zM135 631v-291h185q76 0 117.5 40t41.5 105q0 66 -42 106t-117 40h-185zM250 724l96 186h37v-5l-107 -181h-26z"></glyph><glyph glyph-name="racute" unicode="ŕ" d="M323 480v-25h-23q-66 0 -118.5 -46.5t-52.5 -118.5v-290h-30v480h30v-92q24 45 68 69.5t98 24.5q6 0 28 -2zM134 562l96 218h37v-5l-107 -213h-26z"></glyph><glyph glyph-name="uni0156" unicode="Ŗ" d="M585 0h-39l-234 311h-177v-311h-32v660h219q88 0 139 -48.5t51 -125.5q0 -71 -43 -118.5t-118 -55.5zM135 631v-291h185q76 0 117.5 40t41.5 105q0 66 -42 106t-117 40h-185zM272 -220l14 168h36l-24 -168h-26z"></glyph><glyph glyph-name="uni0157" unicode="ŗ" d="M323 480v-25h-23q-66 0 -118.5 -46.5t-52.5 -118.5v-290h-30v480h30v-92q24 45 68 69.5t98 24.5q6 0 28 -2zM82 -220l14 168h36l-24 -168h-26z"></glyph><glyph glyph-name="Rcaron" unicode="Ř" d="M585 0h-39l-234 311h-177v-311h-32v660h219q88 0 139 -48.5t51 -125.5q0 -71 -43 -118.5t-118 -55.5zM135 631v-291h185q76 0 117.5 40t41.5 105q0 66 -42 106t-117 40h-185zM390 910h27l-146 -186h-15l-146 186h27l127 -146z"></glyph><glyph glyph-name="rcaron" unicode="ř" d="M323 480v-25h-23q-66 0 -118.5 -46.5t-52.5 -118.5v-290h-30v480h30v-92q24 45 68 69.5t98 24.5q6 0 28 -2zM263 780h27l-136 -218h-15l-136 218h27l117 -172z"></glyph><glyph glyph-name="Sacute" unicode="Ś" d="M50 129l24 18q80 -126 210 -126q72 0 117.5 37.5t45.5 100.5q0 55 -27 84t-104 67l-76 36q-46 22 -74 40q-69 45 -69 128q0 73 53 114q54 42 133 42q123 0 191 -100l-24 -19q-64 88 -165 88q-61 0 -108 -30q-46 -30 -46 -93q3 -55 29 -81.5t95 -60.5l76 -36 q80 -38 115 -77t35 -102q0 -75 -56.5 -122t-141.5 -47q-148 0 -233 139zM269 724l96 186h37v-5l-107 -181h-26z"></glyph><glyph glyph-name="sacute" unicode="ś" d="M52 95l24 18q66 -94 158 -94q53 0 86.5 25.5t33.5 71.5q-3 43 -26 64t-83 48l-42 19q-61 27 -89 54t-28 70q0 55 43 86q43 33 103 33q89 0 151 -77l-22 -20q-57 68 -131 68q-48 0 -80 -23.5t-32 -65.5q1 -17 6.5 -29.5t9.5 -19.5t21.5 -17.5t25 -14t38.5 -18.5l45 -20 q62 -27 92 -57t30 -78q0 -60 -45 -94q-44 -34 -109 -34q-112 0 -180 105zM219 562l96 218h37v-5l-107 -213h-26z"></glyph><glyph glyph-name="Scircumflex" unicode="Ŝ" d="M50 129l24 18q80 -126 210 -126q72 0 117.5 37.5t45.5 100.5q0 55 -27 84t-104 67l-76 36q-46 22 -74 40q-69 45 -69 128q0 73 53 114q54 42 133 42q123 0 191 -100l-24 -19q-64 88 -165 88q-61 0 -108 -30q-46 -30 -46 -93q3 -55 29 -81.5t95 -60.5l76 -36 q80 -38 115 -77t35 -102q0 -75 -56.5 -122t-141.5 -47q-148 0 -233 139zM436 724h-27l-126 146l-127 -146h-27l146 186h15z"></glyph><glyph glyph-name="scircumflex" unicode="ŝ" d="M52 95l24 18q66 -94 158 -94q53 0 86.5 25.5t33.5 71.5q-3 43 -26 64t-83 48l-42 19q-61 27 -89 54t-28 70q0 55 43 86q43 33 103 33q89 0 151 -77l-22 -20q-57 68 -131 68q-48 0 -80 -23.5t-32 -65.5q1 -17 6.5 -29.5t9.5 -19.5t21.5 -17.5t25 -14t38.5 -18.5l45 -20 q62 -27 92 -57t30 -78q0 -60 -45 -94q-44 -34 -109 -34q-112 0 -180 105zM375 562h-27l-116 172l-117 -172h-27l136 218h15z"></glyph><glyph glyph-name="Scedilla" unicode="Ş" d="M50 129l24 18q80 -126 210 -126q72 0 117.5 37.5t45.5 100.5q0 55 -27 84t-104 67l-76 36q-46 22 -74 40q-69 45 -69 128q0 73 53 114q54 42 133 42q123 0 191 -100l-24 -19q-64 88 -165 88q-61 0 -108 -30q-46 -30 -46 -93q3 -55 29 -81.5t95 -60.5l76 -36 q80 -38 115 -77t35 -102q0 -75 -56.5 -122t-141.5 -47q-148 0 -233 139zM173 -180v27q41 -9 62 -9q37 0 60 20t23 57q0 45 -51 85l9 13q74 -32 74 -100q0 -44 -31 -73.5t-81 -29.5q-32 0 -65 10z"></glyph><glyph glyph-name="scedilla" unicode="ş" d="M52 95l24 18q66 -94 158 -94q53 0 86.5 25.5t33.5 71.5q-3 43 -26 64t-83 48l-42 19q-61 27 -89 54t-28 70q0 55 43 86q43 33 103 33q89 0 151 -77l-22 -20q-57 68 -131 68q-48 0 -80 -23.5t-32 -65.5q1 -17 6.5 -29.5t9.5 -19.5t21.5 -17.5t25 -14t38.5 -18.5l45 -20 q62 -27 92 -57t30 -78q0 -60 -45 -94q-44 -34 -109 -34q-112 0 -180 105zM128 -180v27q40 -9 62 -9q37 0 60 20t23 57q0 45 -51 85l9 13q74 -32 74 -100q0 -44 -31 -73.5t-81 -29.5q-32 0 -65 10z"></glyph><glyph glyph-name="Scaron" unicode="Š" d="M50 129l24 18q80 -126 210 -126q72 0 117.5 37.5t45.5 100.5q0 55 -27 84t-104 67l-76 36q-46 22 -74 40q-69 45 -69 128q0 73 53 114q54 42 133 42q123 0 191 -100l-24 -19q-64 88 -165 88q-61 0 -108 -30q-46 -30 -46 -93q3 -55 29 -81.5t95 -60.5l76 -36 q80 -38 115 -77t35 -102q0 -75 -56.5 -122t-141.5 -47q-148 0 -233 139zM409 910h27l-146 -186h-15l-146 186h27l127 -146z"></glyph><glyph glyph-name="scaron" unicode="š" d="M52 95l24 18q66 -94 158 -94q53 0 86.5 25.5t33.5 71.5q-3 43 -26 64t-83 48l-42 19q-61 27 -89 54t-28 70q0 55 43 86q43 33 103 33q89 0 151 -77l-22 -20q-57 68 -131 68q-48 0 -80 -23.5t-32 -65.5q1 -17 6.5 -29.5t9.5 -19.5t21.5 -17.5t25 -14t38.5 -18.5l45 -20 q62 -27 92 -57t30 -78q0 -60 -45 -94q-44 -34 -109 -34q-112 0 -180 105zM348 780h27l-136 -218h-15l-136 218h27l117 -172z"></glyph><glyph glyph-name="uni0162" unicode="Ţ" d="M276 0v631h-249v29h530v-29h-249v-631h-32zM182 -180v27q40 -9 62 -9q37 0 60 20t23 57q0 45 -51 85l9 13q74 -32 74 -100q0 -44 -31 -73.5t-81 -29.5q-32 0 -65 10z"></glyph><glyph glyph-name="uni0163" unicode="ţ" d="M323 27v-27q-36 -10 -71 -10q-62 0 -98.5 34t-36.5 101v327h-86v28h86v140h30v-140h160v-28h-160v-327q0 -107 107 -107q28 0 69 9zM98 -180v27q40 -9 62 -9q37 0 60 20t23 57q0 45 -51 85l9 13q74 -32 74 -100q0 -44 -31 -73.5t-81 -29.5q-32 0 -65 10z"></glyph><glyph glyph-name="Tcaron" unicode="Ť" d="M276 0v631h-249v29h530v-29h-249v-631h-32zM418 910h27l-146 -186h-15l-146 186h27l127 -146z"></glyph><glyph glyph-name="tcaron" unicode="ť" d="M323 27v-27q-36 -10 -71 -10q-62 0 -98.5 34t-36.5 101v327h-86v28h86v140h30v-140h160v-28h-160v-327q0 -107 107 -107q28 0 69 9zM239 540l20 210h38l-32 -210h-26z"></glyph><glyph glyph-name="Tbar" unicode="Ŧ" d="M276 0v286h-210v28h210v317h-249v29h530v-29h-249v-317h210v-28h-210v-286h-32z"></glyph><glyph glyph-name="tbar" unicode="ŧ" d="M332 27v-27q-36 -10 -71 -10q-62 0 -98.5 34t-36.5 101v111h-86v28h86v188h-86v28h86v140h30v-140h160v-28h-160v-188h160v-28h-160v-111q0 -107 107 -107q28 0 69 9z"></glyph><glyph glyph-name="Utilde" unicode="Ũ" d="M92 252v408h32v-408q0 -108 58.5 -169.5t157.5 -61.5q98 0 156 61.5t58 169.5v408h32v-408q0 -121 -66.5 -191.5t-179.5 -70.5q-115 0 -181.5 70.5t-66.5 191.5zM350 783l-39 26q-32 21 -50 21q-36 0 -36 -45v-21h-29q-1 4 -1 19q0 33 17.5 54t45.5 21q26 0 70 -29 l39 -26q32 -21 50 -21q36 0 36 45v21h29q1 -4 1 -19q0 -33 -17.5 -54t-45.5 -21q-26 0 -70 29z"></glyph><glyph glyph-name="utilde" unicode="ũ" d="M91 175v305h30v-305q0 -71 42.5 -113.5t108.5 -42.5q65 0 107.5 42.5t42.5 113.5v305h30v-305q0 -82 -51.5 -133.5t-128.5 -51.5t-129 51t-52 134zM276 642l-25 27q-22 25 -43 25q-34 0 -34 -49v-21h-29q-1 4 -1 19q0 34 16 56.5t46 22.5q32 0 62 -33l25 -27 q22 -25 43 -25q34 0 34 49v21h29q1 -4 1 -19q0 -34 -16 -56.5t-45 -22.5q-33 0 -63 33z"></glyph><glyph glyph-name="Umacron" unicode="Ū" d="M92 252v408h32v-408q0 -108 58.5 -169.5t157.5 -61.5q98 0 156 61.5t58 169.5v408h32v-408q0 -121 -66.5 -191.5t-179.5 -70.5q-115 0 -181.5 70.5t-66.5 191.5zM203 782v28h272v-28h-272z"></glyph><glyph glyph-name="umacron" unicode="ū" d="M91 175v305h30v-305q0 -71 42.5 -113.5t108.5 -42.5q65 0 107.5 42.5t42.5 113.5v305h30v-305q0 -82 -51.5 -133.5t-128.5 -51.5t-129 51t-52 134zM146 653v28h252v-28h-252z"></glyph><glyph glyph-name="Ubreve" unicode="Ŭ" d="M92 252v408h32v-408q0 -108 58.5 -169.5t157.5 -61.5q98 0 156 61.5t58 169.5v408h32v-408q0 -121 -66.5 -191.5t-179.5 -70.5q-115 0 -181.5 70.5t-66.5 191.5zM204 876v34h30v-32q0 -56 28 -87t77 -31t77 31t28 87v32h30v-34q0 -66 -36.5 -105t-98.5 -39t-98.5 39 t-36.5 105z"></glyph><glyph glyph-name="ubreve" unicode="ŭ" d="M91 175v305h30v-305q0 -71 42.5 -113.5t108.5 -42.5q65 0 107.5 42.5t42.5 113.5v305h30v-305q0 -82 -51.5 -133.5t-128.5 -51.5t-129 51t-52 134zM137 719v34h30v-32q0 -56 28 -87t77 -31t77 31t28 87v32h30v-34q0 -66 -36.5 -105t-98.5 -39t-98.5 39t-36.5 105z"></glyph><glyph glyph-name="Uring" unicode="Ů" d="M92 252v408h32v-408q0 -108 58.5 -169.5t157.5 -61.5q98 0 156 61.5t58 169.5v408h32v-408q0 -121 -66.5 -191.5t-179.5 -70.5q-115 0 -181.5 70.5t-66.5 191.5zM241 813q0 40 28.5 68.5t69.5 28.5t69.5 -28.5t28.5 -68.5t-28.5 -68.5t-69.5 -28.5t-69.5 28.5t-28.5 68.5 zM407 813q0 29 -19.5 49t-48.5 20t-48.5 -20t-19.5 -49t19.5 -49t48.5 -20t48.5 20t19.5 49z"></glyph><glyph glyph-name="uring" unicode="ů" d="M91 175v305h30v-305q0 -71 42.5 -113.5t108.5 -42.5q65 0 107.5 42.5t42.5 113.5v305h30v-305q0 -82 -51.5 -133.5t-128.5 -51.5t-129 51t-52 134zM174 666q0 40 28.5 68.5t69.5 28.5t69.5 -28.5t28.5 -68.5t-28.5 -68.5t-69.5 -28.5t-69.5 28.5t-28.5 68.5zM340 666 q0 29 -19.5 49t-48.5 20t-48.5 -20t-19.5 -49t19.5 -49t48.5 -20t48.5 20t19.5 49z"></glyph><glyph glyph-name="Uhungarumlaut" unicode="Ű" d="M92 252v408h32v-408q0 -108 58.5 -169.5t157.5 -61.5q98 0 156 61.5t58 169.5v408h32v-408q0 -121 -66.5 -191.5t-179.5 -70.5q-115 0 -181.5 70.5t-66.5 191.5zM212 724l96 186h37v-5l-107 -181h-26zM416 724l96 186h37v-5l-107 -181h-26z"></glyph><glyph glyph-name="uhungarumlaut" unicode="ű" d="M91 175v305h30v-305q0 -71 42.5 -113.5t108.5 -42.5q65 0 107.5 42.5t42.5 113.5v305h30v-305q0 -82 -51.5 -133.5t-128.5 -51.5t-129 51t-52 134zM162 562l96 218h37v-5l-107 -213h-26zM346 562l96 218h37v-5l-107 -213h-26z"></glyph><glyph glyph-name="Uogonek" unicode="Ų" d="M92 252v408h32v-408q0 -108 58.5 -169.5t157.5 -61.5q98 0 156 61.5t58 169.5v408h32v-408q0 -121 -66.5 -191.5t-179.5 -70.5q-115 0 -181.5 70.5t-66.5 191.5zM358 -115q0 23 9 43t37 52q28 33 99 105h36l-97 -108q-31 -34 -42 -52.5t-11 -36.5q0 -23 17.5 -36.5 t46.5 -13.5q28 0 61 9v-27q-29 -10 -61 -10q-42 0 -68.5 21t-26.5 54z"></glyph><glyph glyph-name="uogonek" unicode="ų" d="M269 -113q0 -49 62 -49q27 0 63 9v-27q-33 -10 -63 -10q-41 0 -67 19.5t-26 55.5q0 56 75 109q-23 -4 -41 -4q-77 0 -129 51t-52 134v305h30v-305q0 -71 42.5 -113.5t108.5 -42.5q65 0 107.5 42.5t42.5 113.5v305h30v-305q0 -43 -12 -73q-12 -28 -30 -49t-59 -57l-21 -18 q-35 -31 -48 -50t-13 -41z"></glyph><glyph glyph-name="Wcircumflex" unicode="Ŵ" d="M989 660h33l-240 -670h-15l-228 619l-229 -619h-15l-240 670h33l215 -610l228 620h15l228 -620zM692 724h-27l-126 146l-127 -146h-27l146 186h15z"></glyph><glyph glyph-name="wcircumflex" unicode="ŵ" d="M772 480h33l-186 -490h-15l-184 439l-183 -439h-15l-186 490h33l160 -432l184 442h15l184 -442zM564 562h-27l-116 172l-117 -172h-27l136 218h15z"></glyph><glyph glyph-name="Ycircumflex" unicode="Ŷ" d="M551 660l-230 -374v-286h-32v286l-230 374h34l212 -347l212 347h34zM458 724h-27l-126 146l-127 -146h-27l146 186h15z"></glyph><glyph glyph-name="ycircumflex" unicode="ŷ" d="M449 480h33l-243 -568q-44 -102 -139 -102q-32 0 -64 9v27q40 -8 62 -8q78 0 115 87l34 81l-211 474h33l194 -435zM402 562h-27l-116 172l-117 -172h-27l136 218h15z"></glyph><glyph glyph-name="Ydieresis" unicode="Ÿ" d="M551 660l-230 -374v-286h-32v286l-230 374h34l212 -347l212 347h34zM160 806q0 14 10 24t24 10t24 -10t10 -24t-10 -24t-24 -10t-24 10t-10 24zM381 806q0 14 10 24t24 10t24 -10t10 -24t-10 -24t-24 -10t-24 10t-10 24z"></glyph><glyph glyph-name="Zacute" unicode="Ź" d="M91 29h459v-29h-508v12l458 619h-414v29h463v-12zM284 724l96 186h37v-5l-107 -181h-26z"></glyph><glyph glyph-name="zacute" unicode="ź" d="M83 28h327v-28h-372v12l322 440h-299v28h344v-12zM221 562l96 218h37v-5l-107 -213h-26z"></glyph><glyph glyph-name="Zdotaccent" unicode="Ż" d="M91 29h459v-29h-508v12l458 619h-414v29h463v-12zM264 806q0 14 10 24t24 10t24 -10t10 -24t-10 -24t-24 -10t-24 10t-10 24z"></glyph><glyph glyph-name="zdotaccent" unicode="ż" d="M83 28h327v-28h-372v12l322 440h-299v28h344v-12zM200 666q0 14 10 24t24 10t24 -10t10 -24t-10 -24t-24 -10t-24 10t-10 24z"></glyph><glyph glyph-name="Zcaron" unicode="Ž" d="M91 29h459v-29h-508v12l458 619h-414v29h463v-12zM424 910h27l-146 -186h-15l-146 186h27l127 -146z"></glyph><glyph glyph-name="zcaron" unicode="ž" d="M83 28h327v-28h-372v12l322 440h-299v28h344v-12zM350 780h27l-136 -218h-15l-136 218h27l117 -172z"></glyph><glyph glyph-name="uni018F" unicode="Ə" d="M673 332q2 -140 -92 -242.5t-224 -99.5q-124 -2 -213 79.5t-87 212.5q0 17 3 50h579v2q2 127 -81 217t-199 88q-76 0 -141.5 -31t-106.5 -86l-24 19q45 60 118 94.5t155 34.5q131 2 223 -98.5t90 -239.5zM638 303h-547q-1 -5 -1 -24q0 -115 78 -186.5t191 -71.5 q108 -2 189.5 81t89.5 201z"></glyph><glyph glyph-name="florin" unicode="ƒ" d="M424 665v-26q-27 3 -43 3q-53 0 -80.5 -24.5t-34.5 -82.5l-18 -145h116v-28h-119l-45 -360q-16 -135 -142 -135q-18 0 -46 5v26q27 -3 43 -3q56 0 82 25t33 82l45 360h-102v28h105l18 145q17 135 142 135q18 0 46 -5z"></glyph><glyph glyph-name="uni01D4" unicode="ǔ" d="M91 175v305h30v-305q0 -71 42.5 -113.5t108.5 -42.5q65 0 107.5 42.5t42.5 113.5v305h30v-305q0 -82 -51.5 -133.5t-128.5 -51.5t-129 51t-52 134zM388 780h27l-136 -218h-15l-136 218h27l117 -172z"></glyph><glyph glyph-name="AEacute" unicode="Ǽ" d="M509 29h247v-29h-276l-31 176h-304l-91 -176h-34l344 660h380v-29h-343l46 -257h217v-29h-212zM371 615l-211 -410h284zM379 724l96 186h37v-5l-107 -181h-26z"></glyph><glyph glyph-name="aeacute" unicode="ǽ" d="M845 229h-418q3 -89 64.5 -149.5t148.5 -60.5q106 0 171 84l22 -18q-34 -45 -85 -70t-108 -25q-72 0 -132 38.5t-90 104.5q-16 -64 -73 -104q-55 -39 -128 -39q-68 0 -117 35q-48 36 -48 101q0 61 44.5 96t119.5 35h179v49q0 75 -39 115t-106 40q-88 0 -151 -84l-22 18 q71 95 175 95q67 0 112 -35.5t57 -100.5q30 63 87.5 99.5t126.5 36.5q89 0 151 -58.5t62 -154.5q0 -15 -3 -48zM428 257h388q6 88 -49 146t-136 58t-139.5 -59t-63.5 -145zM395 175v54h-178q-65 0 -99 -26t-34 -74q0 -52 38.5 -81t96.5 -29q71 0 123.5 45.5t52.5 110.5z M418 562l96 218h37v-5l-107 -213h-26z"></glyph><glyph glyph-name="Oslashacute" unicode="Ǿ" d="M732 649l-90 -90q85 -98 85 -229q2 -140 -98.5 -241.5t-237.5 -98.5q-133 0 -228 90l-90 -90l-21 21l90 90q-85 98 -85 229q-2 141 97 242t237 98q134 0 230 -90l90 90zM91 331q0 -122 74 -207l434 434q-87 81 -207 81q-126 2 -214.5 -88.5t-86.5 -219.5zM693 331 q0 120 -74 205l-434 -434q87 -81 207 -81q126 -2 214.5 89.5t86.5 220.5zM378 724l96 186h37v-5l-107 -181h-26z"></glyph><glyph glyph-name="oslashacute" unicode="ǿ" d="M563 469l-64 -65q61 -69 61 -164q2 -101 -73 -176.5t-175 -73.5q-94 0 -163 64l-64 -64l-21 21l64 64q-61 70 -61 165q-2 101 72 176.5t174 73.5q96 0 166 -64l63 64zM99 240q0 -80 50 -144l309 309q-62 56 -145 56q-90 0 -152 -64t-62 -157zM528 240q0 82 -50 143 l-309 -309q61 -55 143 -55q91 0 153.5 64.5t62.5 156.5zM301 562l96 218h37v-5l-107 -213h-26z"></glyph><glyph glyph-name="uni0218" unicode="Ș" d="M50 129l24 18q80 -126 210 -126q72 0 117.5 37.5t45.5 100.5q0 55 -27 84t-104 67l-76 36q-46 22 -74 40q-69 45 -69 128q0 73 53 114q54 42 133 42q123 0 191 -100l-24 -19q-64 88 -165 88q-61 0 -108 -30q-46 -30 -46 -93q3 -55 29 -81.5t95 -60.5l76 -36 q80 -38 115 -77t35 -102q0 -75 -56.5 -122t-141.5 -47q-148 0 -233 139zM251 -220l14 168h36l-24 -168h-26z"></glyph><glyph glyph-name="uni0219" unicode="ș" d="M52 95l24 18q66 -94 158 -94q53 0 86.5 25.5t33.5 71.5q-3 43 -26 64t-83 48l-42 19q-61 27 -89 54t-28 70q0 55 43 86q43 33 103 33q89 0 151 -77l-22 -20q-57 68 -131 68q-48 0 -80 -23.5t-32 -65.5q1 -17 6.5 -29.5t9.5 -19.5t21.5 -17.5t25 -14t38.5 -18.5l45 -20 q62 -27 92 -57t30 -78q0 -60 -45 -94q-44 -34 -109 -34q-112 0 -180 105zM206 -220l14 168h36l-24 -168h-26z"></glyph><glyph glyph-name="uni021A" unicode="Ț" d="M276 0v631h-249v29h530v-29h-249v-631h-32zM260 -220l14 168h36l-24 -168h-26z"></glyph><glyph glyph-name="uni021B" unicode="ț" d="M323 27v-27q-36 -10 -71 -10q-62 0 -98.5 34t-36.5 101v327h-86v28h86v140h30v-140h160v-28h-160v-327q0 -107 107 -107q28 0 69 9zM176 -220l14 168h36l-24 -168h-26z"></glyph><glyph glyph-name="uni0237" unicode="ȷ" d="M-57 -184v27q32 -5 48 -5q108 0 108 107v535h30v-535q0 -68 -36 -101.5t-100 -33.5q-26 0 -50 6z"></glyph><glyph glyph-name="uni0259" unicode="ə" d="M513 240q0 -104 -67.5 -177t-167.5 -73q-91 0 -154.5 58.5t-63.5 153.5q0 17 3 41h418q0 93 -59 155.5t-149 62.5q-113 0 -176 -84l-22 18q34 45 86 70t112 25q101 2 171.5 -72t68.5 -178zM480 215h-388q-6 -87 50 -141.5t138 -54.5q81 0 136.5 56t63.5 140z"></glyph><glyph glyph-name="circumflex" unicode="ˆ" d="M443 562h-27l-116 172l-117 -172h-27l136 218h15z"></glyph><glyph glyph-name="caron" unicode="ˇ" d="M416 780h27l-136 -218h-15l-136 218h27l117 -172z"></glyph><glyph glyph-name="breve" unicode="˘" d="M165 719v34h30v-32q0 -56 28 -87t77 -31t77 31t28 87v32h30v-34q0 -66 -36.5 -105t-98.5 -39t-98.5 39t-36.5 105z"></glyph><glyph glyph-name="dotaccent" unicode="˙" d="M266 666q0 14 10 24t24 10t24 -10t10 -24t-10 -24t-24 -10t-24 10t-10 24z"></glyph><glyph glyph-name="ring" unicode="˚" d="M202 666q0 40 28.5 68.5t69.5 28.5t69.5 -28.5t28.5 -68.5t-28.5 -68.5t-69.5 -28.5t-69.5 28.5t-28.5 68.5zM368 666q0 29 -19.5 49t-48.5 20t-48.5 -20t-19.5 -49t19.5 -49t48.5 -20t48.5 20t19.5 49z"></glyph><glyph glyph-name="ogonek" unicode="˛" d="M222 -115q0 33 32 62q30 27 114 73l10 -20l-58 -37q-38 -25 -52.5 -40t-14.5 -35q0 -23 17.5 -36.5t46.5 -13.5q25 0 61 9v-27q-33 -10 -61 -10q-41 0 -68 20.5t-27 54.5z"></glyph><glyph glyph-name="tilde" unicode="˜" d="M304 642l-25 27q-22 25 -43 25q-34 0 -34 -49v-21h-29q-1 4 -1 19q0 34 16 56.5t46 22.5q32 0 62 -33l25 -27q22 -25 43 -25q34 0 34 49v21h29q1 -4 1 -19q0 -34 -16 -56.5t-45 -22.5q-33 0 -63 33z"></glyph><glyph glyph-name="hungarumlaut" unicode="˝" d="M141 562l96 218h37v-5l-107 -213h-26zM325 562l96 218h37v-5l-107 -213h-26z"></glyph><glyph glyph-name="gravecomb" unicode="̀" d="M-210 562l-107 213v5h37l96 -218h-26z"></glyph><glyph glyph-name="acutecomb" unicode="́" d="M-317 562l96 218h37v-5l-107 -213h-26z"></glyph><glyph glyph-name="uni0302" unicode="̂" d="M-107 562h-27l-116 172l-117 -172h-27l136 218h15z"></glyph><glyph glyph-name="tildecomb" unicode="̃" d="M-246 642l-25 27q-22 25 -43 25q-34 0 -34 -49v-21h-29q-1 4 -1 19q0 34 16 56.5t46 22.5q32 0 62 -33l25 -27q22 -25 43 -25q34 0 34 49v21h29q1 -4 1 -19q0 -34 -16 -56.5t-45 -22.5q-33 0 -63 33z"></glyph><glyph glyph-name="uni0304" unicode="̄" d="M-376 653v28h252v-28h-252z"></glyph><glyph glyph-name="uni0306" unicode="̆" d="M-385 719v34h30v-32q0 -56 28 -87t77 -31t77 31t28 87v32h30v-34q0 -66 -36.5 -105t-98.5 -39t-98.5 39t-36.5 105z"></glyph><glyph glyph-name="uni0307" unicode="̇" d="M-284 666q0 14 10 24t24 10t24 -10t10 -24t-10 -24t-24 -10t-24 10t-10 24z"></glyph><glyph glyph-name="uni0308" unicode="̈" d="M-380 666q0 14 10 24t24 10t24 -10t10 -24t-10 -24t-24 -10t-24 10t-10 24zM-189 666q0 14 10 24t24 10t24 -10t10 -24t-10 -24t-24 -10t-24 10t-10 24z"></glyph><glyph glyph-name="uni030A" unicode="̊" d="M-348 666q0 40 28.5 68.5t69.5 28.5t69.5 -28.5t28.5 -68.5t-28.5 -68.5t-69.5 -28.5t-69.5 28.5t-28.5 68.5zM-182 666q0 29 -19.5 49t-48.5 20t-48.5 -20t-19.5 -49t19.5 -49t48.5 -20t48.5 20t19.5 49z"></glyph><glyph glyph-name="uni030B" unicode="̋" d="M-409 562l96 218h37v-5l-107 -213h-26zM-225 562l96 218h37v-5l-107 -213h-26z"></glyph><glyph glyph-name="uni030C" unicode="̌" d="M-134 780h27l-136 -218h-15l-136 218h27l117 -172z"></glyph><glyph glyph-name="uni0326" unicode="̦" d="M-275 -220l14 168h36l-24 -168h-26z"></glyph><glyph glyph-name="uni0327" unicode="̧" d="M-339 -180v27q41 -9 62 -9q37 0 60 20t23 57q0 45 -51 85l9 13q74 -32 74 -100q0 -44 -31 -73.5t-81 -29.5q-32 0 -65 10z"></glyph><glyph glyph-name="uni0328" unicode="̨" d="M-328 -115q0 33 32 62q30 27 114 73l10 -20l-58 -37q-38 -25 -52.5 -40t-14.5 -35q0 -23 17.5 -36.5t46.5 -13.5q25 0 61 9v-27q-33 -10 -61 -10q-41 0 -68 20.5t-27 54.5z"></glyph><glyph glyph-name="tonos" unicode="΄" d="M211 562l39 218h38v-5l-50 -213h-27z"></glyph><glyph glyph-name="dieresistonos" unicode="΅" d="M229 562l20 218h38v-5l-31 -213h-27zM95 666q0 14 10 24t24 10t24 -10t10 -24t-10 -24t-24 -10t-24 10t-10 24zM336 666q0 14 10 24t24 10t24 -10t10 -24t-10 -24t-24 -10t-24 10t-10 24z"></glyph><glyph glyph-name="Alphatonos" unicode="Ά" d="M587 0l-73 175h-364l-72 -175h-33l280 670h15l280 -670h-33zM332 614l-170 -410h340zM80 450l20 210h38l-32 -210h-26z"></glyph><glyph glyph-name="anoteleia" unicode="·" d="M101 308q0 18 11.5 29t26.5 11q16 0 28 -11t12 -29q0 -17 -12 -27.5t-28 -10.5t-27 10.5t-11 27.5z"></glyph><glyph glyph-name="Epsilontonos" unicode="Έ" d="M103 0v660h406v-29h-374v-257h294v-29h-294v-316h386v-29h-418zM-58 450l20 210h38l-32 -210h-26z"></glyph><glyph glyph-name="Etatonos" unicode="Ή" d="M103 0v660h32v-286h434v286h32v-660h-32v345h-434v-345h-32zM-58 450l20 210h38l-32 -210h-26z"></glyph><glyph glyph-name="Iotatonos" unicode="Ί" d="M103 0v660h32v-660h-32zM-58 450l20 210h38l-32 -210h-26z"></glyph><glyph glyph-name="Omicrontonos" unicode="Ό" d="M57 330q-2 141 97 242t237 98q137 2 237.5 -99t98.5 -241q2 -140 -98.5 -241.5t-237.5 -98.5q-137 -3 -236.5 98.5t-97.5 241.5zM693 331q2 127 -87 218.5t-214 89.5q-125 2 -214 -89t-87 -219q-2 -129 86.5 -220.5t214.5 -89.5q125 -2 214 90t87 220zM-29 450l20 210h38 l-32 -210h-26z"></glyph><glyph glyph-name="Upsilontonos" unicode="Ύ" d="M551 660l-230 -374v-286h-32v286l-230 374h34l212 -347l212 347h34zM-79 450l20 210h38l-32 -210h-26z"></glyph><glyph glyph-name="Omegatonos" unicode="Ώ" d="M532 29h190v-29h-255v28q231 110 231 312q0 128 -85.5 213.5t-215.5 85.5t-215.5 -85t-85.5 -213q0 -203 231 -313v-28h-255v29h189q-199 120 -199 311q-2 139 96 235.5t238 94.5q140 2 239 -94.5t97 -235.5q0 -187 -200 -311zM-29 450l20 210h38l-32 -210h-26z"></glyph><glyph glyph-name="iotadieresistonos" unicode="ΐ" d="M95 125v355h30v-355q0 -107 87 -107q28 0 69 9v-27q-36 -10 -71 -10q-56 0 -85.5 35t-29.5 100zM90 562l20 218h38v-5l-31 -213h-27zM-44 666q0 14 10 24t24 10t24 -10t10 -24t-10 -24t-24 -10t-24 10t-10 24zM197 666q0 14 10 24t24 10t24 -10t10 -24t-10 -24t-24 -10 t-24 10t-10 24z"></glyph><glyph glyph-name="Alpha" unicode="Α" d="M587 0l-73 175h-364l-72 -175h-33l280 670h15l280 -670h-33zM332 614l-170 -410h340z"></glyph><glyph glyph-name="Beta" unicode="Β" d="M560 187q0 -83 -54.5 -135t-148.5 -52h-254v660h222q80 0 125 -43t45 -113q0 -99 -89 -138q73 -12 113.5 -60t40.5 -119zM322 632l-187 -1v-257h187q67 0 103.5 35t36.5 94t-35.5 94.5t-104.5 34.5zM527 186q0 71 -46 115t-126 44h-220v-316h220q80 0 126 43.5t46 113.5z "></glyph><glyph glyph-name="Gamma" unicode="Γ" d="M103 0v660h366v-29h-334v-631h-32z"></glyph><glyph glyph-name="uni0394" unicode="Δ" d="M340 670l275 -658v-12h-565v12l275 658h15zM332 614l-243 -585h487z"></glyph><glyph glyph-name="Epsilon" unicode="Ε" d="M103 0v660h406v-29h-374v-257h294v-29h-294v-316h386v-29h-418z"></glyph><glyph glyph-name="Zeta" unicode="Ζ" d="M91 29h459v-29h-508v12l458 619h-414v29h463v-12z"></glyph><glyph glyph-name="Eta" unicode="Η" d="M103 0v660h32v-286h434v286h32v-660h-32v345h-434v-345h-32z"></glyph><glyph glyph-name="Theta" unicode="Θ" d="M57 330q-2 141 97 242t237 98q137 2 237.5 -99t98.5 -241q2 -140 -98.5 -241.5t-237.5 -98.5q-137 -3 -236.5 98.5t-97.5 241.5zM693 331q2 128 -86.5 219t-214.5 89q-126 2 -214.5 -88.5t-86.5 -219.5q-2 -129 86.5 -220.5t214.5 -89.5q126 -2 214.5 89.5t86.5 220.5z M191 311v29h392v-29h-392z"></glyph><glyph glyph-name="Iota" unicode="Ι" d="M103 0v660h32v-660h-32z"></glyph><glyph glyph-name="Kappa" unicode="Κ" d="M103 0v660h32v-660h-32zM198 359l360 -359h-43l-361 359l337 301h45z"></glyph><glyph glyph-name="Lambda" unicode="Λ" d="M620 0h-33l-255 614l-254 -614h-33l280 670h15z"></glyph><glyph glyph-name="Mu" unicode="Μ" d="M664 670h15v-670h-32v585l-248 -364h-15l-249 364v-585h-32v670h15l273 -402z"></glyph><glyph glyph-name="Nu" unicode="Ν" d="M569 660h32v-670h-15l-451 601v-591h-32v670h15l451 -606v596z"></glyph><glyph glyph-name="Xi" unicode="Ξ" d="M40 631v29h520v-29h-520zM121 320v29h358v-29h-358zM40 0v29h520v-29h-520z"></glyph><glyph glyph-name="Omicron" unicode="Ο" d="M57 330q-2 141 97 242t237 98q137 2 237.5 -99t98.5 -241q2 -140 -98.5 -241.5t-237.5 -98.5q-137 -3 -236.5 98.5t-97.5 241.5zM693 331q2 127 -87 218.5t-214 89.5q-125 2 -214 -89t-87 -219q-2 -129 86.5 -220.5t214.5 -89.5q125 -2 214 90t87 220z"></glyph><glyph glyph-name="Pi" unicode="Π" d="M103 0v660h468v-660h-32v631h-404v-631h-32z"></glyph><glyph glyph-name="Rho" unicode="Ρ" d="M103 0v660h219q88 0 139 -48.5t51 -125.5q0 -78 -51 -126.5t-139 -48.5h-187v-311h-32zM135 340h185q76 0 117.5 40t41.5 105q0 66 -42 106t-117 40h-185v-291z"></glyph><glyph glyph-name="Sigma" unicode="Σ" d="M104 29h399v-29h-448v12l257 326l-257 310v12h436v-29h-385l238 -286v-12z"></glyph><glyph glyph-name="Tau" unicode="Τ" d="M276 0v631h-249v29h530v-29h-249v-631h-32z"></glyph><glyph glyph-name="Upsilon" unicode="Υ" d="M551 660l-230 -374v-286h-32v286l-230 374h34l212 -347l212 347h34z"></glyph><glyph glyph-name="Phi" unicode="Φ" d="M743 325q0 -131 -90 -213t-237 -82v-68h-32v68q-147 0 -237 82t-90 213q0 136 89.5 220t237.5 84v68h32v-68q148 0 237.5 -84t89.5 -220zM384 61v537q-136 0 -214.5 -74t-78.5 -199q0 -119 79.5 -191.5t213.5 -72.5zM709 325q0 125 -78.5 199t-214.5 74v-537 q134 0 213.5 72.5t79.5 191.5z"></glyph><glyph glyph-name="Chi" unicode="Χ" d="M539 0h-37l-212 313l-213 -313h-37l232 340l-215 320h37l197 -295l194 295h37l-213 -321z"></glyph><glyph glyph-name="Psi" unicode="Ψ" d="M340 0v157q-126 0 -203 69q-77 71 -77 203v231h32v-231q0 -117 66.5 -179.5t181.5 -62.5v473h32v-473q115 0 181.5 62.5t66.5 179.5v231h32v-231q0 -132 -77 -203q-77 -69 -203 -69v-157h-32z"></glyph><glyph glyph-name="uni03A9" unicode="Ω" d="M532 29h190v-29h-255v28q231 110 231 312q0 128 -85.5 213.5t-215.5 85.5t-215.5 -85t-85.5 -213q0 -203 231 -313v-28h-255v29h189q-199 120 -199 311q-2 139 96 235.5t238 94.5q140 2 239 -94.5t97 -235.5q0 -187 -200 -311z"></glyph><glyph glyph-name="Iotadieresis" unicode="Ϊ" d="M103 0v660h32v-660h-32zM-26 806q0 14 10 24t24 10t24 -10t10 -24t-10 -24t-24 -10t-24 10t-10 24zM195 806q0 14 10 24t24 10t24 -10t10 -24t-10 -24t-24 -10t-24 10t-10 24z"></glyph><glyph glyph-name="Upsilondieresis" unicode="Ϋ" d="M551 660l-230 -374v-286h-32v286l-230 374h34l212 -347l212 347h34zM160 806q0 14 10 24t24 10t24 -10t10 -24t-10 -24t-24 -10t-24 10t-10 24zM381 806q0 14 10 24t24 10t24 -10t10 -24t-10 -24t-24 -10t-24 10t-10 24z"></glyph><glyph glyph-name="alphatonos" unicode="ά" d="M620 27v-27q-17 -4 -35 -4q-87 0 -87 105v12q-24 -56 -79.5 -89.5t-122.5 -33.5q-99 0 -167.5 73t-68.5 178q0 104 68 176.5t168 72.5q70 0 127 -36.5t79 -96.5q2 47 6 123h30l-4 -78q-6 -108 -6 -155v-146q0 -77 61 -77q11 0 31 3zM498 240q0 104 -58 162.5t-143 58.5 q-89 0 -147 -63.5t-58 -156.5q0 -94 58 -158t147 -64q84 0 142.5 59t58.5 162zM283 562l39 218h38v-5l-50 -213h-27z"></glyph><glyph glyph-name="epsilontonos" unicode="έ" d="M419 102l23 -16q-64 -96 -191 -96q-91 0 -141.5 36t-50.5 101q0 45 26.5 76.5t74.5 41.5q-40 11 -61.5 39.5t-21.5 69.5q0 61 49.5 98.5t131.5 37.5q120 0 171 -78l-22 -18q-44 67 -149 67q-68 0 -109 -29.5t-41 -79.5q0 -43 35 -68t96 -25h107v-28h-100 q-155 0 -155 -104q0 -52 41.5 -80t117.5 -28q61 0 100.5 19.5t68.5 63.5zM252 562l39 218h38v-5l-50 -213h-27z"></glyph><glyph glyph-name="etatonos" unicode="ή" d="M479 305v-485h-30v485q0 71 -39.5 113.5t-105.5 42.5q-68 0 -112 -44t-44 -112v-305h-30v379q0 77 -62 77l-30 -1v25q17 4 37 4q35 0 57 -21t27 -62q49 89 158 89q80 0 127 -50t47 -135zM290 562l39 218h38v-5l-50 -213h-27z"></glyph><glyph glyph-name="iotatonos" unicode="ί" d="M95 125v355h30v-355q0 -107 87 -107q28 0 69 9v-27q-36 -10 -71 -10q-56 0 -85.5 35t-29.5 100zM96 562l39 218h38v-5l-50 -213h-27z"></glyph><glyph glyph-name="upsilondieresistonos" unicode="ΰ" d="M91 185v295h30v-295q0 -75 43 -120.5t113 -45.5t113 45.5t43 120.5v295h30v-295q0 -91 -50 -143t-136 -52t-136 52t-50 143zM257 562l20 218h38v-5l-31 -213h-27zM123 666q0 14 10 24t24 10t24 -10t10 -24t-10 -24t-24 -10t-24 10t-10 24zM364 666q0 14 10 24t24 10 t24 -10t10 -24t-10 -24t-24 -10t-24 10t-10 24z"></glyph><glyph glyph-name="alpha" unicode="α" d="M620 27v-27q-17 -4 -35 -4q-87 0 -87 105v12q-24 -56 -79.5 -89.5t-122.5 -33.5q-99 0 -167.5 73t-68.5 178q0 104 68 176.5t168 72.5q70 0 127 -36.5t79 -96.5q2 47 6 123h30l-4 -78q-6 -108 -6 -155v-146q0 -77 61 -77q11 0 31 3zM498 240q0 104 -58 162.5t-143 58.5 q-89 0 -147 -63.5t-58 -156.5q0 -94 58 -158t147 -64q84 0 142.5 59t58.5 162z"></glyph><glyph glyph-name="beta" unicode="β" d="M532 208q0 -95 -63 -156.5t-161 -61.5q-107 0 -179 66v-236h-30v744q0 85 54 140t137 55q79 0 130.5 -50.5t51.5 -126.5q0 -59 -29.5 -102t-81.5 -62q79 -17 125 -73.5t46 -136.5zM500 207q0 85 -56.5 138.5t-146.5 53.5h-87v28h72q71 0 114.5 42t43.5 111 q0 67 -41 108.5t-108 41.5q-72 0 -117 -46t-45 -120v-470q31 -35 78.5 -55t100.5 -20q87 0 139 52q53 53 53 136z"></glyph><glyph glyph-name="gamma" unicode="γ" d="M462 480l-198 -493v-167h-30v170l-198 490h33l180 -456l180 456h33z"></glyph><glyph glyph-name="delta" unicode="δ" d="M541 239q0 -110 -66.5 -179.5t-173.5 -69.5q-106 0 -173.5 68.5t-67.5 175.5t67 175.5t173 68.5q39 0 78 -14l-294 274v12h432v-28h-371l277 -258q62 -58 91 -108q28 -47 28 -117zM509 234q0 92 -59.5 153.5t-149.5 61.5q-89 0 -148.5 -61.5t-59.5 -153.5t59.5 -153.5 t148.5 -61.5q90 0 149.5 61.5t59.5 153.5z"></glyph><glyph glyph-name="epsilon" unicode="ε" d="M419 102l23 -16q-64 -96 -191 -96q-91 0 -141.5 36t-50.5 101q0 45 26.5 76.5t74.5 41.5q-40 11 -61.5 39.5t-21.5 69.5q0 61 49.5 98.5t131.5 37.5q120 0 171 -78l-22 -18q-44 67 -149 67q-68 0 -109 -29.5t-41 -79.5q0 -43 35 -68t96 -25h107v-28h-100 q-155 0 -155 -104q0 -52 41.5 -80t117.5 -28q61 0 100.5 19.5t68.5 63.5z"></glyph><glyph glyph-name="zeta" unicode="ζ" d="M421 738l-174 -250q-85 -122 -120 -189t-35 -118q0 -59 35 -95t109 -53l35 -8q65 -15 95 -46t30 -83q0 -41 -20 -76h-32q20 38 20 76q0 41 -23.5 64t-77.5 36l-35 8q-86 19 -127 62.5t-41 114.5q0 41 15 81q17 40 48 93q22 36 100 151l148 216h-335v28h385v-12z"></glyph><glyph glyph-name="eta" unicode="η" d="M479 305v-485h-30v485q0 71 -39.5 113.5t-105.5 42.5q-68 0 -112 -44t-44 -112v-305h-30v379q0 77 -62 77l-30 -1v25q17 4 37 4q35 0 57 -21t27 -62q49 89 158 89q80 0 127 -50t47 -135z"></glyph><glyph glyph-name="theta" unicode="θ" d="M535 375q0 -185 -65 -285t-171 -100t-171 100t-65 285t65 285t171 100t171 -100t65 -285zM95 391h408q-3 160 -60 250t-144 90t-144 -90t-60 -250zM503 363h-408q1 -161 59 -252.5t145 -91.5t145 91.5t59 252.5z"></glyph><glyph glyph-name="iota" unicode="ι" d="M95 125v355h30v-355q0 -107 87 -107q28 0 69 9v-27q-36 -10 -71 -10q-56 0 -85.5 35t-29.5 100z"></glyph><glyph glyph-name="kappa" unicode="κ" d="M99 0v480h30v-480h-30zM190 258l248 -258h-40l-250 259l237 221h43z"></glyph><glyph glyph-name="lambda" unicode="λ" d="M523 25v-25q-15 -3 -31 -3q-58 0 -83 70l-140 382l-205 -449h-33l224 487l-59 159q-17 45 -38 65.5t-58 20.5q-13 0 -38 -5v27q20 6 40 6q44 0 72.5 -24t48.5 -77l213 -581q11 -30 24.5 -42t35.5 -12q20 0 27 1z"></glyph><glyph glyph-name="uni03BC" unicode="μ" d="M552 27v-27q-17 -4 -35 -4q-75 0 -86 82q-46 -88 -152 -88q-102 0 -150 86v-256h-30v660h30v-296q0 -72 42.5 -118.5t107.5 -46.5q66 0 108 46q43 46 43 119v296h30v-374q0 -82 61 -82q11 0 31 3z"></glyph><glyph glyph-name="nu" unicode="ν" d="M449 480h33l-215 -490h-15l-216 490h33l190 -437z"></glyph><glyph glyph-name="xi" unicode="ξ" d="M142 563q0 -65 44.5 -113t111.5 -48h104v-28h-120q-83 0 -131 -47.5t-48 -129.5q0 -67 42 -109t123 -55l47 -8q125 -21 125 -129q0 -41 -20 -76h-32q20 38 20 76q0 43 -24 67t-77 33l-51 8q-88 14 -136.5 66t-48.5 129t40 127.5t114 67.5q-55 21 -85 66.5t-30 102.5 q0 49 23.5 92t64.5 67h-127v28h374v-28h-148q-73 0 -114 -46t-41 -113z"></glyph><glyph glyph-name="omicron" unicode="ο" d="M60 240q-2 103 71.5 177.5t174.5 72.5q101 2 175 -72.5t72 -177.5q0 -104 -72.5 -177t-175.5 -73q-100 -2 -173.5 72.5t-71.5 177.5zM521 240q0 93 -62.5 157t-152.5 64q-91 0 -152.5 -63.5t-61.5 -157.5t61.5 -157.5t151.5 -63.5q91 0 153.5 64.5t62.5 156.5z"></glyph><glyph glyph-name="pi" unicode="π" d="M115 0v450h-85v30h520v-30h-85v-450h-30v450h-290v-450h-30z"></glyph><glyph glyph-name="rho" unicode="ρ" d="M564 241q0 -104 -69 -177.5t-168 -73.5q-69 0 -125.5 34.5t-80.5 91.5v-296h-30v420q0 110 64.5 180t165.5 70q104 0 173.5 -71.5t69.5 -177.5zM532 240q0 95 -59.5 158t-150.5 63t-146 -60t-55 -159t56.5 -161t146.5 -62q89 0 148.5 63t59.5 158z"></glyph><glyph glyph-name="uni03C2" unicode="ς" d="M399 -104q0 41 -22 64t-73 36l-57 14q-90 22 -138.5 81.5t-48.5 149.5q0 107 66 178t167 71q125 0 197 -95l-22 -18q-66 84 -173 84q-88 0 -145.5 -62.5t-57.5 -157.5q0 -161 168 -203l57 -14q60 -14 87 -44.5t27 -83.5q0 -41 -20 -76h-32q20 38 20 76z"></glyph><glyph glyph-name="sigma" unicode="σ" d="M615 480v-30h-198q60 -28 94.5 -84t34.5 -125q0 -106 -70 -178.5t-173 -72.5q-101 -2 -173 71.5t-70 176.5q0 101 70.5 171.5t173.5 70.5h311zM304 451q-91 0 -151.5 -60.5t-60.5 -152.5q0 -94 60.5 -156.5t150.5 -62.5t150.5 63.5t60.5 157.5q0 91 -59.5 151t-150.5 60z "></glyph><glyph glyph-name="tau" unicode="τ" d="M434 450h-206v-325q0 -107 107 -107q28 0 69 9v-27q-36 -10 -71 -10q-64 0 -99.5 35.5t-35.5 99.5v325h-178v30h414v-30z"></glyph><glyph glyph-name="upsilon" unicode="υ" d="M91 185v295h30v-295q0 -75 43 -120.5t113 -45.5t113 45.5t43 120.5v295h30v-295q0 -91 -50 -143t-136 -52t-136 52t-50 143z"></glyph><glyph glyph-name="phi" unicode="φ" d="M645 239q0 -112 -76.5 -180.5t-201.5 -68.5v-170h-30v170q-124 0 -200.5 68.5t-76.5 180.5t76.5 181.5t200.5 69.5v170h30v-170q124 0 201 -69.5t77 -181.5zM337 18v444q-111 0 -178 -61t-67 -162q0 -99 67 -160t178 -61zM613 239q0 99 -67.5 161t-178.5 62v-444 q111 0 178.5 61t67.5 160z"></glyph><glyph glyph-name="chi" unicode="χ" d="M489 -155v-25q-23 -3 -32 -3q-58 0 -90 66l-126 253l-165 -316h-33l183 345l-111 240q-13 27 -27 39t-38 12l-28 -1v25q23 3 31 3q33 0 53 -15.5t36 -51.5l103 -225l153 289h32l-170 -320l133 -265q14 -28 29.5 -39.5t39.5 -11.5q21 0 27 1z"></glyph><glyph glyph-name="psi" unicode="ψ" d="M332 -180v170q-107 0 -174 65.5t-67 168.5v256h30v-256q0 -90 59 -147.5t152 -57.5v641h30v-641q93 0 152 57.5t59 147.5v256h30v-256q0 -103 -67 -168.5t-174 -65.5v-170h-30z"></glyph><glyph glyph-name="omega" unicode="ω" d="M708 226q0 -108 -48 -172t-129 -64q-115 0 -147 112q-32 -112 -147 -112q-81 0 -129 64t-48 172q0 193 147 260l13 -27q-128 -65 -128 -233q0 -94 39.5 -150.5t104.5 -56.5q61 0 97 43.5t36 116.5v131h30v-131q0 -73 36 -116.5t97 -43.5q65 0 104.5 56.5t39.5 150.5 q0 168 -128 233l13 27q147 -67 147 -260z"></glyph><glyph glyph-name="iotadieresis" unicode="ϊ" d="M95 125v355h30v-355q0 -107 87 -107q28 0 69 9v-27q-36 -10 -71 -10q-56 0 -85.5 35t-29.5 100zM-5 666q0 14 10 24t24 10t24 -10t10 -24t-10 -24t-24 -10t-24 10t-10 24zM156 666q0 14 10 24t24 10t24 -10t10 -24t-10 -24t-24 -10t-24 10t-10 24z"></glyph><glyph glyph-name="upsilondieresis" unicode="ϋ" d="M91 185v295h30v-295q0 -75 43 -120.5t113 -45.5t113 45.5t43 120.5v295h30v-295q0 -91 -50 -143t-136 -52t-136 52t-50 143zM147 666q0 14 10 24t24 10t24 -10t10 -24t-10 -24t-24 -10t-24 10t-10 24zM338 666q0 14 10 24t24 10t24 -10t10 -24t-10 -24t-24 -10t-24 10 t-10 24z"></glyph><glyph glyph-name="omicrontonos" unicode="ό" d="M60 240q-2 103 71.5 177.5t174.5 72.5q101 2 175 -72.5t72 -177.5q0 -104 -72.5 -177t-175.5 -73q-100 -2 -173.5 72.5t-71.5 177.5zM521 240q0 93 -62.5 157t-152.5 64q-91 0 -152.5 -63.5t-61.5 -157.5t61.5 -157.5t151.5 -63.5q91 0 153.5 64.5t62.5 156.5zM293 562 l39 218h38v-5l-50 -213h-27z"></glyph><glyph glyph-name="upsilontonos" unicode="ύ" d="M91 185v295h30v-295q0 -75 43 -120.5t113 -45.5t113 45.5t43 120.5v295h30v-295q0 -91 -50 -143t-136 -52t-136 52t-50 143zM263 562l39 218h38v-5l-50 -213h-27z"></glyph><glyph glyph-name="omegatonos" unicode="ώ" d="M708 226q0 -108 -48 -172t-129 -64q-115 0 -147 112q-32 -112 -147 -112q-81 0 -129 64t-48 172q0 193 147 260l13 -27q-128 -65 -128 -233q0 -94 39.5 -150.5t104.5 -56.5q61 0 97 43.5t36 116.5v131h30v-131q0 -73 36 -116.5t97 -43.5q65 0 104.5 56.5t39.5 150.5 q0 168 -128 233l13 27q147 -67 147 -260zM370 562l39 218h38v-5l-50 -213h-27z"></glyph><glyph glyph-name="uni0400" unicode="Ѐ" d="M103 0v660h406v-29h-374v-257h294v-29h-294v-316h386v-29h-418zM288 724l-107 181v5h37l96 -186h-26z"></glyph><glyph glyph-name="uni0401" unicode="Ё" d="M103 0v660h406v-29h-374v-257h294v-29h-294v-316h386v-29h-418zM156 806q0 14 10 24t24 10t24 -10t10 -24t-10 -24t-24 -10t-24 10t-10 24zM377 806q0 14 10 24t24 10t24 -10t10 -24t-10 -24t-24 -10t-24 10t-10 24z"></glyph><glyph glyph-name="uni0402" unicode="Ђ" d="M470 -10l-5 26q187 28 187 182q0 83 -52.5 128.5t-143.5 45.5q-95 0 -168 -40v-332h-32v631h-229v29h520v-29h-259v-269q70 40 169 40q106 0 166.5 -53.5t60.5 -151.5q0 -89 -58 -142t-156 -65z"></glyph><glyph glyph-name="uni0403" unicode="Ѓ" d="M103 0v660h366v-29h-334v-631h-32zM233 724l96 186h37v-5l-107 -181h-26z"></glyph><glyph glyph-name="uni0404" unicode="Є" d="M628 138l24 -19q-46 -61 -114 -95t-147 -34q-137 -3 -236.5 98.5t-97.5 241.5q-2 141 97 242t237 98q79 0 147 -34t114 -95l-24 -19q-88 117 -236 117q-122 0 -207 -81t-93 -204h358v-29h-359q2 -128 88.5 -216t212.5 -88q148 0 236 117z"></glyph><glyph glyph-name="uni0405" unicode="Ѕ" d="M50 129l24 18q80 -126 210 -126q72 0 117.5 37.5t45.5 100.5q0 55 -27 84t-104 67l-76 36q-46 22 -74 40q-69 45 -69 128q0 73 53 114q54 42 133 42q123 0 191 -100l-24 -19q-64 88 -165 88q-61 0 -108 -30q-46 -30 -46 -93q3 -55 29 -81.5t95 -60.5l76 -36 q80 -38 115 -77t35 -102q0 -75 -56.5 -122t-141.5 -47q-148 0 -233 139z"></glyph><glyph glyph-name="uni0406" unicode="І" d="M103 0v660h32v-660h-32z"></glyph><glyph glyph-name="uni0407" unicode="Ї" d="M103 0v660h32v-660h-32zM-26 806q0 14 10 24t24 10t24 -10t10 -24t-10 -24t-24 -10t-24 10t-10 24zM195 806q0 14 10 24t24 10t24 -10t10 -24t-10 -24t-24 -10t-24 10t-10 24z"></glyph><glyph glyph-name="uni0408" unicode="Ј" d="M30 0v29q46 -8 77 -8q119 0 119 114v525h32v-525q0 -73 -39.5 -109t-110.5 -36q-38 0 -78 10z"></glyph><glyph glyph-name="uni0409" unicode="Љ" d="M920 184q0 -81 -53.5 -132.5t-146.5 -51.5h-219v631h-286l-4 -130q-7 -271 -50 -387t-125 -116q-8 0 -16 2v30q10 -2 16 -2q68 0 103 116t41 357l4 159h349v-291h187q93 0 146.5 -52t53.5 -133zM887 185q0 70 -44.5 112.5t-124.5 42.5h-185v-311h185q80 0 124.5 42.5 t44.5 113.5z"></glyph><glyph glyph-name="uni040A" unicode="Њ" d="M103 0v660h32v-286h374v286h32v-286h174q100 0 156.5 -52.5t56.5 -134.5t-56.5 -134.5t-156.5 -52.5h-206v345h-374v-345h-32zM541 29h172q85 0 133.5 43.5t48.5 113.5q0 71 -48.5 115t-133.5 44h-172v-316z"></glyph><glyph glyph-name="uni040B" unicode="Ћ" d="M684 168v-168h-32v168q0 99 -52 151.5t-144 52.5q-86 0 -168 -40v-332h-32v631h-229v29h520v-29h-259v-269q78 40 169 40q105 0 166 -61.5t61 -172.5z"></glyph><glyph glyph-name="uni040C" unicode="Ќ" d="M103 0v660h32v-660h-32zM198 359l360 -359h-43l-361 359l337 301h45zM285 724l96 186h37v-5l-107 -181h-26z"></glyph><glyph glyph-name="uni040D" unicode="Ѝ" d="M596 670h15v-670h-32v603l-461 -613h-15v670h32v-603zM344 724l-107 181v5h37l96 -186h-26z"></glyph><glyph glyph-name="uni040E" unicode="Ў" d="M543 660h34l-238 -551q-27 -62 -63 -89t-91 -27q-33 0 -57 7v30q21 -7 56 -7q48 0 77 21.5t50 70.5l10 23l-262 522h34l243 -487zM168 876v34h30v-32q0 -56 28 -87.5t77 -31.5t77 31.5t28 87.5v32h30v-34q0 -66 -36.5 -105t-98.5 -39t-98.5 39t-36.5 105z"></glyph><glyph glyph-name="uni040F" unicode="Џ" d="M591 660v-660h-228v-141h-32v141h-228v660h32v-631h424v631h32z"></glyph><glyph glyph-name="uni0410" unicode="А" d="M587 0l-73 175h-364l-72 -175h-33l280 670h15l280 -670h-33zM332 614l-170 -410h340z"></glyph><glyph glyph-name="uni0411" unicode="Б" d="M103 0v660h361v-29h-329v-262h182q93 0 146.5 -52t53.5 -133t-53.5 -132.5t-146.5 -51.5h-214zM135 29h180q80 0 124.5 42.5t44.5 113.5q0 70 -44.5 112.5t-124.5 42.5h-180v-311z"></glyph><glyph glyph-name="uni0412" unicode="В" d="M560 187q0 -83 -54.5 -135t-148.5 -52h-254v660h222q80 0 125 -43t45 -113q0 -99 -89 -138q73 -12 113.5 -60t40.5 -119zM322 632l-187 -1v-257h187q67 0 103.5 35t36.5 94t-35.5 94.5t-104.5 34.5zM527 186q0 71 -46 115t-126 44h-220v-316h220q80 0 126 43.5t46 113.5z "></glyph><glyph glyph-name="uni0413" unicode="Г" d="M103 0v660h366v-29h-334v-631h-32z"></glyph><glyph glyph-name="uni0414" unicode="Д" d="M545 29h85v-170h-32v141h-556v-141h-32v170h61q51 63 72.5 162.5t28.5 316.5l4 152h369v-631zM111 29h402v602h-306l-4 -124q-6 -199 -27 -308q-19 -109 -65 -170z"></glyph><glyph glyph-name="uni0415" unicode="Е" d="M103 0v660h406v-29h-374v-257h294v-29h-294v-316h386v-29h-418z"></glyph><glyph glyph-name="uni0416" unicode="Ж" d="M60 660h46l317 -301l-341 -359h-42l342 358zM442 0v660h32v-660h-32zM534 359l343 -359h-43l-341 359l317 301h45z"></glyph><glyph glyph-name="uni0417" unicode="З" d="M522 186q0 -85 -60.5 -140.5t-158.5 -55.5q-171 0 -246 138l24 19q69 -126 221 -126q84 0 135.5 46t51.5 118q0 66 -47 113t-125 47h-110v29h102q66 0 103 36.5t37 95.5q0 61 -40.5 97t-113.5 36q-115 0 -177 -89l-24 19q72 101 202 101q85 0 135.5 -46.5t50.5 -116.5 q0 -50 -26 -88t-74 -56q66 -17 103 -65.5t37 -111.5z"></glyph><glyph glyph-name="uni0418" unicode="И" d="M596 670h15v-670h-32v603l-461 -613h-15v670h32v-603z"></glyph><glyph glyph-name="uni0419" unicode="Й" d="M596 670h15v-670h-32v603l-461 -613h-15v670h32v-603zM222 876v34h30v-32q0 -56 28 -87.5t77 -31.5t77 31.5t28 87.5v32h30v-34q0 -66 -36.5 -105t-98.5 -39t-98.5 39t-36.5 105z"></glyph><glyph glyph-name="uni041A" unicode="К" d="M103 0v660h32v-660h-32zM198 359l360 -359h-43l-361 359l337 301h45z"></glyph><glyph glyph-name="uni041B" unicode="Л" d="M184 660h369v-660h-32v631h-306l-4 -130q-7 -271 -50 -387t-125 -116q-8 0 -16 2v30q10 -2 16 -2q68 0 103 116t41 357z"></glyph><glyph glyph-name="uni041C" unicode="М" d="M664 670h15v-670h-32v585l-248 -364h-15l-249 364v-585h-32v670h15l273 -402z"></glyph><glyph glyph-name="uni041D" unicode="Н" d="M103 0v660h32v-286h434v286h32v-660h-32v345h-434v-345h-32z"></glyph><glyph glyph-name="uni041E" unicode="О" d="M57 330q-2 141 97 242t237 98q137 2 237.5 -99t98.5 -241q2 -140 -98.5 -241.5t-237.5 -98.5q-137 -3 -236.5 98.5t-97.5 241.5zM693 331q2 127 -87 218.5t-214 89.5q-125 2 -214 -89t-87 -219q-2 -129 86.5 -220.5t214.5 -89.5q125 -2 214 90t87 220z"></glyph><glyph glyph-name="uni041F" unicode="П" d="M103 0v660h488v-660h-32v631h-424v-631h-32z"></glyph><glyph glyph-name="uni0420" unicode="Р" d="M103 0v660h219q88 0 139 -48.5t51 -125.5q0 -78 -51 -126.5t-139 -48.5h-187v-311h-32zM135 340h185q76 0 117.5 40t41.5 105q0 66 -42 106t-117 40h-185v-291z"></glyph><glyph glyph-name="uni0421" unicode="С" d="M57 330q-2 141 97 242t237 98q79 0 147 -34t114 -95l-24 -19q-88 117 -236 117q-126 2 -214.5 -88.5t-86.5 -219.5q-2 -129 86.5 -220.5t214.5 -89.5q148 0 236 117l24 -19q-46 -61 -114 -95t-147 -34q-137 -3 -236.5 98.5t-97.5 241.5z"></glyph><glyph glyph-name="uni0422" unicode="Т" d="M276 0v631h-249v29h530v-29h-249v-631h-32z"></glyph><glyph glyph-name="uni0423" unicode="У" d="M543 660h34l-238 -551q-27 -62 -63 -89t-91 -27q-33 0 -57 7v30q21 -7 56 -7q48 0 77 21.5t50 70.5l10 23l-262 522h34l243 -487z"></glyph><glyph glyph-name="uni0424" unicode="Ф" d="M698 334q0 -121 -86.5 -193t-223.5 -72v-89h-32v89q-137 0 -223 72t-86 193q0 119 86 191t223 72v83h32v-83q137 0 223.5 -72t86.5 -191zM356 99v468q-125 0 -200 -62t-75 -171t75.5 -172t199.5 -63zM664 334q0 109 -75.5 171t-200.5 62v-468q125 0 200.5 63t75.5 172z "></glyph><glyph glyph-name="uni0425" unicode="Х" d="M539 0h-37l-212 313l-213 -313h-37l232 340l-215 320h37l197 -295l194 295h37l-213 -321z"></glyph><glyph glyph-name="uni0426" unicode="Ц" d="M644 -141v141h-541v660h32v-631h424v631h32v-631h85v-170h-32z"></glyph><glyph glyph-name="uni0427" unicode="Ч" d="M521 660h32v-660h-32v298q-87 -35 -202 -35q-112 0 -173 60t-61 179v158h32v-158q0 -209 203 -209q113 0 201 35v332z"></glyph><glyph glyph-name="uni0428" unicode="Ш" d="M103 0v660h32v-631h334v631h32v-631h334v631h32v-660h-764z"></glyph><glyph glyph-name="uni0429" unicode="Щ" d="M920 -141v141h-817v660h32v-631h334v631h32v-631h334v631h32v-631h85v-170h-32z"></glyph><glyph glyph-name="uni042A" unicode="Ъ" d="M182 0v631h-155v29h187v-291h187q93 0 146.5 -52t53.5 -133t-53.5 -132.5t-146.5 -51.5h-219zM214 29h185q80 0 124.5 42.5t44.5 113.5q0 70 -44.5 112.5t-124.5 42.5h-185v-311z"></glyph><glyph glyph-name="uni042B" unicode="Ы" d="M103 0v660h32v-291h187q93 0 146.5 -52t53.5 -133t-53.5 -132.5t-146.5 -51.5h-219zM135 29h185q80 0 124.5 42.5t44.5 113.5q0 70 -44.5 112.5t-124.5 42.5h-185v-311zM660 0v660h32v-660h-32z"></glyph><glyph glyph-name="uni042C" unicode="Ь" d="M103 0v660h32v-291h187q93 0 146.5 -52t53.5 -133t-53.5 -132.5t-146.5 -51.5h-219zM135 29h185q80 0 124.5 42.5t44.5 113.5q0 70 -44.5 112.5t-124.5 42.5h-185v-311z"></glyph><glyph glyph-name="uni042D" unicode="Э" d="M652 330q2 -140 -97.5 -241.5t-236.5 -98.5q-79 0 -147 34t-114 95l24 19q88 -117 236 -117q126 0 212.5 88t88.5 216h-359v29h358q-8 123 -93 204t-207 81q-148 0 -236 -117l-24 19q46 61 114 95t147 34q138 3 237 -98t97 -242z"></glyph><glyph glyph-name="uni042E" unicode="Ю" d="M937 330q2 -140 -96 -241.5t-230 -98.5q-133 -3 -230 98.5t-94 241.5v15h-152v-345h-32v660h32v-286h155q15 127 106.5 211.5t214.5 84.5q133 2 231 -99t95 -241zM903 331q2 127 -84 218.5t-207 89.5q-121 2 -207 -89t-84 -219q-2 -129 83.5 -220.5t207.5 -89.5 q121 -2 207 90t84 220z"></glyph><glyph glyph-name="uni042F" unicode="Я" d="M280 660h209v-660h-32v291h-169l-199 -291h-39l200 293q-78 9 -124 58.5t-46 124.5q0 84 54 133q56 51 146 51zM457 320v311h-175q-78 0 -123.5 -42t-45.5 -114t45.5 -113.5t123.5 -41.5h175z"></glyph><glyph glyph-name="uni0430" unicode="а" d="M425 305v-305h-30v85q-26 -45 -73.5 -70t-105.5 -25q-68 0 -116 33t-48 94q0 57 44.5 90.5t119.5 33.5h179v65q0 75 -39 115t-106 40q-88 0 -151 -84l-22 18q71 95 175 95q79 0 126 -48.5t47 -136.5zM395 175v38h-178q-63 0 -98 -25t-35 -69q0 -47 38 -73.5t95 -26.5 q73 0 125.5 45.5t52.5 110.5z"></glyph><glyph glyph-name="uni0431" unicode="б" d="M558 240q0 -104 -72.5 -177t-175.5 -73q-104 0 -174.5 72.5t-70.5 185.5v117q0 159 62 239.5t209 105.5q77 13 113.5 22.5t63.5 25.5v-31q-51 -27 -173 -47q-144 -27 -195 -94.5t-53 -217.5v-31q29 71 87.5 112t131.5 41q101 2 175 -72.5t72 -177.5zM526 240 q0 92 -62.5 156.5t-152.5 64.5q-91 0 -152.5 -63.5t-61.5 -157.5t61.5 -157.5t151.5 -63.5q91 0 153.5 64.5t62.5 156.5z"></glyph><glyph glyph-name="uni0432" unicode="в" d="M457 136q0 -61 -43.5 -98.5t-119.5 -37.5h-195v480h188q65 0 101.5 -31t36.5 -84q0 -81 -73 -111q105 -25 105 -118zM129 452v-187h155q53 0 81 27t28 72q0 88 -109 88h-155zM425 135q0 46 -35 74t-98 28h-163v-209h163q62 0 97.5 30t35.5 77z"></glyph><glyph glyph-name="uni0433" unicode="г" d="M99 0v480h295v-28h-265v-452h-30z"></glyph><glyph glyph-name="uni0434" unicode="д" d="M430 28h75v-169h-30v141h-435v-141h-30v169h45q37 40 53 114q17 72 25 228l5 110h292v-452zM93 28h307v424h-234l-4 -83q-13 -266 -69 -341z"></glyph><glyph glyph-name="uni0435" unicode="е" d="M510 237h-418q0 -92 62 -155t151 -63q106 0 171 84l22 -18q-34 -45 -85 -70t-108 -25q-101 0 -173 73.5t-72 176.5t70.5 176.5t169.5 73.5q89 0 151 -58.5t62 -153.5q0 -17 -3 -41zM93 265h388q6 87 -48.5 141.5t-134.5 54.5t-138.5 -56.5t-66.5 -139.5z"></glyph><glyph glyph-name="uni0436" unicode="ж" d="M53 480h43l229 -220l-255 -260h-40l254 260zM344 0v480h30v-480h-30zM434 260l254 -260h-40l-255 260l229 220h43z"></glyph><glyph glyph-name="uni0437" unicode="з" d="M403 133q0 -64 -46.5 -103.5t-124.5 -39.5q-116 0 -177 96l24 18q54 -85 153 -85q65 0 102 31.5t37 82.5q0 50 -36 78.5t-104 28.5h-72v29h75q55 0 84 27t29 71q0 45 -30 69.5t-84 24.5q-83 0 -134 -67l-21 18q56 78 155 78q68 0 107 -33.5t39 -88.5q0 -83 -83 -112 q49 -12 78 -46t29 -77z"></glyph><glyph glyph-name="uni0438" unicode="и" d="M445 490h15v-490h-30v427l-316 -437h-15v490h30v-427z"></glyph><glyph glyph-name="uni0439" unicode="й" d="M445 490h15v-490h-30v427l-316 -437h-15v490h30v-427zM145 719v34h30v-32q0 -56 28 -87.5t77 -31.5t77 31.5t28 87.5v32h30v-34q0 -66 -36.5 -105t-98.5 -39t-98.5 39t-36.5 105z"></glyph><glyph glyph-name="uni043A" unicode="к" d="M99 0v480h30v-480h-30zM190 260l253 -260h-40l-255 260l229 220h43z"></glyph><glyph glyph-name="uni043B" unicode="л" d="M151 480h282v-480h-30v452h-224l-4 -83q-7 -140 -22 -226q-14 -78 -41 -111.5t-76 -33.5q-8 0 -16 2v28q5 -1 16 -1q58 4 79.5 77.5t30.5 265.5z"></glyph><glyph glyph-name="uni043C" unicode="м" d="M99 0v490h15l229 -296l228 296h15v-490h-30v420l-205 -264h-16l-206 265v-421h-30z"></glyph><glyph glyph-name="uni043D" unicode="н" d="M99 0v480h30v-204h291v204h30v-480h-30v247h-291v-247h-30z"></glyph><glyph glyph-name="uni043E" unicode="о" d="M60 240q-2 103 71.5 177.5t174.5 72.5q101 2 175 -72.5t72 -177.5q0 -104 -72.5 -177t-175.5 -73q-100 -2 -173.5 72.5t-71.5 177.5zM521 240q0 93 -62.5 157t-152.5 64q-91 0 -152.5 -63.5t-61.5 -157.5t61.5 -157.5t151.5 -63.5q91 0 153.5 64.5t62.5 156.5z"></glyph><glyph glyph-name="uni043F" unicode="п" d="M99 0v480h341v-480h-30v452h-281v-452h-30z"></glyph><glyph glyph-name="uni0440" unicode="р" d="M575 240q0 -104 -69.5 -177t-170.5 -73q-67 0 -124 34t-82 91v-295h-30v660h30v-115q25 57 82 91t124 34q101 0 170.5 -73.5t69.5 -176.5zM543 240q0 93 -59.5 157t-148.5 64q-87 0 -146.5 -57.5t-59.5 -163.5t59.5 -163.5t146.5 -57.5q90 0 149 63.5t59 157.5z"></glyph><glyph glyph-name="uni0441" unicode="с" d="M60 240q0 104 71.5 177t174.5 73q118 0 192 -95l-22 -18q-65 84 -170 84q-90 0 -152 -64t-62 -157t61.5 -157t151.5 -64q106 0 171 84l22 -18q-74 -95 -193 -95q-100 -2 -173.5 73.5t-71.5 176.5z"></glyph><glyph glyph-name="uni0442" unicode="т" d="M215 0v452h-187v28h403v-28h-186v-452h-30z"></glyph><glyph glyph-name="uni0443" unicode="у" d="M449 480h33l-243 -568q-44 -102 -139 -102q-32 0 -64 9v27q40 -8 62 -8q78 0 115 87l34 81l-211 474h33l194 -435z"></glyph><glyph glyph-name="uni0444" unicode="ф" d="M625 240q0 -111 -74.5 -180.5t-193.5 -69.5v-170h-30v170q-119 0 -193 69.5t-74 180.5q0 108 74.5 179t192.5 71v260h30v-260q117 0 192.5 -71t75.5 -179zM327 18v444q-105 0 -170 -62t-65 -160q0 -99 64.5 -160.5t170.5 -61.5zM593 240q0 97 -65.5 159.5t-170.5 62.5 v-444q107 0 171.5 61.5t64.5 160.5z"></glyph><glyph glyph-name="uni0445" unicode="х" d="M437 0h-37l-167 228l-166 -228h-37l184 252l-168 228h37l150 -204l151 204h37l-169 -228z"></glyph><glyph glyph-name="uni0446" unicode="ц" d="M485 -141v141h-386v480h30v-452h281v452h30v-452h75v-169h-30z"></glyph><glyph glyph-name="uni0447" unicode="ч" d="M371 480h30v-480h-30v226q-52 -26 -131 -26q-85 0 -132.5 46t-47.5 134v100h30v-100q0 -152 149 -152q80 0 132 26v226z"></glyph><glyph glyph-name="uni0448" unicode="ш" d="M99 0v480h30v-452h262v452h30v-452h262v452h30v-480h-614z"></glyph><glyph glyph-name="uni0449" unicode="щ" d="M758 -141v141h-659v480h30v-452h262v452h30v-452h262v452h30v-452h75v-169h-30z"></glyph><glyph glyph-name="uni044A" unicode="ъ" d="M163 0v452h-135v28h165v-190h135q79 0 124 -39t45 -105q0 -67 -45 -106.5t-124 -39.5h-165zM193 28h133q66 0 102.5 32t36.5 85t-36.5 85t-102.5 32h-133v-234z"></glyph><glyph glyph-name="uni044B" unicode="ы" d="M99 0v480h30v-190h135q79 0 124 -39t45 -105q0 -67 -45 -106.5t-124 -39.5h-165zM550 0v480h30v-480h-30zM129 28h133q66 0 102.5 32t36.5 85t-36.5 85t-102.5 32h-133v-234z"></glyph><glyph glyph-name="uni044C" unicode="ь" d="M99 0v480h30v-190h135q79 0 124 -39t45 -105q0 -67 -45 -106.5t-124 -39.5h-165zM129 28h133q66 0 102.5 32t36.5 85t-36.5 85t-102.5 32h-133v-234z"></glyph><glyph glyph-name="uni044D" unicode="э" d="M493 240q2 -102 -72 -177t-173 -73q-57 0 -108 25t-85 70l22 18q65 -84 171 -84q89 0 150 63t63 154h-256v28h255q-8 84 -68.5 140.5t-144.5 56.5q-105 0 -170 -84l-22 18q74 95 192 95q100 2 174 -73.5t72 -176.5z"></glyph><glyph glyph-name="uni044E" unicode="ю" d="M738 240q2 -101 -71.5 -176.5t-171.5 -73.5q-99 0 -170 73.5t-71 176.5v7h-125v-247h-30v480h30v-204h127q12 91 80.5 152.5t159.5 61.5q98 2 171 -73.5t71 -176.5zM706 240q0 93 -60.5 157t-149.5 64t-149.5 -64t-60.5 -157q0 -92 60.5 -156.5t148.5 -64.5 q90 0 150.5 64t60.5 157z"></glyph><glyph glyph-name="uni044F" unicode="я" d="M251 480h165v-480h-30v200h-132l-157 -200h-37l159 202q-63 7 -100 43.5t-37 93.5q0 65 45.5 103t123.5 38zM386 228v224h-133q-64 0 -101.5 -30t-37.5 -82t37.5 -82t101.5 -30h133z"></glyph><glyph glyph-name="uni0450" unicode="ѐ" d="M510 237h-418q0 -92 62 -155t151 -63q106 0 171 84l22 -18q-34 -45 -85 -70t-108 -25q-101 0 -173 73.5t-72 176.5t70.5 176.5t169.5 73.5q89 0 151 -58.5t62 -153.5q0 -17 -3 -41zM93 265h388q6 87 -48.5 141.5t-134.5 54.5t-138.5 -56.5t-66.5 -139.5zM281 562 l-107 213v5h37l96 -218h-26z"></glyph><glyph glyph-name="uni0451" unicode="ё" d="M510 237h-418q0 -92 62 -155t151 -63q106 0 171 84l22 -18q-34 -45 -85 -70t-108 -25q-101 0 -173 73.5t-72 176.5t70.5 176.5t169.5 73.5q89 0 151 -58.5t62 -153.5q0 -17 -3 -41zM93 265h388q6 87 -48.5 141.5t-134.5 54.5t-138.5 -56.5t-66.5 -139.5zM161 666 q0 14 10 24t24 10t24 -10t10 -24t-10 -24t-24 -10t-24 10t-10 24zM352 666q0 14 10 24t24 10t24 -10t10 -24t-10 -24t-24 -10t-24 10t-10 24z"></glyph><glyph glyph-name="uni0452" unicode="ђ" d="M460 305v-360q0 -68 -36 -101.5t-100 -33.5q-26 0 -50 6v27q32 -5 48 -5q108 0 108 107v360q0 70 -39.5 113t-105.5 43q-68 0 -112 -44t-44 -112v-305h-30v604h-86v28h86v118h30v-118h210v-28h-210v-201q49 87 157 87q80 0 127 -51t47 -134z"></glyph><glyph glyph-name="uni0453" unicode="ѓ" d="M99 0v480h295v-28h-265v-452h-30zM219 562l96 218h37v-5l-107 -213h-26z"></glyph><glyph glyph-name="uni0454" unicode="є" d="M476 103l22 -18q-34 -45 -85 -70t-108 -25q-99 -2 -173 73t-72 177q-2 101 72 176.5t174 73.5q118 0 192 -95l-22 -18q-65 84 -170 84q-84 0 -144.5 -56.5t-68.5 -140.5h255v-28h-256q2 -91 63 -154t150 -63q106 0 171 84z"></glyph><glyph glyph-name="uni0455" unicode="ѕ" d="M52 95l24 18q66 -94 158 -94q53 0 86.5 25.5t33.5 71.5q-3 43 -26 64t-83 48l-42 19q-61 27 -89 54t-28 70q0 55 43 86q43 33 103 33q89 0 151 -77l-22 -20q-57 68 -131 68q-48 0 -80 -23.5t-32 -65.5q1 -17 6.5 -29.5t9.5 -19.5t21.5 -17.5t25 -14t38.5 -18.5l45 -20 q62 -27 92 -57t30 -78q0 -60 -45 -94q-44 -34 -109 -34q-112 0 -180 105z"></glyph><glyph glyph-name="uni0456" unicode="і" d="M96 666q0 14 10 24t24 10t24 -10t10 -24t-10 -24t-24 -10t-24 10t-10 24zM115 0v480h30v-480h-30z"></glyph><glyph glyph-name="uni0457" unicode="ї" d="M27 666q0 14 9.5 23.5t22.5 9.5q14 0 23.5 -9.5t9.5 -23.5q0 -13 -9.5 -22.5t-23.5 -9.5q-13 0 -22.5 9.5t-9.5 22.5zM148 666q0 14 9.5 23.5t22.5 9.5q14 0 23.5 -9.5t9.5 -23.5q0 -13 -9.5 -22.5t-23.5 -9.5q-13 0 -22.5 9.5t-9.5 22.5zM105 0v480h30v-480h-30z"></glyph><glyph glyph-name="uni0458" unicode="ј" d="M-57 -184v27q32 -5 48 -5q108 0 108 107v535h30v-535q0 -68 -36 -101.5t-100 -33.5q-26 0 -50 6zM80 666q0 14 10 24t24 10t24 -10t10 -24t-10 -24t-24 -10t-24 10t-10 24z"></glyph><glyph glyph-name="uni0459" unicode="љ" d="M712 146q0 -67 -45 -106.5t-124 -39.5h-155v452h-209l-4 -83q-7 -140 -22 -226q-14 -78 -41 -111.5t-76 -33.5q-8 0 -16 2v28q5 -1 16 -1q58 4 79.5 77.5t30.5 265.5l5 110h267v-190h125q79 0 124 -39t45 -105zM680 145q0 53 -36.5 85t-102.5 32h-123v-234h123 q66 0 102.5 32t36.5 85z"></glyph><glyph glyph-name="uni045A" unicode="њ" d="M739 145q0 -66 -44.5 -105.5t-124.5 -39.5h-170v257h-271v-257h-30v480h30v-195h271v195h30v-195h140q80 0 124.5 -37.5t44.5 -102.5zM707 144q0 52 -36.5 82.5t-102.5 30.5h-138v-229h138q66 0 102.5 31.5t36.5 84.5z"></glyph><glyph glyph-name="uni045B" unicode="ћ" d="M460 305v-305h-30v305q0 70 -39.5 113t-105.5 43q-68 0 -112 -44t-44 -112v-305h-30v604h-86v28h86v118h30v-118h210v-28h-210v-201q49 87 157 87q80 0 127 -51t47 -134z"></glyph><glyph glyph-name="uni045C" unicode="ќ" d="M99 0v480h30v-480h-30zM190 260l253 -260h-40l-255 260l229 220h43zM228 562l96 218h37v-5l-107 -213h-26z"></glyph><glyph glyph-name="uni045D" unicode="ѝ" d="M445 490h15v-490h-30v427l-316 -437h-15v490h30v-427zM270 562l-107 213v5h37l96 -218h-26z"></glyph><glyph glyph-name="uni045E" unicode="ў" d="M449 480h33l-243 -568q-44 -102 -139 -102q-32 0 -64 9v27q40 -8 62 -8q78 0 115 87l34 81l-211 474h33l194 -435zM124 719v34h30v-32q0 -56 28 -87.5t77 -31.5t77 31.5t28 87.5v32h30v-34q0 -66 -36.5 -105t-98.5 -39t-98.5 39t-36.5 105z"></glyph><glyph glyph-name="uni045F" unicode="џ" d="M441 480v-480h-156v-141h-30v141h-156v480h30v-451h282v451h30z"></glyph><glyph glyph-name="uni0462" unicode="Ѣ" d="M153 0v514h-126v28h126v118h32v-118h218v-28h-218v-145h177q93 0 146.5 -52t53.5 -133t-53.5 -132.5t-146.5 -51.5h-209zM185 29h175q80 0 124.5 42.5t44.5 113.5q0 70 -44.5 112.5t-124.5 42.5h-175v-311z"></glyph><glyph glyph-name="uni0463" unicode="ѣ" d="M129 0v452h-116v28h116v270h30v-270h170v-28h-170v-162h135q79 0 124 -39t45 -105q0 -67 -45 -106.5t-124 -39.5h-165zM159 28h133q66 0 102.5 32t36.5 85t-36.5 85t-102.5 32h-133v-234z"></glyph><glyph glyph-name="uni0472" unicode="Ѳ" d="M727 330q2 -140 -98.5 -241.5t-237.5 -98.5q-137 -3 -236.5 98.5t-97.5 241.5q-2 141 97 242t237 98q137 2 237.5 -99t98.5 -241zM91 343q78 34 160 34q55 0 145 -24q85 -24 142 -24q76 0 154 30q-11 120 -95.5 200t-204.5 80q-122 2 -210.5 -85t-90.5 -211zM693 329 q-75 -31 -155 -31q-60 0 -149 25q-57 14 -77 17q-28 6 -61 6q-78 0 -159 -34q6 -124 91.5 -207.5t208.5 -83.5q124 -2 213.5 89.5t87.5 218.5z"></glyph><glyph glyph-name="uni0473" unicode="ѳ" d="M553 240q2 -101 -73 -176.5t-175 -73.5q-99 -2 -173 73t-72 177q-2 101 72 176.5t174 73.5q100 2 174.5 -73.5t72.5 -176.5zM93 256q57 23 107 23q36 0 108 -20q68 -20 105 -20q50 0 107 22q-8 85 -68 142.5t-146 57.5q-85 0 -146.5 -59.5t-66.5 -145.5zM521 233 q-57 -22 -108 -22q-45 0 -111 21q-70 19 -102 19q-45 0 -108 -23q5 -88 66 -148.5t148 -60.5q88 0 150.5 62.5t64.5 151.5z"></glyph><glyph glyph-name="uni0474" unicode="Ѵ" d="M690 660v-30q-17 4 -34 4q-26 0 -43.5 -18t-35.5 -59l-237 -567h-15l-280 670h33l255 -611l217 520q22 51 45 73t61 22q17 0 34 -4z"></glyph><glyph glyph-name="uni0475" unicode="ѵ" d="M534 480v-26l-23 1q-40 0 -64 -56l-180 -409h-15l-216 490h33l190 -437l161 370q30 70 87 70q12 0 27 -3z"></glyph><glyph glyph-name="uni0490" unicode="Ґ" d="M103 0v660h321v121h32v-150h-321v-631h-32z"></glyph><glyph glyph-name="uni0491" unicode="ґ" d="M99 0v480h265v121h30v-149h-265v-452h-30z"></glyph><glyph glyph-name="uni0492" unicode="Ғ" d="M466 631h-331v-306h187v-28h-187v-297h-32v297h-103v28h103v335h363v-29z"></glyph><glyph glyph-name="uni0493" unicode="ғ" d="M411 452h-285v-201h161v-28h-161v-223h-30v223h-86v28h86v229h315v-28z"></glyph><glyph glyph-name="uni0496" unicode="Җ" d="M62 660h45l317 -301l-341 -359h-43l343 359zM443 0v660h32v-660h-32zM850 29h64v-170h-32v141h-47l-341 359l317 301h45l-321 -302z"></glyph><glyph glyph-name="uni0497" unicode="җ" d="M53 480h43l229 -220l-255 -260h-40l254 260zM344 0v480h30v-480h-30zM660 28h62v-169h-30v141h-44l-255 260l229 220h43l-231 -220z"></glyph><glyph glyph-name="uni0498" unicode="Ҙ" d="M522 186q0 -85 -60.5 -140.5t-158.5 -55.5q-171 0 -246 138l24 19q69 -126 221 -126q84 0 135.5 46t51.5 118q0 66 -47 113t-125 47h-110v29h102q66 0 103 36.5t37 95.5q0 61 -40.5 97t-113.5 36q-115 0 -177 -89l-24 19q72 101 202 101q85 0 135.5 -46.5t50.5 -116.5 q0 -50 -26 -88t-74 -56q66 -17 103 -65.5t37 -111.5zM189 -180v27q41 -9 62 -9q37 0 60 20t23 57q0 45 -51 85l9 13q74 -32 74 -100q0 -44 -31 -73.5t-81 -29.5q-32 0 -65 10z"></glyph><glyph glyph-name="uni0499" unicode="ҙ" d="M403 133q0 -64 -46.5 -103.5t-124.5 -39.5q-116 0 -177 96l24 18q54 -85 153 -85q65 0 102 31.5t37 82.5q0 50 -36 78.5t-104 28.5h-72v29h75q55 0 84 27t29 71q0 45 -30 69.5t-84 24.5q-83 0 -134 -67l-21 18q56 78 155 78q68 0 107 -33.5t39 -88.5q0 -83 -83 -112 q49 -12 78 -46t29 -77zM122 -180v27q41 -9 62 -9q37 0 60 20t23 57q0 45 -51 85l9 13q74 -32 74 -100q0 -44 -31 -73.5t-81 -29.5q-32 0 -65 10z"></glyph><glyph glyph-name="uni049A" unicode="Қ" d="M103 0v660h32v-660h-32zM528 29h66v-170h-32v141h-47l-361 359l337 301h45l-339 -301z"></glyph><glyph glyph-name="uni049B" unicode="қ" d="M99 0v480h30v-480h-30zM415 28h62v-169h-30v141h-44l-255 260l229 220h43l-230 -220z"></glyph><glyph glyph-name="uni04A0" unicode="Ҡ" d="M28 631v29h286v-660h-32v631h-254zM377 359l360 -359h-43l-361 359l337 301h45z"></glyph><glyph glyph-name="uni04A1" unicode="ҡ" d="M28 452v28h216v-480h-30v452h-186zM305 260l253 -260h-40l-255 260l229 220h43z"></glyph><glyph glyph-name="uni04A2" unicode="Ң" d="M654 -141v141h-85v345h-434v-345h-32v660h32v-286h434v286h32v-631h85v-170h-32z"></glyph><glyph glyph-name="uni04A3" unicode="ң" d="M505 -141v141h-75v247h-301v-247h-30v480h30v-205h301v205h30v-452h75v-169h-30z"></glyph><glyph glyph-name="uni04AA" unicode="Ҫ" d="M57 330q-2 141 97 242t237 98q79 0 147 -34t114 -95l-24 -19q-88 117 -236 117q-126 2 -214.5 -88.5t-86.5 -219.5q-2 -129 86.5 -220.5t214.5 -89.5q148 0 236 117l24 -19q-46 -61 -114 -95t-147 -34q-137 -3 -236.5 98.5t-97.5 241.5zM283 -180v27q41 -9 62 -9 q37 0 60 20t23 57q0 45 -51 85l9 13q74 -32 74 -100q0 -44 -31 -73.5t-81 -29.5q-32 0 -65 10z"></glyph><glyph glyph-name="uni04AB" unicode="ҫ" d="M60 240q0 104 71.5 177t174.5 73q118 0 192 -95l-22 -18q-65 84 -170 84q-90 0 -152 -64t-62 -157t61.5 -157t151.5 -64q106 0 171 84l22 -18q-74 -95 -193 -95q-100 -2 -173.5 73.5t-71.5 176.5zM196 -180v27q40 -9 62 -9q37 0 60 20t23 57q0 45 -51 85l9 13 q74 -32 74 -100q0 -44 -31 -73.5t-81 -29.5q-32 0 -65 10z"></glyph><glyph glyph-name="uni04AE" unicode="Ү" d="M551 660l-230 -374v-286h-32v286l-230 374h34l212 -347l212 347h34z"></glyph><glyph glyph-name="uni04AF" unicode="ү" d="M482 480l-208 -480v-180h-30v180l-208 480h33l190 -445l190 445h33z"></glyph><glyph glyph-name="uni04B0" unicode="Ұ" d="M321 286h170v-29h-170v-257h-32v257h-170v29h170l-230 374h34l212 -347l212 347h34z"></glyph><glyph glyph-name="uni04B1" unicode="ұ" d="M274 0h140v-28h-140v-152h-30v152h-140v28h140l-208 480h33l190 -445l190 445h33z"></glyph><glyph glyph-name="uni04B2" unicode="Ҳ" d="M520 29h65v-170h-32v141h-51l-212 313l-213 -313h-37l232 340l-215 320h37l197 -295l194 295h37l-213 -321z"></glyph><glyph glyph-name="uni04B3" unicode="ҳ" d="M416 28h58v-169h-30v141h-44l-167 228l-166 -228h-37l184 252l-168 228h37l150 -204l151 204h37l-169 -228z"></glyph><glyph glyph-name="uni04B6" unicode="Ҷ" d="M553 29h85v-170h-32v141h-85v298q-72 -35 -202 -35q-112 0 -173 60t-61 179v158h32v-158q0 -209 203 -209q129 0 201 35v332h32v-631z"></glyph><glyph glyph-name="uni04B7" unicode="ҷ" d="M401 28h75v-169h-30v141h-75v226q-52 -26 -131 -26q-85 0 -132.5 46t-47.5 134v100h30v-100q0 -152 149 -152q80 0 132 26v226h30v-452z"></glyph><glyph glyph-name="uni04BA" unicode="Һ" d="M571 158v-158h-32v158q0 209 -203 209q-113 0 -201 -35v-332h-32v660h32v-298q87 35 202 35q112 0 173 -60t61 -179z"></glyph><glyph glyph-name="uni04BB" unicode="һ" d="M460 305v-305h-30v305q0 70 -39.5 113t-105.5 43q-68 0 -112 -44t-44 -112v-305h-30v750h30v-347q49 87 157 87q80 0 127 -51t47 -134z"></glyph><glyph glyph-name="uni04C0" unicode="Ӏ" d="M103 0v660h32v-660h-32z"></glyph><glyph glyph-name="uni04C1" unicode="Ӂ" d="M60 660h46l317 -301l-341 -359h-42l342 358zM442 0v660h32v-660h-32zM534 359l343 -359h-43l-341 359l317 301h45zM323 876v34h30v-32q0 -56 28 -87.5t77 -31.5t77 31.5t28 87.5v32h30v-34q0 -66 -36.5 -105t-98.5 -39t-98.5 39t-36.5 105z"></glyph><glyph glyph-name="uni04C2" unicode="ӂ" d="M53 480h43l229 -220l-255 -260h-40l254 260zM344 0v480h30v-480h-30zM434 260l254 -260h-40l-255 260l229 220h43zM224 719v34h30v-32q0 -56 28 -87.5t77 -31.5t77 31.5t28 87.5v32h30v-34q0 -66 -36.5 -105t-98.5 -39t-98.5 39t-36.5 105z"></glyph><glyph glyph-name="uni04CF" unicode="ӏ" d="M99 0v750h30v-750h-30z"></glyph><glyph glyph-name="uni04D0" unicode="Ӑ" d="M587 0l-73 175h-364l-72 -175h-33l280 670h15l280 -670h-33zM332 614l-170 -410h340zM198 876v34h30v-32q0 -56 28 -87.5t77 -31.5t77 31.5t28 87.5v32h30v-34q0 -66 -36.5 -105t-98.5 -39t-98.5 39t-36.5 105z"></glyph><glyph glyph-name="uni04D1" unicode="ӑ" d="M425 305v-305h-30v85q-26 -45 -73.5 -70t-105.5 -25q-68 0 -116 33t-48 94q0 57 44.5 90.5t119.5 33.5h179v65q0 75 -39 115t-106 40q-88 0 -151 -84l-22 18q71 95 175 95q79 0 126 -48.5t47 -136.5zM395 175v38h-178q-63 0 -98 -25t-35 -69q0 -47 38 -73.5t95 -26.5 q73 0 125.5 45.5t52.5 110.5zM116 719v34h30v-32q0 -56 28 -87.5t77 -31.5t77 31.5t28 87.5v32h30v-34q0 -66 -36.5 -105t-98.5 -39t-98.5 39t-36.5 105z"></glyph><glyph glyph-name="uni04D4" unicode="Ӕ" d="M509 29h247v-29h-276l-31 176h-304l-91 -176h-34l344 660h380v-29h-343l46 -257h217v-29h-212zM371 615l-211 -410h284z"></glyph><glyph glyph-name="uni04D5" unicode="ӕ" d="M845 229h-418q3 -89 64.5 -149.5t148.5 -60.5q106 0 171 84l22 -18q-34 -45 -85 -70t-108 -25q-72 0 -132 38.5t-90 104.5q-16 -64 -73 -104q-55 -39 -128 -39q-68 0 -117 35q-48 36 -48 101q0 61 44.5 96t119.5 35h179v49q0 75 -39 115t-106 40q-88 0 -151 -84l-22 18 q71 95 175 95q67 0 112 -35.5t57 -100.5q30 63 87.5 99.5t126.5 36.5q89 0 151 -58.5t62 -154.5q0 -15 -3 -48zM428 257h388q6 88 -49 146t-136 58t-139.5 -59t-63.5 -145zM395 175v54h-178q-65 0 -99 -26t-34 -74q0 -52 38.5 -81t96.5 -29q71 0 123.5 45.5t52.5 110.5z"></glyph><glyph glyph-name="uni04D6" unicode="Ӗ" d="M103 0v660h406v-29h-374v-257h294v-29h-294v-316h386v-29h-418zM166 876v34h30v-32q0 -56 28 -87.5t77 -31.5t77 31.5t28 87.5v32h30v-34q0 -66 -36.5 -105t-98.5 -39t-98.5 39t-36.5 105z"></glyph><glyph glyph-name="uni04D7" unicode="ӗ" d="M510 237h-418q0 -92 62 -155t151 -63q106 0 171 84l22 -18q-34 -45 -85 -70t-108 -25q-101 0 -173 73.5t-72 176.5t70.5 176.5t169.5 73.5q89 0 151 -58.5t62 -153.5q0 -17 -3 -41zM93 265h388q6 87 -48.5 141.5t-134.5 54.5t-138.5 -56.5t-66.5 -139.5zM152 719v34h30 v-32q0 -56 28 -87.5t77 -31.5t77 31.5t28 87.5v32h30v-34q0 -66 -36.5 -105t-98.5 -39t-98.5 39t-36.5 105z"></glyph><glyph glyph-name="uni04D8" unicode="Ә" d="M673 332q2 -140 -92 -242.5t-224 -99.5q-124 -2 -213 79.5t-87 212.5q0 17 3 50h579v2q2 127 -81 217t-199 88q-76 0 -141.5 -31t-106.5 -86l-24 19q45 60 118 94.5t155 34.5q131 2 223 -98.5t90 -239.5zM638 303h-547q-1 -5 -1 -24q0 -115 78 -186.5t191 -71.5 q108 -2 189.5 81t89.5 201z"></glyph><glyph glyph-name="uni04D9" unicode="ә" d="M513 240q0 -104 -67.5 -177t-167.5 -73q-91 0 -154.5 58.5t-63.5 153.5q0 17 3 41h418q0 93 -59 155.5t-149 62.5q-113 0 -176 -84l-22 18q34 45 86 70t112 25q101 2 171.5 -72t68.5 -178zM480 215h-388q-6 -87 50 -141.5t138 -54.5q81 0 136.5 56t63.5 140z"></glyph><glyph glyph-name="uni04E2" unicode="Ӣ" d="M596 670h15v-670h-32v603l-461 -613h-15v670h32v-603zM221 782v28h272v-28h-272z"></glyph><glyph glyph-name="uni04E3" unicode="ӣ" d="M445 490h15v-490h-30v427l-316 -437h-15v490h30v-427zM154 653v28h252v-28h-252z"></glyph><glyph glyph-name="uni04E6" unicode="Ӧ" d="M57 330q-2 141 97 242t237 98q137 2 237.5 -99t98.5 -241q2 -140 -98.5 -241.5t-237.5 -98.5q-137 -3 -236.5 98.5t-97.5 241.5zM693 331q2 127 -87 218.5t-214 89.5q-125 2 -214 -89t-87 -219q-2 -129 86.5 -220.5t214.5 -89.5q125 -2 214 90t87 220zM247 806 q0 14 10 24t24 10t24 -10t10 -24t-10 -24t-24 -10t-24 10t-10 24zM468 806q0 14 10 24t24 10t24 -10t10 -24t-10 -24t-24 -10t-24 10t-10 24z"></glyph><glyph glyph-name="uni04E7" unicode="ӧ" d="M60 240q-2 103 71.5 177.5t174.5 72.5q101 2 175 -72.5t72 -177.5q0 -104 -72.5 -177t-175.5 -73q-100 -2 -173.5 72.5t-71.5 177.5zM521 240q0 93 -62.5 157t-152.5 64q-91 0 -152.5 -63.5t-61.5 -157.5t61.5 -157.5t151.5 -63.5q91 0 153.5 64.5t62.5 156.5zM177 666 q0 14 10 24t24 10t24 -10t10 -24t-10 -24t-24 -10t-24 10t-10 24zM368 666q0 14 10 24t24 10t24 -10t10 -24t-10 -24t-24 -10t-24 10t-10 24z"></glyph><glyph glyph-name="uni04E8" unicode="Ө" d="M727 330q2 -140 -98.5 -241.5t-237.5 -98.5q-137 -3 -236.5 98.5t-97.5 241.5q-2 141 97 242t237 98q137 2 237.5 -99t98.5 -241zM92 350h600q-5 121 -92.5 206t-207.5 83q-122 0 -208 -82.5t-92 -206.5zM693 321h-602q1 -126 89 -214t212 -86q124 0 211 86.5t90 213.5z "></glyph><glyph glyph-name="uni04E9" unicode="ө" d="M553 240q2 -101 -73 -176.5t-175 -73.5q-99 -2 -173 73t-72 177q-2 101 72 176.5t174 73.5q100 2 174.5 -73.5t72.5 -176.5zM93 264h427q-8 83 -69 140t-145 57t-144.5 -56.5t-68.5 -140.5zM521 236h-429q2 -91 63 -154t150 -63q90 0 152 63t64 154z"></glyph><glyph glyph-name="uni04EE" unicode="Ӯ" d="M543 660h34l-238 -551q-27 -62 -63 -89t-91 -27q-33 0 -57 7v30q21 -7 56 -7q48 0 77 21.5t50 70.5l10 23l-262 522h34l243 -487zM167 782v28h272v-28h-272z"></glyph><glyph glyph-name="uni04EF" unicode="ӯ" d="M449 480h33l-243 -568q-44 -102 -139 -102q-32 0 -64 9v27q40 -8 62 -8q78 0 115 87l34 81l-211 474h33l194 -435zM133 653v28h252v-28h-252z"></glyph><glyph glyph-name="uni04F2" unicode="Ӳ" d="M543 660h34l-238 -551q-27 -62 -63 -89t-91 -27q-33 0 -57 7v30q21 -7 56 -7q48 0 77 21.5t50 70.5l10 23l-262 522h34l243 -487zM176 724l96 186h37v-5l-107 -181h-26zM380 724l96 186h37v-5l-107 -181h-26z"></glyph><glyph glyph-name="uni04F3" unicode="ӳ" d="M449 480h33l-243 -568q-44 -102 -139 -102q-32 0 -64 9v27q40 -8 62 -8q78 0 115 87l34 81l-211 474h33l194 -435zM149 562l96 218h37v-5l-107 -213h-26zM333 562l96 218h37v-5l-107 -213h-26z"></glyph><glyph glyph-name="Wgrave" unicode="Ẁ" d="M989 660h33l-240 -670h-15l-228 619l-229 -619h-15l-240 670h33l215 -610l228 620h15l228 -620zM526 724l-107 181v5h37l96 -186h-26z"></glyph><glyph glyph-name="wgrave" unicode="ẁ" d="M772 480h33l-186 -490h-15l-184 439l-183 -439h-15l-186 490h33l160 -432l184 442h15l184 -442zM411 562l-107 213v5h37l96 -218h-26z"></glyph><glyph glyph-name="Wacute" unicode="Ẃ" d="M989 660h33l-240 -670h-15l-228 619l-229 -619h-15l-240 670h33l215 -610l228 620h15l228 -620zM525 724l96 186h37v-5l-107 -181h-26z"></glyph><glyph glyph-name="wacute" unicode="ẃ" d="M772 480h33l-186 -490h-15l-184 439l-183 -439h-15l-186 490h33l160 -432l184 442h15l184 -442zM408 562l96 218h37v-5l-107 -213h-26z"></glyph><glyph glyph-name="Wdieresis" unicode="Ẅ" d="M989 660h33l-240 -670h-15l-228 619l-229 -619h-15l-240 670h33l215 -610l228 620h15l228 -620zM394 806q0 14 10 24t24 10t24 -10t10 -24t-10 -24t-24 -10t-24 10t-10 24zM615 806q0 14 10 24t24 10t24 -10t10 -24t-10 -24t-24 -10t-24 10t-10 24z"></glyph><glyph glyph-name="wdieresis" unicode="ẅ" d="M772 480h33l-186 -490h-15l-184 439l-183 -439h-15l-186 490h33l160 -432l184 442h15l184 -442zM291 666q0 14 10 24t24 10t24 -10t10 -24t-10 -24t-24 -10t-24 10t-10 24zM482 666q0 14 10 24t24 10t24 -10t10 -24t-10 -24t-24 -10t-24 10t-10 24z"></glyph><glyph glyph-name="uni1E9E" unicode="ẞ" d="M634 195q0 -87 -60.5 -146t-145.5 -59q-51 0 -98 23t-80 63l23 22q26 -36 67.5 -56.5t88.5 -20.5q72 0 121.5 49t49.5 123q0 78 -56 129t-140 51h-35v12l166 246h-400v-631h-32v660h479v-12l-167 -247q93 -2 156 -60t63 -146z"></glyph><glyph glyph-name="Ygrave" unicode="Ỳ" d="M551 660l-230 -374v-286h-32v286l-230 374h34l212 -347l212 347h34zM292 724l-107 181v5h37l96 -186h-26z"></glyph><glyph glyph-name="ygrave" unicode="ỳ" d="M449 480h33l-243 -568q-44 -102 -139 -102q-32 0 -64 9v27q40 -8 62 -8q78 0 115 87l34 81l-211 474h33l194 -435zM249 562l-107 213v5h37l96 -218h-26z"></glyph><glyph glyph-name="uni2009" unicode=" "></glyph><glyph glyph-name="endash" unicode="–" d="M50 295v28h400v-28h-400z"></glyph><glyph glyph-name="emdash" unicode="—" d="M50 295v28h900v-28h-900z"></glyph><glyph glyph-name="uni2015" unicode="―" d="M50 295v28h900v-28h-900z"></glyph><glyph glyph-name="quoteleft" unicode="‘" d="M102 420l33 240h26l-20 -240h-39z"></glyph><glyph glyph-name="quoteright" unicode="’" d="M104 420l20 240h39l-33 -240h-26z"></glyph><glyph glyph-name="quotesinglbase" unicode="‚" d="M104 -177l20 240h39l-33 -240h-26z"></glyph><glyph glyph-name="quotedblleft" unicode="“" d="M102 420l33 240h26l-20 -240h-39zM242 420l33 240h26l-20 -240h-39z"></glyph><glyph glyph-name="quotedblright" unicode="”" d="M104 420l20 240h39l-33 -240h-26zM244 420l20 240h39l-33 -240h-26z"></glyph><glyph glyph-name="quotedblbase" unicode="„" d="M104 -177l20 240h39l-33 -240h-26zM244 -177l20 240h39l-33 -240h-26z"></glyph><glyph glyph-name="dagger" unicode="†" d="M198 386v210h-123v28h123v126h30v-126h123v-28h-123v-210h-30z"></glyph><glyph glyph-name="daggerdbl" unicode="‡" d="M198 356v96h-123v28h123v146h-123v28h123v96h30v-96h123v-28h-123v-146h123v-28h-123v-96h-30z"></glyph><glyph glyph-name="bullet" unicode="•" d="M62 264q0 46 32 76t75 30t74.5 -30t31.5 -76t-31.5 -76t-74.5 -30t-75 30t-32 76z"></glyph><glyph glyph-name="ellipsis" unicode="…" d="M341 28q0 18 11.5 29t26.5 11q16 0 28 -11t12 -29q0 -17 -12 -27.5t-28 -10.5t-27 10.5t-11 27.5zM101 28q0 18 11.5 29t26.5 11q16 0 28 -11t12 -29q0 -17 -12 -27.5t-28 -10.5t-27 10.5t-11 27.5zM581 28q0 18 11.5 29t26.5 11q16 0 28 -11t12 -29q0 -17 -12 -27.5 t-28 -10.5t-27 10.5t-11 27.5z"></glyph><glyph glyph-name="perthousand" unicode="‰" d="M75 512q0 66 46 112t111 46t111.5 -46t46.5 -112t-46.5 -112t-111.5 -46t-111 46t-46 112zM209 0l381 660h31l-381 -660h-31zM358 512q0 55 -36 92t-90 37t-89.5 -37t-35.5 -92t35.5 -92t89.5 -37t90 37t36 92zM806 150q0 66 46 112t111 46t111.5 -46t46.5 -112 t-46.5 -112t-111.5 -46t-111 46t-46 112zM438 149q0 66 46 112t111 46t111.5 -46t46.5 -112t-46.5 -112t-111.5 -46t-111 46t-46 112zM1089 150q0 55 -36 92t-90 37t-89.5 -37t-35.5 -92t35.5 -92t89.5 -37t90 37t36 92zM721 149q0 55 -36 92t-90 37t-89.5 -37t-35.5 -92 t35.5 -92t89.5 -37t90 37t36 92z"></glyph><glyph glyph-name="minute" unicode="′" d="M70 398l46 262h40l-58 -262h-28z"></glyph><glyph glyph-name="second" unicode="″" d="M70 398l46 262h40l-58 -262h-28zM210 398l46 262h40l-58 -262h-28z"></glyph><glyph glyph-name="guilsinglleft" unicode="‹" d="M209 91l-163 172v12l163 172l22 -20l-147 -158l147 -160z"></glyph><glyph glyph-name="guilsinglright" unicode="›" d="M69 91l-22 18l147 160l-147 158l22 20l163 -172v-12z"></glyph><glyph glyph-name="fraction" unicode="⁄" d="M-93 0l381 660h31l-381 -660h-31z"></glyph><glyph glyph-name="uni2070" unicode="⁰" d="M56 576q0 99 37 154.5t109 55.5q71 0 108 -56t37 -154q0 -100 -36.5 -159t-108.5 -59t-109 59t-37 159zM316 576q0 181 -114 181t-114 -181q0 -88 28.5 -139t85.5 -51t85.5 51t28.5 139z"></glyph><glyph glyph-name="uni2074" unicode="⁴" d="M323 474v-28h-64v-82h-31v82h-209v10l140 324h32l-132 -306h169v151h31v-151h64z"></glyph><glyph glyph-name="uni2075" unicode="⁵" d="M319 495q0 -63 -42 -100q-41 -37 -101 -37q-88 0 -136 81l23 16q44 -68 114 -68q48 0 79 29.5t31 77.5q0 46 -30.5 72t-86.5 26h-92v188h222v-28h-192v-136q28 4 60 4q70 0 110.5 -32t40.5 -93z"></glyph><glyph glyph-name="uni2076" unicode="⁶" d="M318 492q0 -56 -39.5 -95t-97.5 -39q-57 0 -97 39q-39 39 -39 97q0 33 13 58q15 28 45 74l103 154h37l-114 -167q26 14 54 14q56 0 95.5 -39.5t39.5 -95.5zM286 492q0 46 -30 76t-75 30t-74.5 -30t-29.5 -76t29.5 -75.5t74.5 -29.5t75 29.5t30 75.5z"></glyph><glyph glyph-name="uni2077" unicode="⁷" d="M24 780h271v-10l-221 -406h-34l213 388h-229v28z"></glyph><glyph glyph-name="uni2078" unicode="⁸" d="M331 467q0 -49 -38 -79t-103 -30t-103 30.5t-38 79.5q0 78 108 115q-88 36 -88 104q0 45 34 72t87 27t87 -27t34 -73q0 -69 -88 -103q108 -37 108 -116zM190 597q47 17 69 37t22 51q0 33 -25.5 53.5t-65.5 20.5t-65.5 -20.5t-25.5 -53.5q0 -31 22 -51t69 -37zM301 469 q0 37 -26 58.5t-85 41.5q-59 -20 -85 -41.5t-26 -58.5t30 -60.5t81 -23.5t81 23.5t30 60.5z"></glyph><glyph glyph-name="uni2079" unicode="⁹" d="M318 650q0 -34 -13 -59q-12 -23 -45 -73l-103 -154h-37l114 167q-26 -14 -54 -14q-56 0 -95.5 39.5t-39.5 95.5t39.5 95t97.5 39q57 0 96 -39q40 -39 40 -97zM286 652q0 46 -29.5 75.5t-74.5 29.5t-75 -29.5t-30 -75.5t30 -76t75 -30t74.5 30t29.5 76z"></glyph><glyph glyph-name="uni207A" unicode="⁺" d="M198 406v153h-149v27h149v153h30v-153h149v-27h-149v-153h-30z"></glyph><glyph glyph-name="uni207B" unicode="⁻" d="M49 559v27h328v-27h-328z"></glyph><glyph glyph-name="uni207C" unicode="⁼" d="M57 636v27h313v-27h-313zM57 482v27h313v-27h-313z"></glyph><glyph glyph-name="uni207D" unicode="⁽" d="M65 573q0 142 41 219q42 78 103 108l12 -22q-127 -70 -127 -305q0 -236 127 -306l-12 -22q-60 29 -103 107q-41 79 -41 221z"></glyph><glyph glyph-name="uni207E" unicode="⁾" d="M34 245l-12 22q127 70 127 306q0 235 -127 305l12 22q62 -30 102 -108q42 -76 42 -219t-42 -221q-41 -77 -102 -107z"></glyph><glyph glyph-name="uni2080" unicode="₀" d="M56 92q0 99 37 154.5t109 55.5q71 0 108 -56t37 -154q0 -100 -36.5 -159t-108.5 -59t-109 59t-37 159zM316 92q0 181 -114 181t-114 -181q0 -88 28.5 -139t85.5 -51t85.5 51t28.5 139z"></glyph><glyph glyph-name="uni2081" unicode="₁" d="M51 -120v28h112v360h-112v28h143v-388h100v-28h-243z"></glyph><glyph glyph-name="uni2082" unicode="₂" d="M93 -92h225v-28h-281v9l152 156q41 41 59 71.5t18 62.5q0 40 -26 67t-67 27q-43 0 -69.5 -28.5t-26.5 -69.5q0 -16 3 -34h-30q-4 13 -4 36q0 51 35.5 88t91.5 37q54 0 89.5 -34.5t35.5 -86.5q0 -40 -20 -72.5t-69 -82.5z"></glyph><glyph glyph-name="uni2083" unicode="₃" d="M305 9q0 -61 -42 -98t-101 -37q-88 0 -136 81l23 16q44 -68 114 -68q48 0 79 29.5t31 76.5q0 46 -31 72.5t-86 26.5h-35v10l122 150h-191v28h241v-10l-124 -151q54 0 95 -33t41 -93z"></glyph><glyph glyph-name="uni2084" unicode="₄" d="M323 -10v-28h-64v-82h-31v82h-209v10l140 324h32l-132 -306h169v151h31v-151h64z"></glyph><glyph glyph-name="uni2085" unicode="₅" d="M319 11q0 -63 -42 -100q-41 -37 -101 -37q-88 0 -136 81l23 16q44 -68 114 -68q48 0 79 29.5t31 77.5q0 46 -30.5 72t-86.5 26h-92v188h222v-28h-192v-136q28 4 60 4q70 0 110.5 -32t40.5 -93z"></glyph><glyph glyph-name="uni2086" unicode="₆" d="M318 8q0 -56 -39.5 -95t-97.5 -39q-57 0 -97 39q-39 39 -39 97q0 33 13 58q15 28 45 74l103 154h37l-114 -167q26 14 54 14q56 0 95.5 -39.5t39.5 -95.5zM286 8q0 46 -30 76t-75 30t-74.5 -30t-29.5 -76t29.5 -75.5t74.5 -29.5t75 29.5t30 75.5z"></glyph><glyph glyph-name="uni2087" unicode="₇" d="M24 296h271v-10l-221 -406h-34l213 388h-229v28z"></glyph><glyph glyph-name="uni2088" unicode="₈" d="M331 -17q0 -49 -38 -79t-103 -30t-103 30.5t-38 79.5q0 78 108 115q-88 36 -88 104q0 45 34 72t87 27t87 -27t34 -73q0 -69 -88 -103q108 -37 108 -116zM190 113q47 17 69 37t22 51q0 33 -25.5 53.5t-65.5 20.5t-65.5 -20.5t-25.5 -53.5q0 -31 22 -51t69 -37zM301 -15 q0 37 -26 58.5t-85 41.5q-59 -20 -85 -41.5t-26 -58.5t30 -60.5t81 -23.5t81 23.5t30 60.5z"></glyph><glyph glyph-name="uni2089" unicode="₉" d="M318 166q0 -34 -13 -59q-12 -23 -45 -73l-103 -154h-37l114 167q-26 -14 -54 -14q-56 0 -95.5 39.5t-39.5 95.5t39.5 95t97.5 39q57 0 96 -39q40 -39 40 -97zM286 168q0 46 -29.5 75.5t-74.5 29.5t-75 -29.5t-30 -75.5t30 -76t75 -30t74.5 30t29.5 76z"></glyph><glyph glyph-name="uni208A" unicode="₊" d="M198 -79v153h-149v27h149v153h30v-153h149v-27h-149v-153h-30z"></glyph><glyph glyph-name="uni208B" unicode="₋" d="M49 74v27h328v-27h-328z"></glyph><glyph glyph-name="uni208C" unicode="₌" d="M57 151v27h313v-27h-313zM57 -3v27h313v-27h-313z"></glyph><glyph glyph-name="uni208D" unicode="₍" d="M65 88q0 142 41 219q42 78 103 108l12 -22q-127 -70 -127 -305q0 -236 127 -306l-12 -22q-61 30 -103 108q-41 77 -41 220z"></glyph><glyph glyph-name="uni208E" unicode="₎" d="M34 -240l-12 22q127 70 127 306q0 235 -127 305l12 22q62 -30 102 -108q42 -77 42 -219q0 -144 -42 -220q-40 -78 -102 -108z"></glyph><glyph glyph-name="lira" unicode="₤" d="M143 29h306v-29h-381v12q123 66 133 177h-123v28h124q-4 53 -40 122h-84v28h70q-44 86 -44 141q0 72 47 117t123 45q68 0 114.5 -38.5t68.5 -110.5l-31 -10q-41 128 -153 128q-62 0 -98.5 -37.5t-36.5 -95.5q0 -32 10 -61t36 -78h199v-28h-185q35 -73 36 -122h149v-28 h-150q-8 -102 -90 -160z"></glyph><glyph glyph-name="peseta" unicode="₧" d="M563 497v-28h-88q-5 -71 -55.5 -114.5t-133.5 -43.5h-137v-311h-32v469h-86v28h86v163h169q84 0 135 -45t55 -118h87zM284 631h-135v-134h294q-4 61 -46 97.5t-113 36.5zM442 469h-293v-129h135q70 0 111.5 35t46.5 94z"></glyph><glyph glyph-name="Euro" unicode="€" d="M604 104l23 -19q-76 -95 -210 -95q-112 0 -192 68q-78 68 -104 181h-113v28h108q-5 37 -5 63q0 35 4 58h-104v28h109q23 114 103.5 184t193.5 70q134 0 210 -95l-23 -19q-65 83 -185 83q-103 0 -173 -60t-92 -163h338l-8 -28h-335q-4 -23 -4 -58q0 -26 5 -63h300l-8 -28 h-287q24 -101 93.5 -159.5t170.5 -58.5q120 0 185 83z"></glyph><glyph glyph-name="uni20AE" unicode="₮" d="M557 631h-249v-253l195 73v-31l-195 -73v-121l195 73v-31l-195 -73v-195h-32v184l-194 -72v31l194 72v121l-194 -72v31l194 72v264h-249v29h530v-29z"></glyph><glyph glyph-name="uni20B4" unicode="₴" d="M512 239h-359q-32 -35 -32 -82q0 -60 43.5 -98t112.5 -38q61 0 115.5 33.5t91.5 92.5l24 -18q-40 -66 -100.5 -102.5t-129.5 -36.5q-81 0 -136 47.5t-55 119.5q0 47 26 82h-80v28h105q36 34 99 71l56 34l26 16h-284v28h324q32 25 45 47.5t13 53.5q0 54 -41 88t-106 34 q-101 0 -163 -87l-23 18q32 47 81.5 73.5t106.5 26.5q80 0 129 -43q50 -42 50 -110q0 -59 -45 -101h105v-28h-139q-24 -17 -64 -42l-56 -34q-53 -34 -68 -45h328v-28z"></glyph><glyph glyph-name="uni20B8" unicode="₸" d="M27 631v29h530v-29h-530zM276 0v482h-249v29h530v-29h-249v-482h-32z"></glyph><glyph glyph-name="uni20B9" unicode="₹" d="M419 660v-29l-161 1q73 -38 84 -121h77v-29h-75q-2 -77 -53 -124t-137 -47h-62l327 -311h-42l-329 311v29h104q74 0 116 39t43 103h-266v29h264q-8 55 -49 87.5t-108 32.5h-104v29h371z"></glyph><glyph glyph-name="uni20BA" unicode="₺" d="M460 214q0 -101 -82 -162.5t-218 -61.5h-18v273l-106 -49v31l106 49v121l-106 -49v31l106 49v214h32v-201l203 93v-31l-203 -93v-121l203 93v-31l-203 -93v-256q112 3 183 56.5t71 134.5q0 25 -8 71h30q10 -31 10 -68z"></glyph><glyph glyph-name="uni20BD" unicode="₽" d="M117 0v161h-86v29h86v120h-86v29h86v321h199q88 0 139 -48.5t51 -125.5q0 -79 -51 -127.5t-139 -48.5h-167v-120h270v-29h-270v-161h-32zM149 339h165q75 0 117 40t42 106t-42 106t-117 40h-165v-292z"></glyph><glyph glyph-name="uni20BF" unicode="₿" d="M360 32v-123h-31v122h-111v-122h-31v122h-84v599h84v121h31v-121h107h4v121h31v-124q56 -9 87.5 -45.5t31.5 -93.5q0 -45 -22.5 -78t-61.5 -49q58 -15 90.5 -57t32.5 -103q0 -71 -42.5 -116t-115.5 -53zM322 601h-187v-229h187q59 0 92.5 30.5t33.5 84.5t-33 84t-93 30z M487 200q0 65 -42 104t-113 39h-197v-283h197q71 0 113 38t42 102z"></glyph><glyph glyph-name="uni2113" unicode="ℓ" d="M244 18q27 0 79 11v-27q-43 -12 -81 -12q-67 0 -105 42.5t-38 120.5v53l-20 -21l-40 -42l-20 21q32 32 80 85v341q0 170 120 170q109 0 109 -131q0 -165 -199 -394v-82q0 -135 115 -135zM129 592v-314q167 198 167 349q0 104 -75 104q-92 0 -92 -139z"></glyph><glyph glyph-name="uni2116" unicode="№" d="M569 64v596h32v-670h-15l-451 601v-591h-32v670h15zM754 396q0 66 46 112t111 46t111.5 -46t46.5 -112t-46.5 -112t-111.5 -46t-111 46t-46 112zM786 396q0 -55 35.5 -92t89.5 -37t90 37t36 92t-36 92t-90 37t-89.5 -37t-35.5 -92zM764 120v28h295v-28h-295z"></glyph><glyph glyph-name="uni2117" unicode="℗" d="M57 330q-2 141 97 242t237 98q137 2 237.5 -99t98.5 -241q2 -140 -98.5 -241.5t-237.5 -98.5q-137 -3 -236.5 98.5t-97.5 241.5zM696 331q2 127 -88 219.5t-216 90.5q-127 2 -216.5 -90t-87.5 -220q-2 -129 88 -221.5t216 -90.5q126 -2 216 90.5t88 221.5zM276 147v355 h155q54 0 86.5 -30t32.5 -79t-32.5 -79t-86.5 -30h-124v-137h-31zM307 311h124q42 0 65 22t23 60q0 37 -23 59.5t-65 22.5h-124v-164z"></glyph><glyph glyph-name="trademark" unicode="™" d="M469 211v456h12l187 -269l186 269h13v-456h-32v375l-161 -232h-13l-161 232v-375h-31zM185 211v421h-166v28h363v-28h-166v-421h-31z"></glyph><glyph glyph-name="uni2126" unicode="Ω" d="M532 29h190v-29h-255v28q231 110 231 312q0 128 -85.5 213.5t-215.5 85.5t-215.5 -85t-85.5 -213q0 -203 231 -313v-28h-255v29h189q-199 120 -199 311q-2 139 96 235.5t238 94.5q140 2 239 -94.5t97 -235.5q0 -187 -200 -311z"></glyph><glyph glyph-name="estimated" unicode="℮" d="M731 327h-544v-205q75 -104 220 -104q159 0 258 120l22 -19q-49 -61 -122.5 -95t-157.5 -34q-146 -2 -248 97.5t-99 238.5q-3 140 102 243.5t241 100.5q80 2 157 -35t127 -105t48 -149q0 -33 -4 -54zM187 537v-182h421v197q-75 89 -201 89q-142 0 -220 -104z"></glyph><glyph glyph-name="uni2150" unicode="⅐" d="M51 244v28h112v360h-112v28h143v-388h100v-28h-243zM248 0l381 660h31l-381 -660h-31zM591 416h271v-10l-221 -406h-34l213 388h-229v28z"></glyph><glyph glyph-name="uni2151" unicode="⅑" d="M51 244v28h112v360h-112v28h143v-388h100v-28h-243zM248 0l381 660h31l-381 -660h-31zM855 286q0 -34 -13 -59q-12 -23 -45 -73l-103 -154h-37l114 167q-26 -14 -54 -14q-56 0 -95.5 39.5t-39.5 95.5t39.5 95t97.5 39q57 0 96 -39q40 -39 40 -97zM823 288 q0 46 -29.5 75.5t-74.5 29.5t-75 -29.5t-30 -75.5t30 -76t75 -30t74.5 30t29.5 76z"></glyph><glyph glyph-name="uni2152" unicode="⅒" d="M51 244v28h112v360h-112v28h143v-388h100v-28h-243zM248 0l381 660h31l-381 -660h-31zM618 0v28h112v360h-112v28h143v-388h100v-28h-243zM964 212q0 99 37 154.5t109 55.5q71 0 108 -56t37 -154q0 -100 -36.5 -159t-108.5 -59t-109 59t-37 159zM1224 212q0 181 -114 181 t-114 -181q0 -88 28.5 -139t85.5 -51t85.5 51t28.5 139z"></glyph><glyph glyph-name="uni2153" unicode="⅓" d="M51 244v28h112v360h-112v28h143v-388h100v-28h-243zM248 0l381 660h31l-381 -660h-31zM872 129q0 -61 -42 -98t-101 -37q-88 0 -136 81l23 16q44 -68 114 -68q48 0 79 29.5t31 76.5q0 46 -31 72.5t-86 26.5h-35v10l122 150h-191v28h241v-10l-124 -151q54 0 95 -33t41 -93 z"></glyph><glyph glyph-name="uni2154" unicode="⅔" d="M93 272h225v-28h-281v9l152 156q41 41 59 71.5t18 62.5q0 40 -26 67t-67 27q-43 0 -69.5 -28.5t-26.5 -69.5q0 -16 3 -34h-30q-4 13 -4 36q0 51 35.5 88t91.5 37q54 0 89.5 -34.5t35.5 -86.5q0 -40 -20 -72.5t-69 -82.5zM266 0l381 660h31l-381 -660h-31zM890 129 q0 -61 -42 -98t-101 -37q-88 0 -136 81l23 16q44 -68 114 -68q48 0 79 29.5t31 76.5q0 46 -31 72.5t-86 26.5h-35v10l122 150h-191v28h241v-10l-124 -151q54 0 95 -33t41 -93z"></glyph><glyph glyph-name="uni2155" unicode="⅕" d="M51 244v28h112v360h-112v28h143v-388h100v-28h-243zM248 0l381 660h31l-381 -660h-31zM878 131q0 -63 -42 -100q-41 -37 -101 -37q-88 0 -136 81l23 16q44 -68 114 -68q48 0 79 29.5t31 77.5q0 46 -30.5 72t-86.5 26h-92v188h222v-28h-192v-136q28 4 60 4q70 0 110.5 -32 t40.5 -93z"></glyph><glyph glyph-name="uni2156" unicode="⅖" d="M93 272h225v-28h-281v9l152 156q41 41 59 71.5t18 62.5q0 40 -26 67t-67 27q-43 0 -69.5 -28.5t-26.5 -69.5q0 -16 3 -34h-30q-4 13 -4 36q0 51 35.5 88t91.5 37q54 0 89.5 -34.5t35.5 -86.5q0 -40 -20 -72.5t-69 -82.5zM266 0l381 660h31l-381 -660h-31zM896 131 q0 -63 -42 -100q-41 -37 -101 -37q-88 0 -136 81l23 16q44 -68 114 -68q48 0 79 29.5t31 77.5q0 46 -30.5 72t-86.5 26h-92v188h222v-28h-192v-136q28 4 60 4q70 0 110.5 -32t40.5 -93z"></glyph><glyph glyph-name="uni2157" unicode="⅗" d="M305 373q0 -61 -42 -98t-101 -37q-88 0 -136 81l23 16q44 -68 114 -68q48 0 79 29.5t31 76.5q0 46 -31 72.5t-86 26.5h-35v10l122 150h-191v28h241v-10l-124 -151q54 0 95 -33t41 -93zM222 0l381 660h31l-381 -660h-31zM852 131q0 -63 -42 -100q-41 -37 -101 -37 q-88 0 -136 81l23 16q44 -68 114 -68q48 0 79 29.5t31 77.5q0 46 -30.5 72t-86.5 26h-92v188h222v-28h-192v-136q28 4 60 4q70 0 110.5 -32t40.5 -93z"></glyph><glyph glyph-name="uni2158" unicode="⅘" d="M323 354v-28h-64v-82h-31v82h-209v10l140 324h32l-132 -306h169v151h31v-151h64zM261 0l381 660h31l-381 -660h-31zM891 131q0 -63 -42 -100q-41 -37 -101 -37q-88 0 -136 81l23 16q44 -68 114 -68q48 0 79 29.5t31 77.5q0 46 -30.5 72t-86.5 26h-92v188h222v-28h-192 v-136q28 4 60 4q70 0 110.5 -32t40.5 -93z"></glyph><glyph glyph-name="uni2159" unicode="⅙" d="M51 244v28h112v360h-112v28h143v-388h100v-28h-243zM248 0l381 660h31l-381 -660h-31zM805 128q0 -56 -39.5 -95t-97.5 -39q-56 0 -97 39q-39 39 -39 97q0 33 13 58q15 28 45 74l103 154h37l-114 -167q26 14 54 14q56 0 95.5 -39.5t39.5 -95.5zM773 128q0 46 -30 76 t-75 30t-74.5 -30t-29.5 -76t29.5 -75.5t74.5 -29.5t75 29.5t30 75.5z"></glyph><glyph glyph-name="uni215A" unicode="⅚" d="M319 375q0 -63 -42 -100q-41 -37 -101 -37q-88 0 -136 81l23 16q44 -68 114 -68q48 0 79 29.5t31 77.5q0 46 -30.5 72t-86.5 26h-92v188h222v-28h-192v-136q28 4 60 4q70 0 110.5 -32t40.5 -93zM236 0l381 660h31l-381 -660h-31zM793 128q0 -56 -39.5 -95t-97.5 -39 q-56 0 -97 39q-39 39 -39 97q0 33 13 58q15 28 45 74l103 154h37l-114 -167q26 14 54 14q56 0 95.5 -39.5t39.5 -95.5zM761 128q0 46 -30 76t-75 30t-74.5 -30t-29.5 -76t29.5 -75.5t74.5 -29.5t75 29.5t30 75.5z"></glyph><glyph glyph-name="oneeighth" unicode="⅛" d="M51 244v28h112v360h-112v28h143v-388h100v-28h-243zM248 0l381 660h31l-381 -660h-31zM853 103q0 -49 -38 -79t-103 -30t-103 30.5t-38 79.5q0 78 108 115q-88 36 -88 104q0 45 34 72t87 27t87 -27t34 -73q0 -69 -88 -103q108 -37 108 -116zM712 233q47 17 69 37t22 51 q0 33 -25.5 53.5t-65.5 20.5t-65.5 -20.5t-25.5 -53.5q0 -31 22 -51t69 -37zM823 105q0 37 -26 58.5t-85 41.5q-59 -20 -85 -41.5t-26 -58.5t30 -60.5t81 -23.5t81 23.5t30 60.5z"></glyph><glyph glyph-name="threeeighths" unicode="⅜" d="M305 373q0 -61 -42 -98t-101 -37q-88 0 -136 81l23 16q44 -68 114 -68q48 0 79 29.5t31 76.5q0 46 -31 72.5t-86 26.5h-35v10l122 150h-191v28h241v-10l-124 -151q54 0 95 -33t41 -93zM222 0l381 660h31l-381 -660h-31zM827 103q0 -49 -38 -79t-103 -30t-103 30.5 t-38 79.5q0 78 108 115q-88 36 -88 104q0 45 34 72t87 27t87 -27t34 -73q0 -69 -88 -103q108 -37 108 -116zM686 233q47 17 69 37t22 51q0 33 -25.5 53.5t-65.5 20.5t-65.5 -20.5t-25.5 -53.5q0 -31 22 -51t69 -37zM797 105q0 37 -26 58.5t-85 41.5q-59 -20 -85 -41.5 t-26 -58.5t30 -60.5t81 -23.5t81 23.5t30 60.5z"></glyph><glyph glyph-name="fiveeighths" unicode="⅝" d="M319 375q0 -63 -42 -100q-41 -37 -101 -37q-88 0 -136 81l23 16q44 -68 114 -68q48 0 79 29.5t31 77.5q0 46 -30.5 72t-86.5 26h-92v188h222v-28h-192v-136q28 4 60 4q70 0 110.5 -32t40.5 -93zM236 0l381 660h31l-381 -660h-31zM841 103q0 -49 -38 -79t-103 -30 t-103 30.5t-38 79.5q0 78 108 115q-88 36 -88 104q0 45 34 72t87 27t87 -27t34 -73q0 -69 -88 -103q108 -37 108 -116zM700 233q47 17 69 37t22 51q0 33 -25.5 53.5t-65.5 20.5t-65.5 -20.5t-25.5 -53.5q0 -31 22 -51t69 -37zM811 105q0 37 -26 58.5t-85 41.5 q-59 -20 -85 -41.5t-26 -58.5t30 -60.5t81 -23.5t81 23.5t30 60.5z"></glyph><glyph glyph-name="seveneighths" unicode="⅞" d="M24 660h271v-10l-221 -406h-34l213 388h-229v28zM124 0l381 660h31l-381 -660h-31zM729 103q0 -49 -38 -79t-103 -30t-103 30.5t-38 79.5q0 78 108 115q-88 36 -88 104q0 45 34 72t87 27t87 -27t34 -73q0 -69 -88 -103q108 -37 108 -116zM588 233q47 17 69 37t22 51 q0 33 -25.5 53.5t-65.5 20.5t-65.5 -20.5t-25.5 -53.5q0 -31 22 -51t69 -37zM699 105q0 37 -26 58.5t-85 41.5q-59 -20 -85 -41.5t-26 -58.5t30 -60.5t81 -23.5t81 23.5t30 60.5z"></glyph><glyph glyph-name="arrowleft" unicode="←" d="M590 295h-457l209 -209l-19 -19l-237 237v12l237 237l19 -19l-211 -211h459v-28z"></glyph><glyph glyph-name="arrowup" unicode="↑" d="M565 305l-19 -19l-205 205v-425h-30v427l-207 -207l-19 19l234 234h12z"></glyph><glyph glyph-name="arrowright" unicode="→" d="M327 553l237 -237v-12l-237 -237l-19 19l209 209h-457v28h459l-211 211z"></glyph><glyph glyph-name="arrowdown" unicode="↓" d="M546 335l19 -19l-234 -234h-12l-234 234l19 19l207 -207v427h30v-425z"></glyph><glyph glyph-name="arrowboth" unicode="↔" d="M637 553l237 -237v-12l-237 -237l-19 19l209 209h-694l209 -209l-19 -19l-237 237v12l237 237l19 -19l-211 -211h698l-211 211z"></glyph><glyph glyph-name="arrowupdn" unicode="↕" d="M341 0l205 205l19 -19l-234 -234h-12l-234 234l19 19l207 -207v664l-207 -207l-19 19l234 234h12l234 -234l-19 -19l-205 205v-660z"></glyph><glyph glyph-name="uni2196" unicode="↖" d="M538 109l-21 -21l-340 340v-306h-29v350l8 8h350v-28h-310z"></glyph><glyph glyph-name="uni2197" unicode="↗" d="M494 480l8 -8v-350h-29v306l-340 -340l-21 21l342 343h-310v28h350z"></glyph><glyph glyph-name="uni2198" unicode="↘" d="M473 478h29v-350l-8 -8h-350v28h310l-342 343l21 21l340 -340v306z"></glyph><glyph glyph-name="uni2199" unicode="↙" d="M196 148h310v-28h-350l-8 8v350h29v-306l340 340l21 -21z"></glyph><glyph glyph-name="partialdiff" unicode="∂" d="M491 369q0 -166 -69.5 -273.5t-184.5 -107.5q-82 0 -137 52.5t-55 141.5q0 95 65 154.5t179 59.5q70 0 170 -20q-1 133 -50 199t-134 66q-100 0 -160 -82l-22 18q70 93 183 93q99 0 157 -76t58 -225zM459 349q-102 19 -170 19q-105 0 -158.5 -53t-53.5 -132 q0 -73 46 -119.5t115 -46.5q97 0 156.5 93.5t64.5 238.5z"></glyph><glyph glyph-name="uni2206" unicode="∆" d="M340 670l275 -658v-12h-565v12l275 658h15zM332 614l-243 -585h487z"></glyph><glyph glyph-name="product" unicode="∏" d="M103 -121v781h478v-781h-32v752h-414v-752h-32z"></glyph><glyph glyph-name="summation" unicode="∑" d="M102 -92h401v-29h-448v13l259 387l-259 368v13h436v-29h-388l242 -344v-13z"></glyph><glyph glyph-name="minus" unicode="−" d="M66 295v28h427v-28h-427z"></glyph><glyph glyph-name="uni2219" unicode="∙" d="M101 308q0 18 11.5 29t26.5 11q16 0 28 -11t12 -29q0 -17 -12 -27.5t-28 -10.5t-27 10.5t-11 27.5z"></glyph><glyph glyph-name="radical" unicode="√" d="M689 750h32l-513 -883h-15v368h-153v28h183v-315z"></glyph><glyph glyph-name="infinity" unicode="∞" d="M733 308q0 -61 -44 -102t-109 -41q-54 0 -96.5 29t-94.5 92q-52 -64 -94 -92.5t-98 -28.5q-67 0 -110 40t-43 103q0 62 44 103t110 41q54 0 96.5 -28.5t93.5 -90.5q52 63 94 91t96 28q66 0 110.5 -41t44.5 -103zM369 309q-50 62 -86.5 88t-83.5 26q-54 0 -88.5 -32 t-34.5 -83t34 -82.5t88 -31.5q47 0 84 26.5t87 88.5zM701 308q0 51 -34.5 83t-88.5 32q-47 0 -83.5 -26t-86.5 -88q53 -63 88.5 -89t82.5 -26q54 0 88 31.5t34 82.5z"></glyph><glyph glyph-name="integral" unicode="∫" d="M7 -121v26q29 -3 48 -3q115 0 115 141q0 36 -8 102q-7 59 -27 187q-35 213 -35 285q0 82 38.5 125t105.5 43q26 0 51 -5v-26q-29 3 -48 3q-115 0 -115 -140q0 -38 8 -104q8 -64 27 -185q35 -208 35 -285q0 -84 -38.5 -126.5t-105.5 -42.5q-26 0 -51 5z"></glyph><glyph glyph-name="approxequal" unicode="≈" d="M320 365l-99 60q-41 24 -65 24q-21 0 -33.5 -14t-12.5 -36v-31h-29q0 10 -0.5 20t-0.5 11q0 32 20 55t54 23t85 -31l99 -60q41 -24 65 -24q21 0 33.5 14t12.5 36v31h29q0 -10 0.5 -20t0.5 -11q0 -32 -20 -55t-54 -23t-85 31zM320 165l-99 60q-41 24 -65 24 q-21 0 -33.5 -14t-12.5 -36v-31h-29q0 10 -0.5 20t-0.5 11q0 32 20 55t54 23t85 -31l99 -60q41 -24 65 -24q21 0 33.5 14t12.5 36v31h29q0 -10 0.5 -20t0.5 -11q0 -32 -20 -55t-54 -23t-85 31z"></glyph><glyph glyph-name="notequal" unicode="≠" d="M483 395h-129l-113 -173h242v-28h-260l-78 -120h-35l78 120h-112v28h130l113 173h-243v28h261l77 119h35l-77 -119h111v-28z"></glyph><glyph glyph-name="lessequal" unicode="≤" d="M480 500v-31l-357 -139l357 -139v-31l-417 164v12zM73 0v28h407v-28h-407z"></glyph><glyph glyph-name="greaterequal" unicode="≥" d="M80 500l417 -164v-12l-417 -164v31l357 139l-357 139v31zM80 0v28h407v-28h-407z"></glyph><glyph glyph-name="uni24EA" unicode="⓪" d="M59 330q-2 114 56.5 214.5t159 159t214.5 56.5q114 2 214 -57t159 -159t57 -214q2 -114 -57 -214t-159 -159t-214 -57q-114 -2 -214.5 56.5t-159 159t-56.5 214.5zM891 330q2 106 -53 199.5t-149 148.5t-200 53q-106 2 -200.5 -53t-149 -148.5t-52.5 -199.5 q-2 -106 52.5 -199.5t149 -148.5t200.5 -53q106 -2 200 53t149 148.5t53 199.5zM333 333q0 107 40 167.5t116 60.5q77 0 117 -60.5t40 -167.5q0 -103 -39 -169q-37 -66 -118 -66t-118 66q-38 67 -38 169zM614 333q0 199 -125 199q-124 0 -124 -199q0 -96 31 -151t93 -55 q63 0 94 54.5t31 151.5z"></glyph><glyph glyph-name="uni24FF" unicode="⓿" d="M59 330q-2 114 56.5 214.5t159 159t214.5 56.5q114 2 214 -57t159 -159t57 -214q2 -114 -57 -214t-159 -159t-214 -57q-114 -2 -214.5 56.5t-159 159t-56.5 214.5zM646 333q0 107 -40 167.5t-117 60.5q-76 0 -116 -60.5t-40 -167.5q0 -102 38 -169q37 -66 118 -66t118 66 q39 66 39 169zM365 333q0 199 124 199q125 0 125 -199q0 -97 -31 -151.5t-94 -54.5q-62 0 -93 55t-31 151z"></glyph><glyph glyph-name="filledbox" unicode="■" d="M90 55v550h550v-550h-550z"></glyph><glyph glyph-name="uni25A1" unicode="□" d="M90 55v550h550v-550h-550zM121 84h488v492h-488v-492z"></glyph><glyph glyph-name="uni25AA" unicode="▪" d="M80 50v380h381v-380h-381z"></glyph><glyph glyph-name="uni25AB" unicode="▫" d="M80 50v380h381v-380h-381zM110 78h321v324h-321v-324z"></glyph><glyph glyph-name="triagup" unicode="▲" d="M24 55l-4 10l340 595h10l340 -595l-4 -10h-682z"></glyph><glyph glyph-name="uni25B3" unicode="△" d="M370 660l340 -595l-4 -10h-682l-4 10l340 595h10zM665 84l-300 525l-300 -525h600z"></glyph><glyph glyph-name="uni25B4" unicode="▴" d="M30 50l-4 10l234 409h10l234 -409l-4 -10h-470z"></glyph><glyph glyph-name="uni25B5" unicode="▵" d="M270 469l234 -409l-4 -10h-470l-4 10l234 409h10zM460 78l-195 340l-196 -340h391z"></glyph><glyph glyph-name="uni25B6" unicode="▶" d="M130 -10l-10 4v672l10 4l522 -335v-10z"></glyph><glyph glyph-name="uni25B7" unicode="▷" d="M130 670l522 -335v-10l-522 -335l-10 4v672zM605 330l-454 291v-582z"></glyph><glyph glyph-name="uni25B8" unicode="▸" d="M120 5l-10 4v463l10 4l359 -230v-10z"></glyph><glyph glyph-name="uni25B9" unicode="▹" d="M120 476l359 -230v-10l-359 -231l-10 4v463zM434 241l-294 188v-377z"></glyph><glyph glyph-name="triagrt" unicode="►" d="M110 -10l-10 4v672l10 4l831 -335v-10z"></glyph><glyph glyph-name="uni25BB" unicode="▻" d="M110 670l831 -335v-10l-831 -335l-10 4v672zM874 330l-743 300v-600z"></glyph><glyph glyph-name="triagdn" unicode="▼" d="M24 605h682l4 -10l-340 -595h-10l-340 595z"></glyph><glyph glyph-name="uni25BD" unicode="▽" d="M706 605l4 -10l-340 -595h-10l-340 595l4 10h682zM665 576h-600l300 -525z"></glyph><glyph glyph-name="uni25BE" unicode="▾" d="M260 11l-234 409l4 10h470l4 -10l-234 -409h-10z"></glyph><glyph glyph-name="uni25BF" unicode="▿" d="M500 430l4 -10l-234 -409h-10l-234 409l4 10h470zM460 402h-391l196 -340z"></glyph><glyph glyph-name="uni25C0" unicode="◀" d="M600 -10l-522 335v10l522 335l10 -4v-672z"></glyph><glyph glyph-name="uni25C1" unicode="◁" d="M600 670l10 -4v-672l-10 -4l-522 335v10zM579 39v582l-454 -291z"></glyph><glyph glyph-name="uni25C2" unicode="◂" d="M410 5l-359 231v10l359 230l10 -4v-463z"></glyph><glyph glyph-name="uni25C3" unicode="◃" d="M410 476l10 -4v-463l-10 -4l-359 231v10zM390 429l-294 -188l294 -189v377z"></glyph><glyph glyph-name="triaglf" unicode="◄" d="M851 -10l-831 335v10l831 335l10 -4v-672z"></glyph><glyph glyph-name="uni25C5" unicode="◅" d="M851 670l10 -4v-672l-10 -4l-831 335v10zM830 30v600l-743 -300z"></glyph><glyph glyph-name="lozenge" unicode="◊" d="M340 670l213 -340l-213 -340h-15l-213 341l213 339h15zM332 36l185 294l-185 294l-184 -293z"></glyph><glyph glyph-name="circle" unicode="○" d="M37 329q-3 132 96 232t231 97q132 3 231.5 -97t96.5 -232q3 -133 -96 -231t-232 -95q-133 -3 -231.5 95t-95.5 231zM661 329q2 121 -87.5 210.5t-209.5 87.5q-119 2 -208.5 -87.5t-87.5 -210.5q-2 -119 87.5 -208.5t208.5 -86.5q120 -3 209.5 86.5t87.5 208.5z"></glyph><glyph glyph-name="uni25CF" unicode="●" d="M37 329q-3 132 96 232t231 97q132 3 231.5 -97t96.5 -232q3 -133 -96 -231t-232 -95q-133 -3 -231.5 95t-95.5 231z"></glyph><glyph glyph-name="uni261C" unicode="☜" d="M1147 272v-12l-84 -71l44 -169l-12 -8l-220 137q-82 -46 -187 -75t-168 -29q-90 0 -90 61q0 24 15 38q-20 5 -33.5 21.5t-13.5 36.5q0 26 24 43q-36 19 -36 53q0 26 19 39l-195 13q-95 6 -130 21t-35 52q0 39 39 53t142 14q90 0 198 -11v4q0 36 18 56.5t48 20.5 q24 0 49 -15l232 -133q48 -13 100 -32l224 140l12 -8l-44 -169zM454 482v-6q120 -15 217 -38l-143 82q-19 10 -35 10q-39 0 -39 -48zM898 364v-196l164 -100l-34 130l79 68l-79 68l35 131zM523 73q58 0 162 29q102 30 183 77v173q-142 50 -315 80q-175 30 -333 30 q-85 0 -115 -9q-30 -7 -30 -30q0 -21 29 -31t108 -15l167 -11l159 -10v-28l-83 5q-17 1 -28 -8t-11 -25q0 -15 9.5 -24.5t24.5 -9.5h98v-28h-86q-13 0 -23.5 -10t-10.5 -24q0 -15 9.5 -24.5t24.5 -9.5h98v-28h-42h-26q-13 0 -22.5 -9t-9.5 -23q0 -37 63 -37z"></glyph><glyph glyph-name="uni261E" unicode="☞" d="M1165 423q0 -37 -35 -52t-130 -21l-195 -13q19 -13 19 -39q0 -34 -36 -53q24 -16 24 -43q0 -20 -13.5 -36.5t-33.5 -21.5q15 -14 15 -38q0 -61 -90 -61q-64 0 -169 29q-103 28 -186 75l-220 -137l-12 8l44 169l-84 71v12l84 71l-44 169l12 8l224 -140q52 19 100 32 l232 133q25 15 49 15q30 0 48 -20.5t18 -56.5v-4q108 11 198 11q103 0 142 -14t39 -53zM682 520l-143 -82q97 23 217 38v6q0 48 -39 48q-16 0 -35 -10zM312 168v196l-165 101l35 -131l-79 -68l79 -68l-34 -130zM1135 423q0 23 -30 30q-30 9 -115 9q-158 0 -333 -30 q-173 -30 -315 -80v-173q81 -47 182 -77q105 -29 163 -29q63 0 63 37q0 14 -9.5 23t-22.5 9h-26h-42v28h98q15 0 24.5 9.5t9.5 24.5q0 14 -10.5 24t-23.5 10h-86v28h98q15 0 24.5 9.5t9.5 24.5q0 16 -11 25t-28 8l-83 -5v28l159 10l167 11q79 5 108 15t29 31z"></glyph><glyph glyph-name="uni2661" unicode="♡" d="M806 474q0 -53 -25 -97q-24 -45 -83 -107l-263 -280h-10l-263 280q-52 55 -82 103q-26 44 -26 101q0 86 56 141t137 55q63 0 112 -35t71 -93q22 58 71 93t112 35q81 0 137 -55t56 -141zM772 475q0 71 -46.5 117t-113.5 46q-113 0 -177 -151h-10q-64 151 -177 151 q-67 0 -113.5 -46t-46.5 -117q0 -46 23 -88t77 -99l242 -258l242 258q55 58 77.5 100t22.5 87z"></glyph><glyph glyph-name="heart" unicode="♥" d="M425 -10l-263 280q-52 55 -82 103q-26 44 -26 101q0 86 56 141t137 55q63 0 112 -35t71 -93q22 58 71 93t112 35q81 0 137 -55t56 -141q0 -53 -25 -97q-24 -43 -83 -107l-263 -280h-10z"></glyph><glyph glyph-name="uni275B" unicode="❛" d="M614 208q0 -89 -63 -153.5t-168 -64.5q-131 -3 -230.5 100.5t-96.5 239.5q-3 138 97.5 240.5t242.5 99.5q116 0 205 -69l-16 -24q-82 64 -188 64q-130 2 -220.5 -90.5t-88.5 -221.5q0 -87 41 -160.5t113 -114.5q-64 64 -64 154q0 89 64.5 153.5t153.5 64.5t153.5 -64.5 t64.5 -153.5z"></glyph><glyph glyph-name="uni275C" unicode="❜" d="M614 330q3 -138 -97.5 -240.5t-242.5 -99.5q-116 0 -205 69l16 24q82 -64 188 -64q130 -2 220.5 90.5t88.5 221.5q0 87 -41 160.5t-113 114.5q64 -64 64 -154q0 -89 -64.5 -153.5t-153.5 -64.5t-153.5 64.5t-64.5 153.5t63 153.5t168 64.5q131 3 230 -100.5t97 -239.5z "></glyph><glyph glyph-name="uni275D" unicode="❝" d="M1234 208q0 -89 -63 -153.5t-168 -64.5q-131 -3 -230.5 100.5t-96.5 239.5q-3 138 97.5 240.5t242.5 99.5q116 0 205 -69l-16 -24q-82 64 -188 64q-130 2 -220.5 -90.5t-88.5 -221.5q0 -87 41 -160.5t113 -114.5q-64 64 -64 154q0 89 64.5 153.5t153.5 64.5t153.5 -64.5 t64.5 -153.5zM614 208q0 -89 -63 -153.5t-168 -64.5q-131 -3 -230.5 100.5t-96.5 239.5q-3 138 97.5 240.5t242.5 99.5q116 0 205 -69l-16 -24q-82 64 -188 64q-130 2 -220.5 -90.5t-88.5 -221.5q0 -87 41 -160.5t113 -114.5q-64 64 -64 154q0 89 64.5 153.5t153.5 64.5 t153.5 -64.5t64.5 -153.5z"></glyph><glyph glyph-name="uni275E" unicode="❞" d="M604 330q3 -138 -97.5 -240.5t-242.5 -99.5q-116 0 -205 69l16 24q82 -64 188 -64q130 -2 220.5 90.5t88.5 221.5q0 87 -41 160.5t-113 114.5q64 -64 64 -154q0 -89 -64.5 -153.5t-153.5 -64.5t-153.5 64.5t-64.5 153.5t63 153.5t168 64.5q131 3 230 -100.5t97 -239.5z M1234 330q3 -138 -97.5 -240.5t-242.5 -99.5q-116 0 -205 69l16 24q82 -64 188 -64q130 -2 220.5 90.5t88.5 221.5q0 87 -41 160.5t-113 114.5q64 -64 64 -154q0 -89 -64.5 -153.5t-153.5 -64.5t-153.5 64.5t-64.5 153.5t63 153.5t168 64.5q131 3 230 -100.5t97 -239.5z"></glyph><glyph glyph-name="uni2776" unicode="❶" d="M59 330q-2 114 56.5 214.5t159 159t214.5 56.5q114 2 214 -57t159 -159t57 -214q2 -114 -57 -214t-159 -159t-214 -57q-114 -2 -214.5 56.5t-159 159t-56.5 214.5zM370 105h239v27h-101v422h-131v-27h101v-395h-108v-27z"></glyph><glyph glyph-name="uni2777" unicode="❷" d="M59 330q-2 114 56.5 214.5t159 159t214.5 56.5q114 2 214 -57t159 -159t57 -214q2 -114 -57 -214t-159 -159t-214 -57q-114 -2 -214.5 56.5t-159 159t-56.5 214.5zM339 105h302v27h-246l130 133q50 52 72 88.5t22 78.5q0 55 -38 92t-97 37q-62 0 -102 -39.5t-40 -93.5 q0 -27 6 -48h28q-6 28 -6 46q0 46 31.5 76t81.5 30q49 0 76.5 -27.5t27.5 -71.5q0 -37 -20.5 -71t-64.5 -79l-163 -168v-10z"></glyph><glyph glyph-name="uni2778" unicode="❸" d="M59 330q-2 114 56.5 214.5t159 159t214.5 56.5q114 2 214 -57t159 -159t57 -214q2 -114 -57 -214t-159 -159t-214 -57q-114 -2 -214.5 56.5t-159 159t-56.5 214.5zM629 244q0 63 -42 99t-105 37l134 163v11h-259v-27h210l-135 -164v-10h37q60 0 94 -29.5t34 -79.5 q0 -52 -34 -84.5t-87 -32.5q-76 0 -124 75l-23 -17q55 -87 146 -87q63 0 108.5 40t45.5 106z"></glyph><glyph glyph-name="uni2779" unicode="❹" d="M59 330q-2 114 56.5 214.5t159 159t214.5 56.5q114 2 214 -57t159 -159t57 -214q2 -114 -57 -214t-159 -159t-214 -57q-114 -2 -214.5 56.5t-159 159t-56.5 214.5zM542 105h31v89h70v27h-70v165h-31v-165h-187l144 333h-32l-151 -350v-10h226v-89z"></glyph><glyph glyph-name="uni277A" unicode="❺" d="M59 330q-2 114 56.5 214.5t159 159t214.5 56.5q114 2 214 -57t159 -159t57 -214q2 -114 -57 -214t-159 -159t-214 -57q-114 -2 -214.5 56.5t-159 159t-56.5 214.5zM640 244q0 65 -43.5 101t-111.5 36q-31 0 -74 -4v150h206v27h-236v-201h99q61 0 94.5 -29t33.5 -80 t-34 -84.5t-85 -33.5q-78 0 -127 76l-23 -17q55 -88 149 -88q61 0 106.5 40.5t45.5 106.5z"></glyph><glyph glyph-name="uni277B" unicode="❻" d="M59 330q-2 114 56.5 214.5t159 159t214.5 56.5q114 2 214 -57t159 -159t57 -214q2 -114 -57 -214t-159 -159t-214 -57q-114 -2 -214.5 56.5t-159 159t-56.5 214.5zM626 243q0 60 -42.5 102t-102.5 42q-37 0 -62 -17l125 184h-37l-112 -166q-37 -55 -49 -80 q-13 -27 -13 -65q0 -60 42.5 -102.5t103.5 -42.5t104 42.5t43 102.5zM365 243q0 49 32.5 82.5t81.5 33.5t82 -33.5t33 -82.5t-33 -82.5t-82 -33.5t-81.5 33t-32.5 83z"></glyph><glyph glyph-name="uni277C" unicode="❼" d="M59 330q-2 114 56.5 214.5t159 159t214.5 56.5q114 2 214 -57t159 -159t57 -214q2 -114 -57 -214t-159 -159t-214 -57q-114 -2 -214.5 56.5t-159 159t-56.5 214.5zM374 106h33l240 439v10h-291v-27h250z"></glyph><glyph glyph-name="uni277D" unicode="❽" d="M59 330q-2 114 56.5 214.5t159 159t214.5 56.5q114 2 214 -57t159 -159t57 -214q2 -114 -57 -214t-159 -159t-214 -57q-114 -2 -214.5 56.5t-159 159t-56.5 214.5zM641 216q0 82 -116 126q94 34 94 111q0 50 -36.5 79t-92.5 29q-57 0 -93.5 -29t-36.5 -78q0 -75 95 -113 q-117 -37 -117 -124q0 -53 41.5 -86t110.5 -33q68 0 109.5 33t41.5 85zM392 452q0 36 27.5 58t70.5 22t70 -22t27 -58q0 -34 -23.5 -55t-74.5 -40q-51 19 -74 40t-23 55zM370 217q0 40 27 62.5t92 45.5q65 -23 92.5 -45.5t27.5 -62.5q0 -42 -31.5 -66t-87.5 -24 q-57 0 -88.5 24t-31.5 66z"></glyph><glyph glyph-name="uni277E" unicode="❾" d="M59 330q-2 114 57 214t159 159t214 57q114 2 214.5 -56.5t159 -159t56.5 -214.5q2 -114 -56.5 -214.5t-159 -159t-214.5 -56.5q-114 -2 -214 57t-159 159t-57 214zM434 106h37l112 166q35 52 48 79q14 30 14 66q0 60 -42.5 102.5t-103.5 42.5t-104 -42.5t-43 -102.5 t42.5 -102t102.5 -42q37 0 62 17zM384 417q0 49 33 82.5t82 33.5t81.5 -33t32.5 -83q0 -49 -32.5 -82.5t-81.5 -33.5t-82 33.5t-33 82.5z"></glyph><glyph glyph-name="uni2780" unicode="➀" d="M59 330q-2 114 56.5 214.5t159 159t214.5 56.5q114 2 214 -57t159 -159t57 -214q2 -114 -57 -214t-159 -159t-214 -57q-114 -2 -214.5 56.5t-159 159t-56.5 214.5zM891 330q2 106 -53 199.5t-149 148.5t-200 53q-106 2 -200.5 -53t-149 -148.5t-52.5 -199.5 q-2 -106 52.5 -199.5t149 -148.5t200.5 -53q106 -2 200 53t149 148.5t53 199.5zM370 105v27h108v395h-101v27h131v-422h101v-27h-239z"></glyph><glyph glyph-name="uni2781" unicode="➁" d="M59 330q-2 114 56.5 214.5t159 159t214.5 56.5q114 2 214 -57t159 -159t57 -214q2 -114 -57 -214t-159 -159t-214 -57q-114 -2 -214.5 56.5t-159 159t-56.5 214.5zM891 330q2 106 -53 199.5t-149 148.5t-200 53q-106 2 -200.5 -53t-149 -148.5t-52.5 -199.5 q-2 -106 52.5 -199.5t149 -148.5t200.5 -53q106 -2 200 53t149 148.5t53 199.5zM339 105v10l163 168q44 45 64.5 79t20.5 71q0 44 -27.5 71.5t-76.5 27.5q-50 0 -81.5 -30t-31.5 -76q0 -18 6 -46h-28q-6 21 -6 48q0 54 40 93.5t102 39.5q59 0 97 -37t38 -92 q0 -42 -22.5 -78.5t-72.5 -88.5l-130 -133h247v-27h-302z"></glyph><glyph glyph-name="uni2782" unicode="➂" d="M59 330q-2 114 56.5 214.5t159 159t214.5 56.5q114 2 214 -57t159 -159t57 -214q2 -114 -57 -214t-159 -159t-214 -57q-114 -2 -214.5 56.5t-159 159t-56.5 214.5zM891 330q2 106 -53 199.5t-149 148.5t-200 53q-106 2 -200.5 -53t-149 -148.5t-52.5 -199.5 q-2 -106 52.5 -199.5t149 -148.5t200.5 -53q106 -2 200 53t149 148.5t53 199.5zM329 185l23 17q48 -75 124 -75q53 0 87 32.5t34 84.5q0 50 -34 79.5t-94 29.5h-37v10l135 164h-210v27h259v-11l-134 -163q63 -1 105 -37t42 -99q0 -66 -45.5 -106t-108.5 -40q-91 0 -146 87z "></glyph><glyph glyph-name="uni2783" unicode="➃" d="M59 330q-2 114 56.5 214.5t159 159t214.5 56.5q114 2 214 -57t159 -159t57 -214q2 -114 -57 -214t-159 -159t-214 -57q-114 -2 -214.5 56.5t-159 159t-56.5 214.5zM891 330q2 106 -53 199.5t-149 148.5t-200 53q-106 2 -200.5 -53t-149 -148.5t-52.5 -199.5 q-2 -106 52.5 -199.5t149 -148.5t200.5 -53q106 -2 200 53t149 148.5t53 199.5zM542 105v89h-226v10l151 350h32l-144 -333h187v165h31v-165h70v-27h-70v-89h-31z"></glyph><glyph glyph-name="uni2784" unicode="➄" d="M59 330q-2 114 56.5 214.5t159 159t214.5 56.5q114 2 214 -57t159 -159t57 -214q2 -114 -57 -214t-159 -159t-214 -57q-114 -2 -214.5 56.5t-159 159t-56.5 214.5zM891 330q2 106 -53 199.5t-149 148.5t-200 53q-106 2 -200.5 -53t-149 -148.5t-52.5 -199.5 q-2 -106 52.5 -199.5t149 -148.5t200.5 -53q106 -2 200 53t149 148.5t53 199.5zM339 185l23 17q49 -76 127 -76q51 0 85 33.5t34 84.5t-33.5 80t-94.5 29h-99v201h236v-27h-206v-150q43 4 74 4q68 0 111.5 -36t43.5 -101q0 -66 -45.5 -106.5t-106.5 -40.5q-94 0 -149 88z "></glyph><glyph glyph-name="uni2785" unicode="➅" d="M59 330q-2 114 56.5 214.5t159 159t214.5 56.5q114 2 214 -57t159 -159t57 -214q2 -114 -57 -214t-159 -159t-214 -57q-114 -2 -214.5 56.5t-159 159t-56.5 214.5zM891 330q2 106 -53 199.5t-149 148.5t-200 53q-106 2 -200.5 -53t-149 -148.5t-52.5 -199.5 q-2 -106 52.5 -199.5t149 -148.5t200.5 -53q106 -2 200 53t149 148.5t53 199.5zM333 243q0 38 13 65q12 25 49 80l112 166h37l-125 -184q25 17 62 17q60 0 102.5 -42t42.5 -102t-43 -102.5t-104 -42.5t-103.5 42.5t-42.5 102.5zM594 243q0 49 -33 82.5t-82 33.5t-81.5 -33.5 t-32.5 -82.5q0 -50 32.5 -83t81.5 -33t82 33.5t33 82.5z"></glyph><glyph glyph-name="uni2786" unicode="➆" d="M59 330q-2 114 56.5 214.5t159 159t214.5 56.5q114 2 214 -57t159 -159t57 -214q2 -114 -57 -214t-159 -159t-214 -57q-114 -2 -214.5 56.5t-159 159t-56.5 214.5zM891 330q2 106 -53 199.5t-149 148.5t-200 53q-106 2 -200.5 -53t-149 -148.5t-52.5 -199.5 q-2 -106 52.5 -199.5t149 -148.5t200.5 -53q106 -2 200 53t149 148.5t53 199.5zM374 106l232 422h-250v27h291v-10l-240 -439h-33z"></glyph><glyph glyph-name="uni2787" unicode="➇" d="M59 330q-2 114 56.5 214.5t159 159t214.5 56.5q114 2 214 -57t159 -159t57 -214q2 -114 -57 -214t-159 -159t-214 -57q-114 -2 -214.5 56.5t-159 159t-56.5 214.5zM891 330q2 106 -53 199.5t-149 148.5t-200 53q-106 2 -200.5 -53t-149 -148.5t-52.5 -199.5 q-2 -106 52.5 -199.5t149 -148.5t200.5 -53q106 -2 200 53t149 148.5t53 199.5zM338 217q0 87 117 124q-95 38 -95 113q0 49 36.5 78t93.5 29q56 0 92.5 -29t36.5 -79q0 -77 -94 -111q116 -44 116 -126q0 -52 -41.5 -85t-109.5 -33q-69 0 -110.5 33t-41.5 86zM587 452 q0 36 -27 58t-70 22t-70.5 -22t-27.5 -58q0 -34 23 -55t74 -40q51 19 74.5 40t23.5 55zM609 217q0 40 -28 63.5t-92 45.5q-64 -22 -91.5 -45t-27.5 -64q0 -42 31.5 -66t88.5 -24q56 0 87.5 24t31.5 66z"></glyph><glyph glyph-name="uni2788" unicode="➈" d="M59 330q-2 114 57 214t159 159t214 57q114 2 214.5 -56.5t159 -159t56.5 -214.5q2 -114 -56.5 -214.5t-159 -159t-214.5 -56.5q-114 -2 -214 57t-159 159t-57 214zM891 330q2 106 -53 199.5t-149 148.5t-200 53q-106 2 -200.5 -53t-149 -148.5t-52.5 -199.5 q-2 -106 52.5 -199.5t149 -148.5t200.5 -53q106 -2 200 53t149 148.5t53 199.5zM434 106l125 184q-25 -17 -62 -17q-60 0 -102.5 42t-42.5 102t43 102.5t104 42.5t103.5 -42.5t42.5 -102.5q0 -36 -14 -66q-13 -27 -48 -79l-112 -166h-37zM613 417q0 50 -32.5 83t-81.5 33 t-82 -33.5t-33 -82.5t33 -82.5t82 -33.5t81.5 33.5t32.5 82.5z"></glyph><glyph glyph-name="uni27F5" unicode="⟵" d="M1176 295h-1043l209 -209l-19 -19l-237 237v12l237 237l19 -19l-211 -211h1045v-28z"></glyph><glyph glyph-name="uni27F6" unicode="⟶" d="M893 553l237 -237v-12l-237 -237l-19 19l209 209h-1043v28h1045l-211 211z"></glyph><glyph glyph-name="uniF8FF" unicode="" d="M49 0v660h235l24 -285l7 -145h20l8 145l24 285h241v-660h-155v359h-21l-7 -108l-39 -251h-127l-37 251l-8 108h-21v-359h-144zM45 -168v132h566v-132h-566z"></glyph><glyph glyph-name="Iacute_J.loclNLD" d="M103 0v660h32v-660h-32zM105 724l96 186h37v-5l-107 -181h-26zM268 0v29q46 -8 77 -8q119 0 119 114v525h32v-525q0 -73 -39.5 -109t-110.5 -36q-38 0 -78 10zM463 724l96 186h37v-5l-107 -181h-26z"></glyph><glyph glyph-name="Cacute.loclPLK" d="M57 330q-2 141 97 242t237 98q79 0 147 -34t114 -95l-24 -19q-88 117 -236 117q-126 2 -214.5 -88.5t-86.5 -219.5q-2 -129 86.5 -220.5t214.5 -89.5q148 0 236 117l24 -19q-46 -61 -114 -95t-147 -34q-137 -3 -236.5 98.5t-97.5 241.5zM381 724l56 186h37v-5l-67 -181 h-26z"></glyph><glyph glyph-name="Nacute.loclPLK" d="M569 660h32v-670h-15l-451 601v-591h-32v670h15l451 -606v596zM340 724l56 186h37v-5l-67 -181h-26z"></glyph><glyph glyph-name="Oacute.loclPLK" d="M57 330q-2 141 97 242t237 98q137 2 237.5 -99t98.5 -241q2 -140 -98.5 -241.5t-237.5 -98.5q-137 -3 -236.5 98.5t-97.5 241.5zM693 331q2 127 -87 218.5t-214 89.5q-125 2 -214 -89t-87 -219q-2 -129 86.5 -220.5t214.5 -89.5q125 -2 214 90t87 220zM380 724l56 186h37 v-5l-67 -181h-26z"></glyph><glyph glyph-name="Sacute.loclPLK" d="M50 129l24 18q80 -126 210 -126q72 0 117.5 37.5t45.5 100.5q0 55 -27 84t-104 67l-76 36q-46 22 -74 40q-69 45 -69 128q0 73 53 114q54 42 133 42q123 0 191 -100l-24 -19q-64 88 -165 88q-61 0 -108 -30q-46 -30 -46 -93q3 -55 29 -81.5t95 -60.5l76 -36 q80 -38 115 -77t35 -102q0 -75 -56.5 -122t-141.5 -47q-148 0 -233 139zM271 724l56 186h37v-5l-67 -181h-26z"></glyph><glyph glyph-name="Zacute.loclPLK" d="M91 29h459v-29h-508v12l458 619h-414v29h463v-12zM286 724l56 186h37v-5l-67 -181h-26z"></glyph><glyph glyph-name="Idotaccent.loclTRK" d="M103 0v660h32v-660h-32zM85 806q0 14 10 24t24 10t24 -10t10 -24t-10 -24t-24 -10t-24 10t-10 24z"></glyph><glyph glyph-name="A.ordn" d="M370 244l-42 100h-220l-41 -100h-33l178 422h13l178 -422h-33zM218 610l-99 -238h198z"></glyph><glyph glyph-name="O.ordn" d="M43 452q0 90 61.5 152t149.5 62t150.5 -62t62.5 -152q0 -89 -62.5 -151.5t-150.5 -62.5q-89 0 -150 61.5t-61 152.5zM435 452q0 79 -51.5 131.5t-128.5 52.5t-128.5 -52.5t-51.5 -131.5q0 -78 52 -131t128 -53t128 53t52 131z"></glyph><glyph glyph-name="iacute_j.loclNLD" d="M99 0v480h30v-480h-30zM100 562l66 218h37v-5l-77 -213h-26zM171 -184v27q32 -5 48 -5q108 0 108 107v535h30v-535q0 -68 -36 -101.5t-100 -33.5q-26 0 -50 6zM328 562l66 218h37v-5l-77 -213h-26z"></glyph><glyph glyph-name="cacute.loclPLK" d="M60 240q0 104 71.5 177t174.5 73q118 0 192 -95l-22 -18q-65 84 -170 84q-90 0 -152 -64t-62 -157t61.5 -157t151.5 -64q106 0 171 84l22 -18q-74 -95 -193 -95q-100 -2 -173.5 73.5t-71.5 176.5zM293 562l56 218h37v-5l-67 -213h-26z"></glyph><glyph glyph-name="nacute.loclPLK" d="M460 305v-305h-30v305q0 70 -39.5 113t-105.5 43q-68 0 -112 -44t-44 -112v-305h-30v480h30v-77q49 87 157 87q80 0 127 -51t47 -134zM271 562l56 218h37v-5l-67 -213h-26z"></glyph><glyph glyph-name="oacute.loclPLK" d="M60 240q-2 103 71.5 177.5t174.5 72.5q101 2 175 -72.5t72 -177.5q0 -104 -72.5 -177t-175.5 -73q-100 -2 -173.5 72.5t-71.5 177.5zM521 240q0 93 -62.5 157t-152.5 64q-91 0 -152.5 -63.5t-61.5 -157.5t61.5 -157.5t151.5 -63.5q91 0 153.5 64.5t62.5 156.5zM294 562 l56 218h37v-5l-67 -213h-26z"></glyph><glyph glyph-name="sacute.loclPLK" d="M52 95l24 18q66 -94 158 -94q53 0 86.5 25.5t33.5 71.5q-3 43 -26 64t-83 48l-42 19q-61 27 -89 54t-28 70q0 55 43 86q43 33 103 33q89 0 151 -77l-22 -20q-57 68 -131 68q-48 0 -80 -23.5t-32 -65.5q1 -17 6.5 -29.5t9.5 -19.5t21.5 -17.5t25 -14t38.5 -18.5l45 -20 q62 -27 92 -57t30 -78q0 -60 -45 -94q-44 -34 -109 -34q-112 0 -180 105zM219 562l56 218h37v-5l-67 -213h-26z"></glyph><glyph glyph-name="zacute.loclPLK" d="M83 28h327v-28h-372v12l322 440h-299v28h344v-12zM221 562l56 218h37v-5l-67 -213h-26z"></glyph><glyph glyph-name="i.loclTRK.loclTRK" d="M99 0v480h30v-480h-30zM80 666q0 14 10 24t24 10t24 -10t10 -24t-10 -24t-24 -10t-24 10t-10 24z"></glyph><glyph glyph-name="a.ss01" d="M506 480h30v-480h-30v115q-25 -57 -82 -91t-124 -34q-101 0 -170.5 73.5t-69.5 176.5q0 104 69.5 177t170.5 73q67 0 124 -34t82 -91v115zM506 240q0 106 -59.5 163.5t-146.5 57.5q-90 0 -149 -63.5t-59 -157.5q0 -93 59.5 -157t148.5 -64q87 0 146.5 57.5t59.5 163.5z "></glyph><glyph glyph-name="y.ss01" d="M422 480h30v-475q0 -95 -52 -144q-52 -51 -132 -51q-113 0 -184 95l22 19q66 -86 161 -86q69 0 112 44t43 122v83q-49 -87 -158 -87q-82 0 -127.5 51.5t-45.5 137.5v291h30v-291q0 -72 38.5 -116t105.5 -44q69 0 113 44t44 112v295z"></glyph><glyph glyph-name="aacute.ss01" d="M506 480h30v-480h-30v115q-25 -57 -82 -91t-124 -34q-101 0 -170.5 73.5t-69.5 176.5q0 104 69.5 177t170.5 73q67 0 124 -34t82 -91v115zM506 240q0 106 -59.5 163.5t-146.5 57.5q-90 0 -149 -63.5t-59 -157.5q0 -93 59.5 -157t148.5 -64q87 0 146.5 57.5t59.5 163.5z M301 562l96 218h37v-5l-107 -213h-26z"></glyph><glyph glyph-name="abreve.ss01" d="M506 480h30v-480h-30v115q-25 -57 -82 -91t-124 -34q-101 0 -170.5 73.5t-69.5 176.5q0 104 69.5 177t170.5 73q67 0 124 -34t82 -91v115zM506 240q0 106 -59.5 163.5t-146.5 57.5q-90 0 -149 -63.5t-59 -157.5q0 -93 59.5 -157t148.5 -64q87 0 146.5 57.5t59.5 163.5z M179 719v34h30v-32q0 -56 28 -87t77 -31t77 31t28 87v32h30v-34q0 -66 -36.5 -105t-98.5 -39t-98.5 39t-36.5 105z"></glyph><glyph glyph-name="acircumflex.ss01" d="M506 480h30v-480h-30v115q-25 -57 -82 -91t-124 -34q-101 0 -170.5 73.5t-69.5 176.5q0 104 69.5 177t170.5 73q67 0 124 -34t82 -91v115zM506 240q0 106 -59.5 163.5t-146.5 57.5q-90 0 -149 -63.5t-59 -157.5q0 -93 59.5 -157t148.5 -64q87 0 146.5 57.5t59.5 163.5z M457 562h-27l-116 172l-117 -172h-27l136 218h15z"></glyph><glyph glyph-name="adieresis.ss01" d="M506 480h30v-480h-30v115q-25 -57 -82 -91t-124 -34q-101 0 -170.5 73.5t-69.5 176.5q0 104 69.5 177t170.5 73q67 0 124 -34t82 -91v115zM506 240q0 106 -59.5 163.5t-146.5 57.5q-90 0 -149 -63.5t-59 -157.5q0 -93 59.5 -157t148.5 -64q87 0 146.5 57.5t59.5 163.5z M184 666q0 14 10 24t24 10t24 -10t10 -24t-10 -24t-24 -10t-24 10t-10 24zM375 666q0 14 10 24t24 10t24 -10t10 -24t-10 -24t-24 -10t-24 10t-10 24z"></glyph><glyph glyph-name="agrave.ss01" d="M506 480h30v-480h-30v115q-25 -57 -82 -91t-124 -34q-101 0 -170.5 73.5t-69.5 176.5q0 104 69.5 177t170.5 73q67 0 124 -34t82 -91v115zM506 240q0 106 -59.5 163.5t-146.5 57.5q-90 0 -149 -63.5t-59 -157.5q0 -93 59.5 -157t148.5 -64q87 0 146.5 57.5t59.5 163.5z M304 562l-107 213v5h37l96 -218h-26z"></glyph><glyph glyph-name="amacron.ss01" d="M506 480h30v-480h-30v115q-25 -57 -82 -91t-124 -34q-101 0 -170.5 73.5t-69.5 176.5q0 104 69.5 177t170.5 73q67 0 124 -34t82 -91v115zM506 240q0 106 -59.5 163.5t-146.5 57.5q-90 0 -149 -63.5t-59 -157.5q0 -93 59.5 -157t148.5 -64q87 0 146.5 57.5t59.5 163.5z M188 653v28h252v-28h-252z"></glyph><glyph glyph-name="aogonek.ss01" d="M506 480h30v-480h-30v115q-25 -57 -82 -91t-124 -34q-101 0 -170.5 73.5t-69.5 176.5q0 104 69.5 177t170.5 73q67 0 124 -34t82 -91v115zM506 240q0 106 -59.5 163.5t-146.5 57.5q-90 0 -149 -63.5t-59 -157.5q0 -93 59.5 -157t148.5 -64q87 0 146.5 57.5t59.5 163.5z M380 -115q0 33 32 62q30 27 114 73l10 -20l-58 -37q-38 -25 -52.5 -40t-14.5 -35q0 -23 17.5 -36.5t46.5 -13.5q25 0 61 9v-27q-33 -10 -61 -10q-41 0 -68 20.5t-27 54.5z"></glyph><glyph glyph-name="aring.ss01" d="M506 480h30v-480h-30v115q-25 -57 -82 -91t-124 -34q-101 0 -170.5 73.5t-69.5 176.5q0 104 69.5 177t170.5 73q67 0 124 -34t82 -91v115zM506 240q0 106 -59.5 163.5t-146.5 57.5q-90 0 -149 -63.5t-59 -157.5q0 -93 59.5 -157t148.5 -64q87 0 146.5 57.5t59.5 163.5z M216 666q0 40 28.5 68.5t69.5 28.5t69.5 -28.5t28.5 -68.5t-28.5 -68.5t-69.5 -28.5t-69.5 28.5t-28.5 68.5zM382 666q0 29 -19.5 49t-48.5 20t-48.5 -20t-19.5 -49t19.5 -49t48.5 -20t48.5 20t19.5 49z"></glyph><glyph glyph-name="atilde.ss01" d="M506 480h30v-480h-30v115q-25 -57 -82 -91t-124 -34q-101 0 -170.5 73.5t-69.5 176.5q0 104 69.5 177t170.5 73q67 0 124 -34t82 -91v115zM506 240q0 106 -59.5 163.5t-146.5 57.5q-90 0 -149 -63.5t-59 -157.5q0 -93 59.5 -157t148.5 -64q87 0 146.5 57.5t59.5 163.5z M318 642l-25 27q-22 25 -43 25q-34 0 -34 -49v-21h-29q-1 4 -1 19q0 34 16 56.5t46 22.5q32 0 62 -33l25 -27q22 -25 43 -25q34 0 34 49v21h29q1 -4 1 -19q0 -34 -16 -56.5t-45 -22.5q-33 0 -63 33z"></glyph><glyph glyph-name="yacute.ss01" d="M422 480h30v-475q0 -95 -52 -144q-52 -51 -132 -51q-113 0 -184 95l22 19q66 -86 161 -86q69 0 112 44t43 122v83q-49 -87 -158 -87q-82 0 -127.5 51.5t-45.5 137.5v291h30v-291q0 -72 38.5 -116t105.5 -44q69 0 113 44t44 112v295zM259 562l96 218h37v-5l-107 -213h-26z "></glyph><glyph glyph-name="ycircumflex.ss01" d="M422 480h30v-475q0 -95 -52 -144q-52 -51 -132 -51q-113 0 -184 95l22 19q66 -86 161 -86q69 0 112 44t43 122v83q-49 -87 -158 -87q-82 0 -127.5 51.5t-45.5 137.5v291h30v-291q0 -72 38.5 -116t105.5 -44q69 0 113 44t44 112v295zM415 562h-27l-116 172l-117 -172h-27 l136 218h15z"></glyph><glyph glyph-name="ydieresis.ss01" d="M422 480h30v-475q0 -95 -52 -144q-52 -51 -132 -51q-113 0 -184 95l22 19q66 -86 161 -86q69 0 112 44t43 122v83q-49 -87 -158 -87q-82 0 -127.5 51.5t-45.5 137.5v291h30v-291q0 -72 38.5 -116t105.5 -44q69 0 113 44t44 112v295zM142 666q0 14 10 24t24 10t24 -10 t10 -24t-10 -24t-24 -10t-24 10t-10 24zM333 666q0 14 10 24t24 10t24 -10t10 -24t-10 -24t-24 -10t-24 10t-10 24z"></glyph><glyph glyph-name="ygrave.ss01" d="M422 480h30v-475q0 -95 -52 -144q-52 -51 -132 -51q-113 0 -184 95l22 19q66 -86 161 -86q69 0 112 44t43 122v83q-49 -87 -158 -87q-82 0 -127.5 51.5t-45.5 137.5v291h30v-291q0 -72 38.5 -116t105.5 -44q69 0 113 44t44 112v295zM262 562l-107 213v5h37l96 -218h-26z "></glyph><glyph glyph-name="ordfeminine.ss01" d="M321 548h29v-304h-29v64q-16 -32 -50.5 -51t-74.5 -19q-63 0 -107 46.5t-44 111.5q0 66 43.5 112t106.5 46q42 0 76 -19t50 -52v65zM320 396q0 62 -34 95.5t-86 33.5q-54 0 -88.5 -36.5t-34.5 -92.5q0 -55 34.5 -92t87.5 -37t87 34t34 95z"></glyph><glyph glyph-name="uni0414.loclBGR" d="M638 29h69v-170h-32v141h-613v-141h-32v170h69l262 641h15zM368 614l-236 -585h473z"></glyph><glyph glyph-name="uni041B.loclBGR" d="M620 0h-33l-255 614l-254 -614h-33l280 670h15z"></glyph><glyph glyph-name="uni0424.loclBGR" d="M743 325q0 -131 -90 -213t-237 -82v-68h-32v68q-147 0 -237 82t-90 213q0 136 89.5 220t237.5 84v68h32v-68q148 0 237.5 -84t89.5 -220zM384 61v537q-136 0 -214.5 -74t-78.5 -199q0 -119 79.5 -191.5t213.5 -72.5zM709 325q0 125 -78.5 199t-214.5 74v-537 q134 0 213.5 72.5t79.5 191.5z"></glyph><glyph glyph-name="uni0432.loclBGR" d="M502 206q0 -96 -61 -156t-151 -60q-82 0 -136.5 53.5t-54.5 155.5v361q0 97 51.5 148.5t131.5 51.5t129.5 -51t49.5 -128q0 -62 -34.5 -109t-92.5 -66q77 -18 122.5 -71t45.5 -129zM129 560v-144h120q81 0 130 45q50 47 50 122q0 68 -40.5 108t-107.5 40q-70 0 -111 -43 t-41 -128zM470 205q0 84 -59 134q-58 49 -149 49h-133v-187q0 -90 43.5 -136t116.5 -46q79 0 130 51t51 135z"></glyph><glyph glyph-name="uni0433.loclBGR" d="M69 116q0 48 29.5 78.5t92.5 58.5l45 20q44 20 59.5 29t27.5 25.5t14 44.5q0 42 -32 65.5t-80 23.5q-74 0 -131 -68l-22 20q62 77 152 77q59 0 102 -31t43 -85q0 -42 -29.5 -71.5t-87.5 -55.5l-42 -19q-60 -27 -83 -48t-26 -64q0 -46 33.5 -71.5t86.5 -25.5q92 0 158 94 l24 -18q-68 -105 -180 -105q-64 0 -109 33t-45 93z"></glyph><glyph glyph-name="uni0434.loclBGR" d="M513 480h30v-440q0 -105 -63.5 -167.5t-163.5 -62.5q-64 0 -121.5 25.5t-95.5 68.5l21 20q34 -39 86.5 -62t109.5 -23q89 0 143 53.5t54 147.5v82q-25 -54 -82.5 -88t-124.5 -34q-98 -2 -169.5 72t-69.5 173q-2 99 69.5 173t169.5 72q67 0 124.5 -34t82.5 -88v112z M513 245q0 103 -60 159.5t-145 56.5q-90 0 -149.5 -62.5t-59.5 -153.5t59.5 -153.5t149.5 -62.5q86 0 145.5 56.5t59.5 159.5z"></glyph><glyph glyph-name="uni0436.loclBGR" d="M344 0v750h30v-750h-30zM53 480h43l229 -220l-255 -260h-40l254 260zM434 260l254 -260h-40l-255 260l229 220h43z"></glyph><glyph glyph-name="uni0437.loclBGR" d="M414 -2q0 -79 -50 -133.5t-136 -54.5q-130 0 -193 100l22 18q54 -89 170 -89q71 0 113 44t42 115q0 72 -48.5 116t-131.5 44h-59v28h55q73 0 116.5 39.5t43.5 100.5q0 64 -35 99.5t-98 35.5q-91 0 -145 -80l-21 18q61 91 166 91q76 0 120.5 -44.5t44.5 -118.5 q0 -52 -30 -93t-83 -59q64 -17 100.5 -65t36.5 -112z"></glyph><glyph glyph-name="uni0438.loclBGR" d="M422 480h30v-480h-30v77q-49 -87 -157 -87q-80 0 -127 51t-47 134v305h30v-305q0 -70 39.5 -113t105.5 -43q68 0 112 44t44 112v305z"></glyph><glyph glyph-name="uni0439.loclBGR" d="M422 480h30v-480h-30v77q-49 -87 -157 -87q-80 0 -127 51t-47 134v305h30v-305q0 -70 39.5 -113t105.5 -43q68 0 112 44t44 112v305zM141 719v34h30v-32q0 -56 28 -87.5t77 -31.5t77 31.5t28 87.5v32h30v-34q0 -66 -36.5 -105t-98.5 -39t-98.5 39t-36.5 105z"></glyph><glyph glyph-name="uni045D.loclBGR" d="M422 480h30v-480h-30v77q-49 -87 -157 -87q-80 0 -127 51t-47 134v305h30v-305q0 -70 39.5 -113t105.5 -43q68 0 112 44t44 112v305zM266 562l-107 213v5h37l96 -218h-26z"></glyph><glyph glyph-name="uni043A.loclBGR" d="M99 0v750h30v-750h-30zM189 269l254 -269h-40l-255 270l229 210h43z"></glyph><glyph glyph-name="uni043B.loclBGR" d="M482 0h-33l-190 437l-190 -437h-33l216 490h15z"></glyph><glyph glyph-name="uni043F.loclBGR" d="M460 305v-305h-30v305q0 70 -39.5 113t-105.5 43q-68 0 -112 -44t-44 -112v-305h-30v480h30v-77q49 87 157 87q80 0 127 -51t47 -134z"></glyph><glyph glyph-name="uni0442.loclBGR" d="M769 305v-305h-30v305q0 70 -37 113t-101 43q-65 0 -108.5 -43.5t-43.5 -103.5v-314h-30v305q0 71 -37 113.5t-102 42.5t-109 -44q-42 -43 -42 -112v-305h-30v480h30v-75q47 85 152 85q115 0 154 -103q22 47 65 75t101 28q79 0 123.5 -50t44.5 -135z"></glyph><glyph glyph-name="uni0446.loclBGR" d="M452 28h75v-169h-30v141h-75v77q-49 -87 -157 -87q-80 0 -127 51t-47 134v305h30v-305q0 -70 39.5 -113t105.5 -43q68 0 112 44t44 112v305h30v-452z"></glyph><glyph glyph-name="uni0448.loclBGR" d="M731 480h30v-480h-30v75q-47 -85 -152 -85q-115 0 -154 103q-22 -47 -65 -75t-101 -28q-79 0 -123.5 50t-44.5 135v305h30v-305q0 -70 37 -113t101 -43q65 0 108.5 43.5t43.5 103.5v314h30v-305q0 -71 37 -113.5t102 -42.5q66 0 108 44q43 43 43 112v305z"></glyph><glyph glyph-name="uni0449.loclBGR" d="M761 28h75v-169h-30v141h-75v75q-47 -85 -152 -85q-115 0 -154 103q-22 -47 -65 -75t-101 -28q-79 0 -123.5 50t-44.5 135v305h30v-305q0 -70 37 -113t101 -43q65 0 108.5 43.5t43.5 103.5v314h30v-305q0 -71 37 -113.5t102 -42.5q66 0 108 44q43 43 43 112v305h30v-452z "></glyph><glyph glyph-name="uni044C.loclBGR" d="M441 153q0 -73 -47 -118t-125 -45q-79 0 -128.5 51t-49.5 134v305h30v-172h139q86 0 133.5 -42t47.5 -113zM409 152q0 58 -39 93t-110 35h-139v-105q0 -72 40 -114t106 -42q65 0 103.5 36.5t38.5 96.5z"></glyph><glyph glyph-name="uni044A.loclBGR" d="M163 175v277h-135v28h165v-182h160q79 0 124 -41t45 -109q0 -70 -47 -114t-125 -44q-82 0 -135 50q-52 51 -52 135zM490 147q0 56 -36.5 89.5t-102.5 33.5h-158v-95q0 -72 42.5 -114t112.5 -42q65 0 103.5 35.5t38.5 92.5z"></glyph><glyph glyph-name="uni044E.loclBGR" d="M737 240q2 -101 -71.5 -176.5t-171.5 -73.5q-97 -2 -169.5 73.5t-70.5 176.5v7h-125v-247h-30v750h30v-474h127q12 91 80.5 152.5t158.5 61.5q98 2 171 -73.5t71 -176.5zM705 240q0 93 -60.5 157t-149.5 64q-88 0 -148.5 -64t-60.5 -157q0 -92 60 -156.5t148 -64.5 q90 0 150.5 64t60.5 157z"></glyph><glyph glyph-name="uni0431.loclSRB" d="M553 240q0 -104 -72.5 -177t-175.5 -73q-100 -2 -173.5 72.5t-71.5 177.5q0 96 64 166t158 79l-57 21q-69 26 -98.5 57t-29.5 76q0 52 36.5 81.5t111.5 29.5h255v-28h-255q-118 0 -118 -84q0 -36 24 -59.5t83 -44.5l149 -54q80 -29 125 -93.5t45 -146.5zM521 240 q0 92 -62.5 156.5t-152.5 64.5t-152 -64t-62 -157q0 -94 61.5 -157.5t151.5 -63.5q91 0 153.5 64.5t62.5 156.5z"></glyph><glyph glyph-name="uni0430.ss01" d="M506 480h30v-480h-30v115q-25 -57 -82 -91t-124 -34q-101 0 -170.5 73.5t-69.5 176.5q0 104 69.5 177t170.5 73q67 0 124 -34t82 -91v115zM506 240q0 106 -59.5 163.5t-146.5 57.5q-90 0 -149 -63.5t-59 -157.5q0 -93 59.5 -157t148.5 -64q87 0 146.5 57.5t59.5 163.5z "></glyph><glyph glyph-name="uni0434.ss01" d="M476 28h49v-169h-30v141h-435v-141h-30v169h50l191 462h15zM112 28h332l-166 409z"></glyph><glyph glyph-name="uni0443.ss01" d="M422 480h30v-475q0 -95 -52 -144q-52 -51 -132 -51q-113 0 -184 95l22 19q66 -86 161 -86q69 0 112 44t43 122v83q-49 -87 -158 -87q-82 0 -127.5 51.5t-45.5 137.5v291h30v-291q0 -72 38.5 -116t105.5 -44q69 0 113 44t44 112v295z"></glyph><glyph glyph-name="uni045E.ss01" d="M422 480h30v-475q0 -95 -52 -144q-52 -51 -132 -51q-113 0 -184 95l22 19q66 -86 161 -86q69 0 112 44t43 122v83q-49 -87 -158 -87q-82 0 -127.5 51.5t-45.5 137.5v291h30v-291q0 -72 38.5 -116t105.5 -44q69 0 113 44t44 112v295zM134 719v34h30v-32q0 -56 28 -87.5 t77 -31.5t77 31.5t28 87.5v32h30v-34q0 -66 -36.5 -105t-98.5 -39t-98.5 39t-36.5 105z"></glyph><glyph glyph-name="uni0444.ss01" d="M982 240q2 -103 -69.5 -177.5t-169.5 -72.5q-69 0 -126.5 35t-81.5 92l1 -297h-30l1 297q-24 -57 -81.5 -92t-126.5 -35q-98 -2 -169.5 72.5t-69.5 177.5q-2 102 69.5 177t169.5 73q70 0 127.5 -35t81.5 -94l-2 389h30l-1 -387q24 57 81.5 92t126.5 35q98 2 169.5 -73 t69.5 -177zM506 240q0 106 -59.5 163.5t-145.5 57.5q-91 0 -150 -64t-59 -157q0 -94 59 -157.5t150 -63.5q86 0 145.5 57.5t59.5 163.5zM950 240q0 93 -59 157t-150 64q-86 0 -145.5 -57.5t-59.5 -163.5t59.5 -163.5t145.5 -57.5q91 0 150 63.5t59 157.5z"></glyph><glyph glyph-name="uni04EF.ss01" d="M422 480h30v-475q0 -95 -52 -144q-52 -51 -132 -51q-113 0 -184 95l22 19q66 -86 161 -86q69 0 112 44t43 122v83q-49 -87 -158 -87q-82 0 -127.5 51.5t-45.5 137.5v291h30v-291q0 -72 38.5 -116t105.5 -44q69 0 113 44t44 112v295zM143 653v28h252v-28h-252z"></glyph><glyph glyph-name="uni04F3.ss01" d="M422 480h30v-475q0 -95 -52 -144q-52 -51 -132 -51q-113 0 -184 95l22 19q66 -86 161 -86q69 0 112 44t43 122v83q-49 -87 -158 -87q-82 0 -127.5 51.5t-45.5 137.5v291h30v-291q0 -72 38.5 -116t105.5 -44q69 0 113 44t44 112v295zM159 562l96 218h37v-5l-107 -213h-26z M343 562l96 218h37v-5l-107 -213h-26z"></glyph><glyph glyph-name="Xi.ss01" d="M590 631h-259v-282h178v-28h-178v-292h259v-29h-550v29h259v292h-178v28h178v282h-259v29h550v-29z"></glyph><glyph glyph-name="xi.ss01" d="M142 573q0 -72 45 -121.5t111 -49.5h104v-28h-120q-83 0 -131 -47.5t-48 -129.5q0 -67 42 -109t123 -55l47 -8q125 -21 125 -129q0 -41 -20 -76h-32q20 38 20 76q0 43 -24 67t-77 33l-51 8q-88 14 -136.5 66t-48.5 129q0 76 39.5 127t113.5 68q-53 20 -83.5 67t-30.5 110 q0 82 55 135t141 53q51 0 96.5 -25t75.5 -70l-22 -18q-55 84 -149 84q-75 0 -120 -43t-45 -114z"></glyph><glyph glyph-name="zero.osf" d="M58 264q-2 112 80 195t195 81q112 2 195 -81t81 -195q2 -112 -81 -194t-196 -80q-113 -2 -194.5 80t-79.5 194zM577 264q0 105 -69.5 176t-174.5 71q-104 0 -173.5 -71t-69.5 -176q0 -103 69.5 -174t172.5 -71q105 0 175 71t70 174z"></glyph><glyph glyph-name="one.osf" d="M85 0v28h160v474h-149v28h180v-502h151v-28h-342z"></glyph><glyph glyph-name="two.osf" d="M117 28h359v-28h-427v12l186 132q63 44 95 72q80 70 80 152q0 64 -38.5 103.5t-105.5 39.5q-69 0 -110 -42t-41 -102q0 -29 7 -57h-31q-8 29 -8 57q0 70 51 121.5t132 51.5q78 0 127 -47t49 -122q0 -52 -25 -95q-23 -40 -60.5 -74t-104.5 -80z"></glyph><glyph glyph-name="three.osf" d="M443 79q0 -97 -64 -154.5t-158 -57.5q-129 0 -211 125l24 18q74 -114 189 -114q82 0 135 52t53 132q0 78 -52.5 124t-143.5 46h-44v12l200 240h-321v28h373v-12l-201 -240h9q86 0 149 -52t63 -147z"></glyph><glyph glyph-name="four.osf" d="M496 28v-28h-105v-121h-32v121h-333v12l225 518h33l-218 -502h293v253h32v-253h105z"></glyph><glyph glyph-name="five.osf" d="M472 80q0 -97 -64 -155t-154 -58q-133 0 -215 125l23 18q74 -114 194 -114q79 0 131.5 52t52.5 132t-52 125.5t-144 45.5h-145v279h338v-28h-306v-228q55 5 114 5q97 0 162 -50t65 -149z"></glyph><glyph glyph-name="six.osf" d="M482 200q0 -88 -60.5 -149t-150.5 -61t-150.5 61t-60.5 150q0 47 17 86.5t60 103.5l15 22l164 247h38l-191 -282q47 32 107 32q89 0 150.5 -61.5t61.5 -148.5zM450 199q0 77 -51.5 129.5t-127.5 52.5t-127.5 -52.5t-51.5 -129.5q0 -76 51.5 -128t127.5 -52t127.5 52 t51.5 128z"></glyph><glyph glyph-name="seven.osf" d="M32 530h423v-12l-356 -639h-34l346 623h-379v28z"></glyph><glyph glyph-name="eight.osf" d="M503 162q0 -76 -59.5 -124t-159.5 -48t-159.5 48t-59.5 125q0 126 181 186q-149 56 -149 166q0 72 53 113q54 42 134 42t133 -42q54 -40 54 -114q0 -113 -149 -164q87 -32 134 -76.5t47 -111.5zM284 364q80 29 117.5 63.5t37.5 86.5q0 57 -43.5 92t-111.5 35t-111.5 -35 t-43.5 -92q0 -52 37.5 -86.5t117.5 -63.5zM471 163q-3 67 -46 101t-141 69q-98 -35 -141 -69t-46 -101q0 -65 50.5 -104.5t136.5 -39.5q87 0 137 39.5t50 104.5z"></glyph><glyph glyph-name="nine.osf" d="M482 331q0 -36 -11 -71q-11 -33 -27 -60q-20 -32 -54 -83l-158 -238h-38l185 273q-47 -32 -107 -32q-89 0 -150.5 61.5t-61.5 148.5q0 88 60.5 149t150.5 61q89 0 150 -61t61 -148zM450 331q0 76 -51.5 128t-127.5 52t-127.5 -52t-51.5 -128q0 -77 51.5 -129.5 t127.5 -52.5t127.5 52.5t51.5 129.5z"></glyph><glyph glyph-name="zero.osf.zero" d="M609 264q2 -112 -81 -194t-196 -80q-113 -2 -194.5 80t-79.5 194q-2 112 80 195t195 81q112 2 195 -81t81 -195zM87 265q0 -95 63 -166l349 350q-71 63 -166 63q-101 2 -174.5 -71.5t-71.5 -175.5zM580 265q0 92 -60 163l-349 -350q70 -59 161 -59q102 0 175 72t73 174z "></glyph><glyph glyph-name="zero.tf" d="M60 336q0 153 54 243q55 91 166 91t165 -91q55 -89 55 -243q0 -152 -54 -249t-166 -97t-166 97t-54 249zM466 336q0 138 -45 220q-44 83 -141 83t-142 -83q-44 -83 -44 -220q0 -140 45 -228q45 -87 141 -87t141 87q45 88 45 228z"></glyph><glyph glyph-name="one.tf" d="M319 29h190v-29h-432v29h210v597l-199 -53l-8 27l224 60h15v-631z"></glyph><glyph glyph-name="two.tf" d="M126 29h380v-29h-437v12l241 246q66 69 96 115q32 50 32 106q0 67 -42.5 113.5t-114.5 46.5q-73 0 -118 -49t-45 -113q0 -30 8 -60h-34q-8 30 -8 61q0 77 54.5 134.5t140.5 57.5q84 0 138.5 -54.5t54.5 -134.5q0 -45 -18 -86t-46 -73q-37 -42 -77 -84z"></glyph><glyph glyph-name="three.tf" d="M473 203q0 -97 -65 -155t-157 -58q-129 0 -211 125l24 18q72 -112 189 -112q82 0 134 51t52 131q0 78 -52 123.5t-142 45.5h-50v13l205 246h-320v29h373v-12l-207 -248q3 1 15 1q86 0 149 -52t63 -146z"></glyph><glyph glyph-name="four.tf" d="M506 163v-29h-105v-134h-32v134h-333v12l225 514h33l-218 -497h293v252h32v-252h105z"></glyph><glyph glyph-name="five.tf" d="M492 202q0 -96 -65 -154t-154 -58q-134 0 -215 124l23 18q70 -111 194 -111q79 0 131 51t52 130q0 80 -51.5 125t-143.5 45h-145v288h338v-29h-306v-232q58 3 114 3q98 0 163 -51q65 -50 65 -149z"></glyph><glyph glyph-name="six.tf" d="M491 200q0 -88 -60.5 -149t-150.5 -61t-150.5 61t-60.5 150q0 47 17 86.5t60 103.5l15 22l164 247h38l-191 -282q47 32 107 32q89 0 150.5 -61.5t61.5 -148.5zM459 199q0 77 -51.5 129.5t-127.5 52.5t-127.5 -52.5t-51.5 -129.5q0 -76 51.5 -128t127.5 -52t127.5 52 t51.5 128z"></glyph><glyph glyph-name="seven.tf" d="M72 660h423v-12l-361 -648h-34l351 631h-379v29z"></glyph><glyph glyph-name="eight.tf" d="M499 162q0 -76 -59.5 -124t-159.5 -48t-159.5 48t-59.5 125q0 126 181 186q-149 56 -149 166q0 72 53 113q54 42 134 42t133 -42q54 -40 54 -114q0 -113 -149 -164q87 -32 134 -76.5t47 -111.5zM280 364q80 29 117.5 63.5t37.5 86.5q0 57 -43.5 92t-111.5 35t-111.5 -35 t-43.5 -92q0 -52 37.5 -86.5t117.5 -63.5zM467 163q-3 67 -46 101t-141 69q-98 -35 -141 -69t-46 -101q0 -65 50.5 -104.5t136.5 -39.5q87 0 137 39.5t50 104.5z"></glyph><glyph glyph-name="nine.tf" d="M491 459q0 -47 -17 -86.5t-60 -103.5l-15 -22l-164 -247h-38l191 282q-47 -32 -107 -32q-89 0 -150.5 61.5t-61.5 148.5q0 88 60.5 149t150.5 61t150.5 -61t60.5 -150zM459 461q0 76 -51.5 128t-127.5 52t-127.5 -52t-51.5 -128q0 -77 51.5 -129.5t127.5 -52.5 t127.5 52.5t51.5 129.5z"></glyph><glyph glyph-name="zero.tf.zero" d="M500 336q0 -152 -54 -249t-166 -97t-166 97t-54 249q0 153 54 243q55 91 166 91t165 -91q55 -89 55 -243zM94 336q0 -86 16 -149l329 330q-44 122 -159 122q-97 0 -142 -83q-44 -83 -44 -220zM466 336q0 86 -17 149l-330 -331q44 -133 161 -133q96 0 141 87q45 88 45 228 z"></glyph><glyph glyph-name="zero.tosf" d="M35 264q-2 114 69 195.5t176 80.5q105 0 175 -80.5t70 -195.5q0 -116 -70 -195t-176 -79t-175 79t-69 195zM493 264q0 107 -59 177t-154 70t-154 -70t-59 -177q0 -105 58.5 -175t153.5 -70q96 0 155 70t59 175z"></glyph><glyph glyph-name="one.tosf" d="M68 0v28h210v474h-189v28h220v-502h191v-28h-432z"></glyph><glyph glyph-name="two.tosf" d="M117 28h359v-28h-427v12l186 132q63 44 95 72q80 70 80 152q0 64 -38.5 103.5t-105.5 39.5q-69 0 -110 -42t-41 -102q0 -29 7 -57h-31q-8 29 -8 57q0 70 51 121.5t132 51.5q78 0 127 -47t49 -122q0 -52 -25 -95q-23 -40 -60.5 -74t-104.5 -80z"></glyph><glyph glyph-name="three.tosf" d="M473 80q0 -97 -65 -155t-157 -58q-129 0 -211 125l24 18q74 -114 189 -114q82 0 135 52t53 132q0 78 -52.5 124t-143.5 46h-44v12l200 240h-321v28h373v-12l-201 -240h3q91 0 154.5 -51.5t63.5 -146.5z"></glyph><glyph glyph-name="four.tosf" d="M496 28v-28h-105v-121h-32v121h-333v12l225 518h33l-218 -502h293v253h32v-253h105z"></glyph><glyph glyph-name="five.tosf" d="M492 80q0 -96 -64.5 -154.5t-153.5 -58.5q-133 0 -215 125l23 18q74 -114 194 -114q79 0 131.5 52t52.5 132t-52 125.5t-144 45.5h-145v279h338v-28h-306v-228q55 5 114 5q97 0 162 -50t65 -149z"></glyph><glyph glyph-name="six.tosf" d="M491 200q0 -88 -60.5 -149t-150.5 -61t-150.5 61t-60.5 150q0 47 17 86.5t60 103.5l15 22l164 247h38l-191 -282q47 32 107 32q89 0 150.5 -61.5t61.5 -148.5zM459 199q0 77 -51.5 129.5t-127.5 52.5t-127.5 -52.5t-51.5 -129.5q0 -76 51.5 -128t127.5 -52t127.5 52 t51.5 128z"></glyph><glyph glyph-name="seven.tosf" d="M72 530h423v-12l-356 -639h-34l346 623h-379v28z"></glyph><glyph glyph-name="eight.tosf" d="M499 162q0 -76 -59.5 -124t-159.5 -48t-159.5 48t-59.5 125q0 126 181 186q-149 56 -149 166q0 72 53 113q54 42 134 42t133 -42q54 -40 54 -114q0 -113 -149 -164q87 -32 134 -76.5t47 -111.5zM280 364q80 29 117.5 63.5t37.5 86.5q0 57 -43.5 92t-111.5 35t-111.5 -35 t-43.5 -92q0 -52 37.5 -86.5t117.5 -63.5zM467 163q-3 67 -46 101t-141 69q-98 -35 -141 -69t-46 -101q0 -65 50.5 -104.5t136.5 -39.5q87 0 137 39.5t50 104.5z"></glyph><glyph glyph-name="nine.tosf" d="M491 331q0 -36 -11 -71q-10 -33 -27 -60q-20 -32 -54 -83l-158 -238h-38l185 273q-47 -32 -107 -32q-89 0 -150.5 61.5t-61.5 148.5q0 88 60.5 149t150.5 61q89 0 150 -61t61 -148zM459 331q0 76 -51.5 128t-127.5 52t-127.5 -52t-51.5 -128q0 -77 51.5 -129.5 t127.5 -52.5t127.5 52.5t51.5 129.5z"></glyph></font>
</defs>
</svg>
